<?xml version="1.0" standalone="no"?>
<!DOCTYPE svg PUBLIC "-//W3C//DTD SVG 1.1//EN" "http://www.w3.org/Graphics/SVG/1.1/DTD/svg11.dtd" >
<svg xmlns="http://www.w3.org/2000/svg" xmlns:xlink="http://www.w3.org/1999/xlink" version="1.1">
<metadata>
Created by FontForge 20201107 at Mon Jul  8 22:31:20 2013
 By 
Copyright (c) 2013 by Eduilson Coan. All rights reserved.
</metadata>
<defs>
<font id="EncorpadaClassic-Bold" horiz-adv-x="769" >
  <font-face 
    font-family="Encorpada Classic"
    font-weight="700"
    font-stretch="normal"
    units-per-em="1000"
    panose-1="0 0 8 0 0 0 0 0 0 0"
    ascent="750"
    descent="-250"
    x-height="500"
    cap-height="700"
    bbox="-264 -370 1242 1049"
    underline-thickness="50"
    underline-position="-200"
    unicode-range="U+0020-25CA"
  />
<missing-glyph horiz-adv-x="500" 
d="M0 0v700h500v-700h-500zM250 395l170 255h-340zM280 350l170 -255v510zM80 50h340l-170 255zM50 605v-510l170 255z" />
    <glyph glyph-name=".notdef" horiz-adv-x="500" 
d="M0 0v700h500v-700h-500zM250 395l170 255h-340zM280 350l170 -255v510zM80 50h340l-170 255zM50 605v-510l170 255z" />
    <glyph glyph-name=".null" horiz-adv-x="0" 
 />
    <glyph glyph-name="nonmarkingreturn" horiz-adv-x="333" 
 />
    <glyph glyph-name="space" unicode=" " horiz-adv-x="231" 
 />
    <glyph glyph-name="exclam" unicode="!" horiz-adv-x="315" 
d="M162 248h-10q-4 74 -20.5 137.5t-33 98t-30 71.5t-13.5 66q0 47 28.5 75.5t73.5 28.5t73.5 -28.5t28.5 -75.5q0 -29 -13.5 -66t-30 -71.5t-32.5 -98t-21 -137.5zM157 164q37 0 62.5 -26t25.5 -63t-25.5 -63t-62.5 -26t-63 26t-26 63t26 63t63 26z" />
    <glyph glyph-name="quotedbl" unicode="&#x22;" horiz-adv-x="413" 
d="M125 508h-10q-3 53 -29.5 105t-26.5 73q0 27 17 45.5t44 18.5t44 -18.5t17 -45.5q0 -22 -26 -73.5t-30 -104.5zM299 508h-10q-3 53 -29.5 105t-26.5 73q0 27 17 45.5t44 18.5t43.5 -18.5t16.5 -45.5q0 -21 -26 -73t-29 -105z" />
    <glyph glyph-name="numbersign" unicode="#" horiz-adv-x="809" 
d="M553 464l-81 -229h208l-3 -10h-209l-80 -226h-10l80 226h-199l-80 -226h-10l80 226h-192l3 10h193l81 229h-197l4 10h196l79 223h10l-79 -223h199l79 223h10l-79 -223h195l-4 -10h-194zM543 464h-199l-81 -229h199z" />
    <glyph glyph-name="dollar" unicode="$" horiz-adv-x="632" 
d="M333 698v-238q9 -4 43 -19.5t46.5 -21.5t41.5 -22t42 -27.5t33 -31t29 -39t16.5 -45.5t7.5 -56q0 -95 -70.5 -150.5t-188.5 -57.5v-85h-10v85q-51 1 -115.5 35.5t-89.5 34.5q-38 0 -38 -59h-10v264h10q17 -123 91.5 -192.5t151.5 -72.5v237l-44 20t-47 22t-43 23
t-43.5 27.5t-35 31.5t-30 39.5t-17 46t-7.5 55.5q0 93 67 150.5t180 57.5l20 -1v87h10v-87q41 -5 93 -26.5t77 -21.5q33 0 33 58h10v-215h-10q-13 76 -70.5 130t-132.5 64zM323 699l-19 1q-49 0 -78 -26.5t-29 -68.5q0 -48 32.5 -79.5t93.5 -60.5v234zM333 232v-232
q118 3 118 107q0 41 -30.5 69.5t-87.5 55.5z" />
    <glyph glyph-name="percent" unicode="%" horiz-adv-x="828" 
d="M207 729q66 0 114 -45.5t48 -111.5t-48.5 -113t-114.5 -47q-67 0 -116 46t-49 111q0 67 49 113.5t117 46.5zM743 715l-639 -727l-8 7l639 727zM206 716q-59 0 -59 -147q0 -143 59 -143q57 0 57 145t-57 145zM625 308q66 0 114 -45.5t48 -111.5t-48.5 -113t-114.5 -47
q-67 0 -116 46t-49 111q0 67 49 113.5t117 46.5zM624 295q-59 0 -59 -147q0 -143 59 -143q57 0 57 145t-57 145z" />
    <glyph glyph-name="ampersand" unicode="&#x26;" horiz-adv-x="1010" 
d="M991 153l8 -3q-37 -81 -95.5 -121.5t-150.5 -40.5q-85 0 -161 45q-99 -43 -226 -43q-135 0 -220.5 68.5t-85.5 186.5q0 95 67 166t180 106q-3 25 -3 52q0 89 43.5 140t117.5 51q52 0 81.5 -26t29.5 -70q0 -79 -98 -119q25 -106 91.5 -222.5t147.5 -185.5q76 81 76 149
q0 30 -17 44t-56 14h-25v10h252v-10h-25q-44 0 -67.5 -14t-37.5 -50q-33 -86 -91 -151q77 -62 144 -62q83 0 121 86zM517 722q-23 0 -36.5 -25t-13.5 -67q0 -26 9 -75q40 15 64.5 44.5t24.5 64.5q0 27 -13 42.5t-35 15.5zM475 19q53 0 105 22q-107 67 -181.5 199.5
t-90.5 267.5q-97 -43 -97 -191q0 -120 72 -209t192 -89z" />
    <glyph glyph-name="quotesingle" unicode="'" horiz-adv-x="240" 
d="M125 508h-10q-3 53 -29.5 105t-26.5 73q0 27 17 45.5t44 18.5t44 -18.5t17 -45.5q0 -22 -26 -73.5t-30 -104.5z" />
    <glyph glyph-name="parenleft" unicode="(" horiz-adv-x="418" 
d="M398 772l3 -6q-73 -66 -113.5 -182t-40.5 -264q0 -131 41 -244t114 -193l-4 -7q-157 59 -250.5 179.5t-93.5 264.5q0 149 91 273.5t253 178.5z" />
    <glyph glyph-name="parenright" unicode=")" horiz-adv-x="418" 
d="M17 766l4 6q161 -54 252 -178.5t91 -273.5q0 -144 -93 -265t-250 -179l-4 7q73 81 114 193.5t41 243.5q0 147 -41 263.5t-114 182.5z" />
    <glyph glyph-name="asterisk" unicode="*" horiz-adv-x="592" 
d="M304 508h-14q0 53 -13 87t-26 54.5t-13 39.5q0 28 16 44.5t43 16.5t43.5 -16.5t16.5 -44.5q0 -16 -8.5 -33t-18 -31t-18 -45t-8.5 -72zM271 495l-5 -12q-49 18 -88 17.5t-54 -7.5t-45 1q-26 9 -36 30.5t-1 46.5q9 26 30 35.5t48 -0.5q15 -5 28 -18.5t22.5 -27.5t35.5 -32
t65 -33zM326 483l-5 12q39 15 65 33t35.5 32t22.5 27.5t28 18.5q27 10 48 0.5t31 -35.5q8 -25 -2 -46.5t-36 -30.5q-18 -6 -44.5 -1t-54 7.5t-88.5 -17.5zM273 459l10 -9q-33 -41 -45 -75.5t-14.5 -58t-14.5 -38.5q-18 -22 -42 -24t-44 15q-20 18 -22 41t17 44q13 15 36 23
t54 25.5t65 56.5zM309 449l11 10q34 -39 65 -56.5t54 -25.5t36 -23q38 -45 -5 -85q-21 -17 -45 -15t-41 24q-12 15 -14.5 38.5t-14.5 57.5t-46 75z" />
    <glyph glyph-name="plus" unicode="+" horiz-adv-x="636" 
d="M612 345h-288v-259h-10v259h-290v10h290v260h10v-260h288v-10z" />
    <glyph glyph-name="comma" unicode="," horiz-adv-x="283" 
d="M65 -97v10q144 2 144 144q-2 -29 -24 -48t-55 -19q-36 0 -58 21.5t-22 56.5q0 38 23.5 61t61.5 23q39 0 62 -26t22 -69q0 -154 -154 -154z" />
    <glyph glyph-name="hyphen" unicode="-" horiz-adv-x="460" 
d="M420 235h-380v10h380v-10z" />
    <glyph glyph-name="period" unicode="." horiz-adv-x="290" 
d="M145 164q37 0 63 -26t26 -63t-26 -63t-63 -26t-62.5 26t-25.5 63t25.5 63t62.5 26z" />
    <glyph glyph-name="slash" unicode="/" horiz-adv-x="288" 
d="M26 -39h-10l248 749h10z" />
    <glyph glyph-name="zero" unicode="0" horiz-adv-x="698" 
d="M367 713q129 0 210.5 -103.5t81.5 -259.5q0 -157 -91.5 -260.5t-237.5 -103.5q-131 0 -211 100t-80 264q0 156 91.5 259.5t236.5 103.5zM348 703q-37 0 -59.5 -28.5t-35 -107.5t-12.5 -217q0 -136 13.5 -216.5t35 -109t55.5 -28.5q38 0 61.5 29t37 108t13.5 217
q0 137 -14 216.5t-36.5 108t-58.5 28.5z" />
    <glyph glyph-name="one" unicode="1" horiz-adv-x="501" 
d="M351 710v-626q0 -43 24.5 -58.5t93.5 -15.5v-10h-426v10q71 0 95.5 15.5t24.5 58.5v463q0 31 -9 45.5t-35 19.5q-30 4 -92 -3l-1 10q89 6 174.5 30t141.5 65z" />
    <glyph glyph-name="two" unicode="2" horiz-adv-x="635" 
d="M50 6l-8 1q-3 18 -3 38q-1 64 18.5 113t51 78.5t69.5 53.5t76 45t69.5 44.5t51.5 60.5t20 85q0 75 -42.5 120.5t-112.5 45.5t-123 -45.5t-53 -114.5q3 32 26.5 53t54.5 21q36 0 58.5 -21.5t22.5 -56.5q0 -39 -23.5 -63t-63.5 -24q-38 0 -61.5 25t-23.5 66q0 85 70 133.5
t191 48.5q124 0 194 -51t70 -141q0 -101 -77 -156.5t-214 -69.5q-205 -31 -226 -176q39 74 148 74q53 0 134.5 -24.5t127.5 -24.5t71.5 22t25.5 58q0 20 -7 37l9 3q25 -54 25 -119q0 -73 -46 -116t-126 -43q-59 0 -151 39.5t-140 39.5q-62 0 -83 -59z" />
    <glyph glyph-name="three" unicode="3" horiz-adv-x="621" 
d="M233 364v10q77 0 117.5 44t39.5 118q0 72 -39 112.5t-109 40.5t-118.5 -41.5t-48.5 -100.5q18 68 82 68q32 0 53 -21t21 -55q0 -36 -22.5 -57.5t-60.5 -21.5q-36 0 -60 24t-24 63q0 79 71 122.5t187 43.5q99 0 167 -45t68 -126q0 -78 -72.5 -124.5t-195.5 -46.5
q136 0 214.5 -49.5t78.5 -136.5q0 -94 -77 -146.5t-207 -52.5q-121 0 -190 44.5t-69 122.5q0 43 25.5 70t63.5 27q39 0 62 -23.5t23 -62.5q0 -35 -23.5 -57t-59.5 -22q-30 0 -51.5 18t-29.5 50q0 -62 50 -102t124 -40q80 0 123.5 47t43.5 130q-1 176 -157 176z" />
    <glyph glyph-name="four" unicode="4" horiz-adv-x="682" 
d="M9 225l-2 5q108 49 182.5 177.5t74.5 307.5q48 -15 99 -15q55 0 104 15q0 -168 -124.5 -305t-311.5 -175h341v127q73 26 125 94.5t52 149.5h10v-371h116v-10h-116v-141q0 -43 21 -58.5t77 -15.5v-10h-402v10q68 0 92.5 15.5t24.5 58.5v141h-363z" />
    <glyph glyph-name="five" unicode="5" horiz-adv-x="627" 
d="M83 705v-71q28 47 58 67t74 20q39 0 114 -32.5t115 -32.5q38 0 58 18.5t22 46.5l7 2q18 -42 18 -81q0 -64 -41.5 -101t-108.5 -37q-38 0 -75 14t-61.5 31t-54.5 38.5t-49 30.5q-41 19 -76 5v-274q59 24 106.5 35t123.5 11q132 0 201.5 -56t69.5 -142q0 -95 -84.5 -153
t-209.5 -58q-119 0 -185 45.5t-66 122.5q0 42 25 67t65 25q37 0 59.5 -24.5t22.5 -62.5q0 -34 -22.5 -57t-59.5 -23q-34 0 -56.5 20t-23.5 55q0 -61 49 -104t127 -43q80 0 125 49.5t45 136.5q0 83 -41.5 132t-113.5 49q-79 0 -162 -38l-5 2v367h10z" />
    <glyph glyph-name="six" unicode="6" horiz-adv-x="675" 
d="M420 407q100 0 160 -52.5t60 -141.5q0 -100 -81 -162.5t-214 -64.5q-147 -1 -226.5 91t-79.5 258t103 272t269 106q92 0 142 -38t50 -103q0 -42 -23 -66.5t-64 -24.5q-39 0 -62 22t-23 59q0 38 23.5 61t58.5 23q65 0 80 -74q0 61 -46 95.5t-121 34.5q-89 0 -139 -92.5
t-51 -248.5q80 48 184 46zM349 -4q109 0 109 204q0 186 -109 186q-58 0 -113 -36q0 -184 27 -269t86 -85z" />
    <glyph glyph-name="seven" unicode="7" horiz-adv-x="540" 
d="M507 709h10q0 -75 -18 -139t-44.5 -112t-52.5 -96t-44 -112t-18 -139q0 -59 -26 -92t-74 -33t-73.5 29.5t-25.5 83.5q0 59 31 109.5t77.5 92t95.5 83.5t92.5 102t59.5 130l-2 -5q-29 11 -50.5 3.5t-54 -27t-61.5 -39.5t-73.5 -36t-90.5 -16q-64 0 -104 38t-40 102
q0 44 19 86l6 -2q-2 -15 1 -24q12 -40 78 -40q40 0 111.5 29.5t118.5 29.5q92 0 143 -95q9 40 9 89z" />
    <glyph glyph-name="eight" unicode="8" horiz-adv-x="666" 
d="M326 713q134 0 204.5 -42.5t70.5 -122.5q0 -84 -64 -130t-175 -48q125 -1 195 -54t70 -142q0 -90 -79 -139t-210 -49q-299 0 -299 188q0 89 68.5 141.5t192.5 54.5q-113 1 -174.5 45t-61.5 122q0 81 69 128.5t193 47.5zM331 703q-87 0 -87 -164q0 -73 23 -118.5t64 -45.5
q43 0 67.5 46.5t24.5 121.5q0 160 -92 160zM331 365q-46 0 -73 -50t-27 -132q0 -187 103 -187q101 0 101 187q0 83 -28 132.5t-76 49.5z" />
    <glyph glyph-name="nine" unicode="9" horiz-adv-x="675" 
d="M330 713q147 2 226 -90t79 -258t-104.5 -272.5t-273.5 -106.5q-94 0 -149.5 40.5t-55.5 105.5q0 40 24.5 65t62.5 25t61.5 -22t23.5 -59t-23.5 -60t-58.5 -23q-65 0 -80 74q0 -61 51.5 -97.5t128.5 -36.5q196 0 197 341q-77 -46 -184 -46q-100 0 -160.5 53t-60.5 141
q0 99 82 162t214 64zM217 501q0 -187 109 -187q58 0 113 36q0 184 -27.5 268.5t-86.5 84.5q-108 0 -108 -202z" />
    <glyph glyph-name="colon" unicode=":" horiz-adv-x="270" 
d="M134 505q37 0 63 -25.5t26 -62.5t-25.5 -63t-63.5 -26q-37 0 -62.5 26t-25.5 63t25.5 62.5t62.5 25.5zM134 164q37 0 63 -25.5t26 -62.5t-26 -63t-63 -26t-62.5 26t-25.5 63t25.5 62.5t62.5 25.5z" />
    <glyph glyph-name="semicolon" unicode=";" horiz-adv-x="300" 
d="M149 505q37 0 62.5 -25.5t25.5 -62.5t-25.5 -63t-62.5 -26t-63 26t-26 63t26 62.5t63 25.5zM78 -102v10q149 2 149 149q-2 -30 -25 -50t-57 -20q-37 0 -60 22.5t-23 58.5q0 39 24 63t64 24t64 -27t23 -71q-1 -159 -159 -159z" />
    <glyph glyph-name="less" unicode="&#x3c;" horiz-adv-x="638" 
d="M35 353l571 -268l-5 -10l-577 272v12l579 271l5 -10z" />
    <glyph glyph-name="equal" unicode="=" horiz-adv-x="638" 
d="M613 460h-588v10h588v-10zM613 237h-588v10h588v-10z" />
    <glyph glyph-name="greater" unicode="&#x3e;" horiz-adv-x="638" 
d="M614 359v-12l-577 -272l-5 10l571 268l-573 267l5 10z" />
    <glyph glyph-name="question" unicode="?" horiz-adv-x="596" 
d="M258 241l-8 -3q-13 29 -13 51q0 29 15 56t36.5 50t43 48t36.5 62t15 81q0 71 -43 113t-116 42q-68 0 -114 -45t-46 -112q16 70 84 70q36 0 58 -22t22 -59q0 -38 -23.5 -61t-63.5 -23t-63.5 26t-23.5 69q0 85 64.5 133t184.5 48q108 0 177 -51t69 -129q0 -44 -16.5 -78.5
t-42.5 -56t-58 -38.5t-64 -30.5t-58 -27t-42.5 -33t-16.5 -44.5q0 -16 7 -36zM261 167q37 0 63 -25.5t26 -63.5t-26 -64t-63 -26t-63 26t-26 64t26 63.5t63 25.5z" />
    <glyph glyph-name="at" unicode="@" horiz-adv-x="1063" 
d="M751 -142l5 -10q-45 -28 -112 -45t-132 -17q-209 0 -335.5 118.5t-126.5 314.5q0 217 138 348.5t365 131.5q208 0 335 -121.5t127 -322.5q0 -118 -63.5 -195.5t-164.5 -77.5q-85 0 -133.5 47.5t-57.5 135.5q-8 -74 -59 -122t-128 -48q-65 0 -104.5 34t-39.5 89
q0 57 40.5 89.5t113.5 32.5h166v122q0 58 -34.5 92t-94.5 34q-68 0 -110.5 -36t-42.5 -90q8 30 31.5 48.5t50.5 18.5q31 0 50.5 -20t19.5 -53q0 -36 -21 -57.5t-58 -21.5t-60 23t-23 61q0 155 270 155q206 0 206 -190v-196q0 -116 80 -116q61 0 108.5 71t47.5 170
q0 196 -124 315t-328 119q-223 0 -358 -129t-135 -341q0 -189 125 -306t327 -117q65 0 131 17t108 45zM585 230h-96q-66 0 -66 -95q0 -97 60 -97q33 0 63 39t39 85v68z" />
    <glyph glyph-name="A" unicode="A" 
d="M757 10v-10h-382v10h28q35 0 49.5 12.5t14.5 39.5q0 25 -21 75l-27 68h-237l-33 -75q-19 -44 -19 -69q0 -51 66 -51h42v-10h-226v10h20q29 0 53 28t53 93l252 569h18l251 -612q18 -47 32.5 -62.5t44.5 -15.5h21zM415 215l-108 274l-121 -274h229z" />
    <glyph glyph-name="B" unicode="B" horiz-adv-x="791" 
d="M18 700h463q105 0 163 -41t58 -117q0 -67 -50 -108.5t-137 -46.5q100 -6 161.5 -57.5t61.5 -129.5q0 -91 -67 -145.5t-180 -54.5h-473v10h31q37 0 51.5 14t14.5 52v548q0 38 -14.5 52t-51.5 14h-31v10zM401 690h-75q-20 0 -20 -20v-279h88q64 0 94.5 34t30.5 106
q0 159 -118 159zM326 10h82q67 0 99 46t32 143q0 182 -145 182h-88v-351q0 -11 4.5 -15.5t15.5 -4.5z" />
    <glyph glyph-name="C" unicode="C" 
d="M712 406h-10q-26 149 -88.5 219t-159.5 72q-92 0 -150 -97t-58 -253q0 -165 58 -250.5t170 -85.5q136 0 249 141l9 -7q-64 -79 -140 -119t-197 -40q-171 0 -264 90.5t-93 257.5q0 169 105 274t273 105q70 0 140.5 -28t93.5 -28q51 0 52 54h10v-305z" />
    <glyph glyph-name="D" unicode="D" horiz-adv-x="819" 
d="M18 700h428q151 0 243 -94.5t92 -249.5q0 -161 -97 -258.5t-257 -97.5h-409v10h31q37 0 51.5 15t14.5 51v548q0 37 -14.5 51t-51.5 14h-31v11zM402 690h-76q-11 0 -15.5 -4.5t-4.5 -15.5v-640q0 -11 4.5 -15.5t15.5 -4.5h73q180 0 180 346q0 334 -177 334z" />
    <glyph glyph-name="E" unicode="E" horiz-adv-x="725" 
d="M685 270l-37 -265l-5 -5h-625v10h31q37 0 51.5 14t14.5 52v548q0 38 -14.5 52t-51.5 14h-31v10h609l5 -5l31 -255l-10 -2q-37 145 -81 198.5t-116 53.5h-130q-20 0 -20 -20v-312h93q64 0 88 28t24 101h10v-272h-10q0 76 -24 104.5t-88 28.5h-93v-317q0 -20 20 -21h143
q79 -1 127.5 59t78.5 202z" />
    <glyph glyph-name="F" unicode="F" horiz-adv-x="673" 
d="M645 439l-8 -1q-37 144 -80.5 198t-112.5 54h-118q-11 0 -15.5 -4.5t-4.5 -15.5v-322h79q58 0 84.5 32.5t26.5 100.5h10v-277h-10q0 70 -26.5 102t-84.5 32h-79v-256q0 -40 20 -56t70 -16h43v-10h-421v9h25q40 0 56 17t16 55v537q0 40 -15.5 56t-56.5 16h-25v10h601l5 -5
z" />
    <glyph glyph-name="G" unicode="G" horiz-adv-x="811" 
d="M747 69l-5 -5q-99 -40 -175 -59t-160 -19q-169 0 -269 93.5t-100 254.5q0 168 106 273.5t276 105.5q53 0 98 -14t77.5 -28t54.5 -14q52 0 53 50h10v-297h-10q-54 284 -245 289q-96 0 -154 -99t-58 -266q0 -157 50 -247t137 -90q62 0 94 27.5t32 78.5v148q0 37 -14.5 51.5
t-50.5 14.5h-35v10h332v-10q-24 0 -34 -11t-10 -37v-200z" />
    <glyph glyph-name="H" unicode="H" horiz-adv-x="894" 
d="M876 690h-32q-37 0 -51 -14.5t-14 -51.5v-548q0 -37 14 -51.5t51 -14.5h32v-10h-380v10h26q37 0 51 14.5t14 51.5v263h-281v-263q0 -37 14.5 -51.5t51.5 -14.5h26v-10h-380v10h31q37 0 51.5 14t14.5 52v548q0 38 -14.5 52t-51.5 14h-31v10h380v-10h-26q-37 0 -51.5 -14.5
t-14.5 -51.5v-275h281v275q0 37 -14 51.5t-51 14.5h-26v10h380v-10z" />
    <glyph glyph-name="I" unicode="I" horiz-adv-x="415" 
d="M398 690h-26q-37 0 -51.5 -14.5t-14.5 -51.5v-548q0 -37 14.5 -51.5t51.5 -14.5h26v-10h-380v10h31q37 0 51.5 14t14.5 52v548q0 38 -14.5 52t-51.5 14h-31v10h380v-10z" />
    <glyph glyph-name="J" unicode="J" horiz-adv-x="527" 
d="M505 690h-37q-38 0 -52 -14t-14 -52v-398q0 -106 -68.5 -171t-175.5 -65q-71 0 -110 36t-39 90q0 41 26.5 68.5t65.5 27.5q38 0 64 -23.5t26 -61.5q0 -39 -23.5 -62.5t-59.5 -23.5q-73 0 -89 75q0 -53 37.5 -84.5t95.5 -31.5q66 0 103 40.5t37 110.5q0 41 -23 72.5
t-58 45.5v355q0 37 -14.5 51.5t-51.5 14.5h-40v10h400v-10z" />
    <glyph glyph-name="K" unicode="K" horiz-adv-x="863" 
d="M557 369l196 -305q20 -30 40 -42t53 -12v-10h-369v10h26q37 0 37 30q0 15 -24 54l-162 245l-48 -47v-216q0 -37 14.5 -51.5t51.5 -14.5h23v-10h-377v10h31q37 0 51.5 14t14.5 52v548q0 38 -14.5 52t-51.5 14h-31v10h380v-10h-26q-35 0 -50.5 -15.5t-15.5 -50.5v-315
l252 251q42 42 42 77q0 24 -20 38.5t-55 14.5h-38v10h288v-10q-43 0 -84 -27t-114 -101l-170 -170l7 -8h113q21 0 30 -15z" />
    <glyph glyph-name="L" unicode="L" horiz-adv-x="705" 
d="M400 690h-26q-37 0 -51.5 -14.5t-14.5 -51.5v-594q0 -11 4.5 -15.5t15.5 -4.5h123q78 0 128 55.5t86 199.5l9 -2l-37 -258l-5 -5h-614v10h33q37 0 51.5 14t14.5 52v548q0 38 -14.5 52t-51.5 14h-32v10h381v-10z" />
    <glyph glyph-name="M" unicode="M" horiz-adv-x="1054" 
d="M1036 690h-24q-41 0 -58 -17t-17 -58v-533q0 -38 14.5 -55t50.5 -17h34v-10h-383v10h27q36 0 50.5 17t14.5 55v571l-288 -653h-8l-319 607v-452q0 -85 19.5 -115t73.5 -30h33v-10h-237v10h26q44 0 59.5 30t15.5 115v469q0 37 -14.5 51.5t-51.5 14.5h-29v10h274l245 -478
l211 478h281v-10z" />
    <glyph glyph-name="N" unicode="N" horiz-adv-x="764" 
d="M753 690h-16q-44 0 -61 -34t-17 -120v-536h-128l-403 522v-362q0 -89 33.5 -119.5t116.5 -30.5h39v-10h-306v10h22q53 0 69 28.5t16 121.5v464q0 38 -14 52t-52 14h-30v10h223l404 -527v363q0 86 -30 120t-108 34h-31v10h273v-10z" />
    <glyph glyph-name="O" unicode="O" horiz-adv-x="820" 
d="M425 713q160 0 259 -93.5t99 -248.5q0 -183 -106.5 -284t-283.5 -101q-98 0 -176.5 37.5t-128.5 118.5t-50 194q0 168 106 272.5t281 104.5zM412 703q-76 0 -121 -95.5t-45 -271.5q0 -157 43.5 -248.5t117.5 -91.5q78 0 123 99t45 285q0 158 -42 240.5t-121 82.5z" />
    <glyph glyph-name="P" unicode="P" horiz-adv-x="747" 
d="M18 700h450q116 0 180 -50.5t64 -142.5q0 -93 -65 -145t-181 -51h-158v-225q0 -43 21 -59.5t76 -16.5h49v-10h-436v10h33q37 0 51.5 14.5t14.5 51.5v548q0 37 -15 51.5t-51 14.5h-33v10zM308 321h85q66 0 99.5 46.5t33.5 133.5q0 189 -129 189h-69q-11 0 -15.5 -4.5
t-4.5 -15.5v-349z" />
    <glyph glyph-name="Q" unicode="Q" horiz-adv-x="823" 
d="M74 -235l-9 6q52 99 112.5 152t146.5 71q-126 25 -206 119t-80 228q0 164 107.5 268t278.5 104q157 0 258.5 -94.5t101.5 -245.5q0 -178 -107.5 -282t-281.5 -104q-88 -1 -156.5 -40.5t-109.5 -99.5q78 77 209 77q61 0 156 -31t154 -31q58 0 93 29t34 77h10q1 -7 1 -26
q0 -110 -58.5 -172.5t-161.5 -62.5q-55 0 -109.5 20t-91 43.5t-81 43.5t-81.5 20q-86 0 -129 -69zM410 703q-74 0 -119 -87.5t-45 -278.5q0 -182 40.5 -261t116.5 -79q83 2 128 98t45 287q0 321 -166 321z" />
    <glyph glyph-name="R" unicode="R" horiz-adv-x="819" 
d="M804 103h10q0 -53 -36 -83t-103 -30q-76 0 -117 44t-41 129q0 117 -25 158t-88 41h-96v-286q0 -37 14.5 -51.5t51.5 -14.5h33v-10h-389v10h31q38 0 53 14.5t15 51.5v548q0 38 -14.5 52t-51.5 14h-33v10h479q100 0 156 -42.5t56 -113.5q0 -76 -58 -122t-151 -46v-3
q107 0 160 -49.5t53 -154.5q0 -74 10.5 -105t34.5 -31q21 0 33.5 20t12.5 50zM308 374h96q58 0 89 43.5t31 120.5q0 72 -30 112t-83 40h-83q-20 0 -20 -21v-295z" />
    <glyph glyph-name="S" unicode="S" horiz-adv-x="668" 
d="M62 273h9q17 -126 93 -199t177 -75q55 -1 91.5 30t36.5 78q0 32 -22.5 57.5t-59 43.5t-80.5 35t-88 38.5t-80.5 48t-59 68.5t-22.5 95q0 96 72 158.5t185 62.5q52 0 96 -15t74 -30.5t50 -15.5q40 0 40 58h10v-220h-10q-28 95 -93 153t-152 58q-52 0 -85.5 -32.5
t-33.5 -79.5q0 -41 23 -72t60 -51t81.5 -38t89 -37.5t81.5 -43.5t60 -63t23 -90q0 -94 -71.5 -151.5t-190.5 -57.5q-53 0 -97.5 13t-68 29t-48 29t-41.5 13q-40 0 -40 -70h-9v273z" />
    <glyph glyph-name="T" unicode="T" horiz-adv-x="746" 
d="M717 444l-10 -1q-26 134 -62.5 190.5t-91.5 56.5h-71q-20 0 -20 -21v-593q0 -37 15 -51.5t52 -14.5h32v-10h-390v10h32q38 0 52.5 14.5t14.5 51.5v593q0 12 -4.5 16.5t-15.5 4.5h-70q-47 0 -81 -56.5t-60 -190.5l-10 1l25 256h643z" />
    <glyph glyph-name="U" unicode="U" horiz-adv-x="785" 
d="M777 690h-18q-43 0 -59.5 -26t-16.5 -95v-350q0 -233 -267 -233q-305 0 -305 246v392q0 37 -14 51.5t-51 14.5h-34v10h398v-10h-42q-37 -1 -51 -15t-14 -51v-400q0 -215 183 -215q85 0 136 55.5t51 154.5v350q0 69 -25 95t-90 26h-29v10h248v-10z" />
    <glyph glyph-name="V" unicode="V" horiz-adv-x="794" 
d="M785 690h-14q-41 0 -68 -31t-63 -115l-244 -544h-18l-242 587q-26 63 -47 83t-59 20h-21v10h396v-10h-18q-58 0 -58 -50q0 -15 17 -62l138 -356l143 323q24 55 24 86q0 32 -22.5 45.5t-71.5 13.5h-35v10h263v-10z" />
    <glyph glyph-name="W" unicode="W" horiz-adv-x="1250" 
d="M1242 700v-10h-23q-45 0 -73 -33t-67 -125l-233 -532h-17l-187 463l-234 -463h-16l-251 588q-28 63 -49 82.5t-68 19.5h-15v10h411v-10h-25q-28 0 -43 -14t-15 -38q0 -20 11 -45l157 -376l131 260l-60 151q-14 36 -28.5 49t-40.5 13h-15v10h377v-10h-22
q-30 0 -46.5 -15.5t-16.5 -41.5q0 -9 14 -53l134 -357l135 311q26 60 26 96q0 28 -19.5 44t-53.5 16h-47v10h269z" />
    <glyph glyph-name="X" unicode="X" horiz-adv-x="827" 
d="M818 10v-10h-420v10q74 0 74 44q0 22 -19 53l-128 202l-100 -150q-43 -68 -43 -96q0 -53 85 -53v-10h-253v10q102 0 163 94l142 216l-188 299q-27 42 -48 56.5t-60 14.5h-13v10h417v-10h-26q-50 0 -50 -36q0 -18 20 -50l130 -210l113 162q27 40 27 70q0 31 -23.5 47.5
t-65.5 16.5h-33v10h273v-10h-14q-56 0 -139 -118l-132 -188l194 -312q23 -36 45.5 -49t55.5 -13h16z" />
    <glyph glyph-name="Y" unicode="Y" horiz-adv-x="801" 
d="M792 700v-10h-11q-34 0 -64 -28t-67 -97l-139 -266v-220q0 -39 15.5 -54t55.5 -15h34v-10h-411v10h38q42 0 58 15t16 54v196l-196 358q-18 33 -39 45t-57 12h-16v10h406v-10h-33q-21 0 -34 -11.5t-13 -29.5q0 -21 14 -44l157 -287l121 229q30 58 30 85q0 58 -87 58h-33
v10h255z" />
    <glyph glyph-name="Z" unicode="Z" horiz-adv-x="701" 
d="M666 694l-419 -684h191q75 0 125 54.5t92 192.5l10 -2l-47 -250l-6 -5h-588l-3 6l418 684h-175q-78 0 -120 -53.5t-76 -196.5l-10 1l31 254l5 5h568z" />
    <glyph glyph-name="bracketleft" unicode="[" horiz-adv-x="409" 
d="M389 774v-10h-131v-874h131v-10h-319v894h319z" />
    <glyph glyph-name="backslash" unicode="\" horiz-adv-x="273" 
d="M233 -39h-10l-177 749h10z" />
    <glyph glyph-name="bracketright" unicode="]" horiz-adv-x="409" 
d="M339 -120h-319v10h131v874h-131v10h319v-894z" />
    <glyph glyph-name="asciicircum" unicode="^" horiz-adv-x="508" 
d="M486 235l-10 -4l-227 455l-218 -454l-10 4l220 458h16z" />
    <glyph glyph-name="underscore" unicode="_" horiz-adv-x="581" 
d="M541 -103h-501v10h501v-10z" />
    <glyph glyph-name="grave" unicode="`" horiz-adv-x="257" 
d="M213 587l-7 -6q-22 22 -45.5 39.5t-56 37.5t-41.5 26q-42 27 -42 62q0 22 16 37.5t39 15.5q41 0 60 -50q39 -103 77 -162z" />
    <glyph glyph-name="a" unicode="a" horiz-adv-x="646" 
d="M635 95v-21q0 -41 -35 -64.5t-98 -23.5q-51 0 -88.5 22t-49.5 61q-71 -82 -178 -83q-71 0 -111 31.5t-40 87.5q0 58 45.5 93t122.5 35h159v121q0 136 -134 136q-64 0 -109 -37t-45 -95q6 30 27.5 48t54.5 18q35 0 56 -21.5t21 -56.5q0 -36 -23 -58t-60 -22q-38 0 -62 25
t-24 66q0 155 263 156q108 1 164.5 -48.5t56.5 -140.5v-248q0 -50 36 -50q18 0 29.5 13.5t11.5 36.5v20zM362 223h-76q-33 0 -54 -24t-21 -69q0 -46 17 -71.5t49 -25.5q44 0 85 50v140z" />
    <glyph glyph-name="b" unicode="b" horiz-adv-x="702" 
d="M287 750v-351h2q17 49 64.5 80t108.5 31q92 0 148 -65t57 -177q1 -128 -80.5 -205t-223.5 -77q-126 0 -258 40v653q0 34 -13.5 47.5t-48.5 13.5h-32v10l271 5zM289 359v-293q0 -70 74 -70q60 0 86 66.5t25 218.5q-1 182 -90 182q-37 0 -65 -32t-30 -72z" />
    <glyph glyph-name="c" unicode="c" horiz-adv-x="601" 
d="M575 86l6 -9q-114 -91 -258 -91q-134 0 -211.5 64.5t-77.5 188.5q0 116 82.5 195t232.5 79q103 0 160 -44t57 -117q0 -43 -24 -69t-63 -26t-62.5 22.5t-23.5 61.5q0 35 23.5 58.5t60.5 23.5q30 0 51.5 -20t27.5 -51q-1 62 -46.5 102t-113.5 40q-82 0 -129 -68t-47 -183
q0 -113 43 -174.5t122 -61.5q92 0 190 79z" />
    <glyph glyph-name="d" unicode="d" horiz-adv-x="700" 
d="M598 750v-674q0 -37 14 -51.5t51 -14.5h27v-10h-270l-5 5v96h-3q-18 -50 -64 -82.5t-104 -32.5q-96 0 -152.5 64.5t-57.5 177.5q0 134 80.5 208t226.5 74q37 0 71 -11v180q0 34 -13.5 47t-47.5 13h-30v10l268 9zM412 141v348q-37 11 -69 11q-118 0 -115 -256
q1 -208 92 -208q34 0 62 33t30 72z" />
    <glyph glyph-name="e" unicode="e" horiz-adv-x="602" 
d="M569 86l7 -8q-115 -92 -257 -92q-132 0 -208.5 68t-76.5 188q0 123 79.5 197t213.5 74q114 0 178 -59t64 -160l-5 -5h-344v-13q0 -143 37 -206.5t125 -63.5q89 0 187 80zM220 299h149q17 0 24 8t7 30q0 76 -23 121t-62 45q-40 0 -66 -55.5t-29 -148.5z" />
    <glyph glyph-name="f" unicode="f" horiz-adv-x="391" 
d="M103 500v46q1 107 52 162t132 55q61 0 99 -34t38 -89q0 -37 -22.5 -60t-57.5 -23q-37 0 -58 20.5t-21 55.5t21 56t56 21q30 0 49 -19t23 -51q0 51 -35 82t-92 31q-61 0 -102 -36.5t-41 -93.5q0 -123 159 -123h88v-10h-104v-414q0 -37 16.5 -51.5t60.5 -14.5h17v-10h-372
v10h28q37 0 51.5 14.5t14.5 51.5v414h-78v10h78z" />
    <glyph glyph-name="g" unicode="g" horiz-adv-x="583" 
d="M231 158v2q-82 9 -127.5 53t-45.5 112q0 84 65 134.5t178 50.5q71 0 126 -27q56 2 98 38.5t42 88.5q-4 -30 -23.5 -47.5t-47.5 -17.5q-34 0 -54.5 20.5t-20.5 53.5q0 35 22 56t58 21q34 0 55 -24t21 -62q0 -52 -39.5 -91t-95.5 -44q77 -45 77 -127q0 -90 -62.5 -141.5
t-170.5 -51.5q-119 0 -119 -56q0 -45 81 -42q22 0 76 4t80 4q82 0 126 -39.5t44 -111.5q0 -81 -74 -127.5t-208 -46.5q-91 0 -140 23.5t-49 67.5q0 40 33.5 63t93.5 23v4h-35q-65 1 -105 29.5t-40 78.5q0 57 47 92t134 37zM213 325q0 -160 73 -160q36 0 57 45.5t21 135.5
q0 154 -76 154q-75 0 -75 -175zM388 -93h-158q-56 0 -87 -20t-31 -56q0 -39 47 -60t132 -21q100 0 152 24.5t52 66.5q0 31 -28.5 48.5t-78.5 17.5z" />
    <glyph glyph-name="h" unicode="h" horiz-adv-x="735" 
d="M288 750v-348h3q18 50 66.5 80.5t113.5 30.5q81 0 125 -43.5t44 -121.5v-272q0 -37 14 -51.5t49 -14.5h25v-10h-346v10h17q33 0 45 14t12 52v306q0 81 -68 81q-38 0 -67.5 -31t-29.5 -70v-286q0 -38 12 -52t45 -14h16v-10h-352v10h29q37 0 51 14.5t14 51.5v604
q0 34 -13.5 47t-47.5 13h-33v10l271 5z" />
    <glyph glyph-name="i" unicode="i" horiz-adv-x="397" 
d="M193 816q46 0 76.5 -30t30.5 -75q0 -44 -30.5 -74t-76.5 -30t-76 30t-30 74q0 45 30 75t76 30zM289 500v-424q0 -37 14.5 -51.5t51.5 -14.5h27v-10h-370v10h27q37 0 51.5 14.5t14.5 51.5v353q0 34 -14 47.5t-48 13.5h-30v10l268 8z" />
    <glyph glyph-name="j" unicode="j" horiz-adv-x="348" 
d="M174 816q46 0 76.5 -30t30.5 -75q0 -44 -30.5 -74t-76.5 -30t-76 30t-30 74q0 45 30 75t76 30zM270 500v-561q0 -89 -50 -146t-127 -57q-55 0 -88.5 30t-33.5 79q0 36 22 58t55 22q31 0 51 -18.5t20 -48.5q0 -31 -18.5 -50t-49.5 -19q-25 0 -44.5 15.5t-25.5 40.5
q0 -44 31 -71.5t81 -27.5q51 0 82.5 34t31.5 89q0 47 -33.5 78.5t-87.5 34.5v448q0 34 -13.5 47t-48.5 13h-30v10l268 8z" />
    <glyph glyph-name="k" unicode="k" horiz-adv-x="728" 
d="M487 365l141 -301q14 -30 35 -42t58 -12v-10h-255l-9 5l-110 254l-57 -43v-147q0 -33 11 -46t38 -13h25v-10h-352v10h27q37 0 51.5 14.5t14.5 51.5v604q0 34 -13.5 47t-48.5 13h-30v10l269 8l8 -8v-521l183 137q23 17 32.5 25t19.5 21.5t10 25.5q0 52 -99 52h-39v10h305
v-10q-32 0 -72.5 -24.5t-118.5 -82.5z" />
    <glyph glyph-name="l" unicode="l" horiz-adv-x="392" 
d="M289 750v-674q0 -37 14.5 -51.5t51.5 -14.5h27v-10h-370v10h27q37 0 51.5 14.5t14.5 51.5v603q0 34 -14 47.5t-48 13.5h-30v10l268 8z" />
    <glyph glyph-name="m" unicode="m" horiz-adv-x="1084" 
d="M636 399h3q18 49 66.5 81.5t115.5 32.5q80 0 124.5 -43.5t44.5 -121.5v-272q0 -38 13.5 -52t49.5 -14h24v-10h-345v10h16q33 0 45 14t12 52v306q0 81 -68 81q-39 0 -68 -30.5t-29 -70.5v-286q0 -37 14 -51.5t49 -14.5h11v-10h-332v10h17q33 0 45 14t12 52v306
q0 81 -68 81q-39 0 -68 -30.5t-29 -70.5v-286q0 -38 12 -52t45 -14h18v-10h-354v10h29q37 0 51 14.5t14 51.5v354q0 34 -13.5 47t-47.5 13h-33v10l276 6l5 -5l-5 -99h3q19 49 67 80t113 31q64 0 108.5 -32t56.5 -82z" />
    <glyph glyph-name="n" unicode="n" horiz-adv-x="734" 
d="M288 402h2q19 49 67.5 80t113.5 31q81 0 125 -43.5t44 -121.5v-272q0 -37 14 -51.5t49 -14.5h24v-10h-345v10h17q32 0 44 14t12 52v306q0 81 -68 81q-38 0 -67.5 -31t-29.5 -70v-286q0 -37 12.5 -51.5t44.5 -14.5h17v-10h-352v10h28q38 0 52 14t14 52v354q0 34 -13.5 47
t-48.5 13h-32v10l276 6l5 -5z" />
    <glyph glyph-name="o" unicode="o" horiz-adv-x="661" 
d="M342 513q73 0 135 -23.5t106 -80t44 -138.5q1 -127 -83 -206t-225 -79q-133 0 -209 67.5t-76 186.5q0 115 79.5 194t228.5 79zM330 503q-49 0 -76 -66.5t-27 -196.5q0 -244 101 -244q54 1 80.5 66.5t25.5 210.5q-1 230 -104 230z" />
    <glyph glyph-name="p" unicode="p" horiz-adv-x="702" 
d="M287 402h2q18 49 65 80t108 31q95 0 149.5 -63.5t55.5 -179.5q1 -128 -81.5 -204t-224.5 -76q-36 0 -72 11v-176q0 -37 14.5 -51t51.5 -14h27v-10h-370v10h27q37 0 51 14t14 51v599q0 37 -14.5 51.5t-51.5 14.5h-26v10h270l5 -5v-93zM289 362v-351q39 -11 72 -11
q57 0 85.5 64.5t27.5 206.5q-1 192 -93 192q-36 0 -64 -31t-28 -70z" />
    <glyph glyph-name="q" unicode="q" horiz-adv-x="697" 
d="M415 101h-3q-17 -49 -64 -80t-108 -31q-95 0 -150 63.5t-56 181.5q0 126 81 202t224 76q124 1 258 -39v-649q0 -37 14 -51t51 -14h25v-10h-366v10h28q37 0 51.5 14t14.5 51v276zM412 141v294q0 68 -73 68q-114 0 -111 -278q1 -189 89 -189q37 0 65 32.5t30 72.5z" />
    <glyph glyph-name="r" unicode="r" horiz-adv-x="579" 
d="M288 395h2q17 49 63.5 82t101.5 33q48 0 78.5 -26.5t30.5 -70.5q0 -40 -28 -67t-70 -27t-67.5 24t-25.5 64q0 37 22 62.5t60 30.5q-64 0 -114.5 -48.5t-50.5 -109.5v-266q0 -37 16.5 -51.5t60.5 -14.5h17v-10h-372v10h28q38 0 52 14t14 52v354q0 34 -13.5 47t-48.5 13
h-32v10l276 6l5 -5z" />
    <glyph glyph-name="s" unicode="s" horiz-adv-x="539" 
d="M54 197h10q23 -93 87 -145.5t119 -52.5q37 0 57.5 19.5t20.5 50.5q0 30 -30.5 52.5t-74.5 40t-87.5 38.5t-74 59t-30.5 90q0 73 56 118.5t145 45.5q60 0 109 -21t64 -21q33 0 33 35h10v-180h-10q-49 175 -183 175q-32 0 -52.5 -20t-20.5 -48q0 -36 30.5 -61.5t74.5 -42
t88 -35.5t74.5 -55t30.5 -88q0 -77 -55.5 -121t-156.5 -44q-46 0 -84 18.5t-64 37t-42 18.5q-34 0 -34 -63h-10v200z" />
    <glyph glyph-name="t" unicode="t" horiz-adv-x="383" 
d="M259 500h90v-10h-90v-399q0 -67 49 -67q26 0 42 19.5t16 53.5h10q0 -53 -37 -82t-109 -29q-155 0 -155 148v356h-63v10h42q91 0 143 43.5t52 156.5h10v-200z" />
    <glyph glyph-name="u" unicode="u" horiz-adv-x="735" 
d="M631 495v-425q0 -34 13.5 -47t48.5 -13h32v-10l-271 -6l-5 5v99h-2q-19 -49 -67.5 -80.5t-113.5 -31.5q-81 0 -125 44t-44 122v272q0 37 -14 51.5t-49 14.5h-24v10h267l5 -5v-377q0 -81 68 -81q38 0 67.5 31t29.5 70v286q0 37 -12.5 51.5t-44.5 14.5h-17v10h253z" />
    <glyph glyph-name="v" unicode="v" horiz-adv-x="645" 
d="M639 500v-10h-21q-31 0 -51 -22.5t-53 -88.5l-182 -379h-11l-215 416q-23 44 -39 59t-46 15h-14v10h346v-10h-20q-40 0 -40 -35q0 -15 20 -53l100 -209l91 189q14 30 14 51q0 57 -73 57h-36v10h230z" />
    <glyph glyph-name="w" unicode="w" horiz-adv-x="952" 
d="M945 500v-10h-17q-31 0 -55.5 -26.5t-51.5 -85.5l-169 -378h-10l-161 318l-158 -318h-11l-206 417q-21 43 -37.5 58t-47.5 15h-14v10h344v-10h-19q-40 0 -40 -35q0 -14 20 -54l98 -205l152 304h10l154 -309l84 190q14 30 14 52q0 26 -18.5 41.5t-49.5 15.5h-40v10h229z
" />
    <glyph glyph-name="x" unicode="x" horiz-adv-x="649" 
d="M401 305l158 -252q17 -27 33 -34.5t50 -8.5v-10h-349v10q51 2 51 30q0 16 -13 38l-88 137l-79 -107q-21 -28 -21 -53q0 -20 14.5 -32.5t34.5 -12.5h21v-10h-195v10q22 0 40 7.5t39 28.5t31.5 34.5t36.5 47.5l72 97l-134 210q-19 31 -37 43t-49 12h-9v10h354v-10h-22
q-31 0 -31 -27q0 -10 11 -29l74 -119l64 85q23 29 23 54q0 36 -49 36h-15v10h180v-10h-10q-26 0 -51 -20t-65 -73z" />
    <glyph glyph-name="y" unicode="y" horiz-adv-x="655" 
d="M648 500v-10h-17q-27 0 -51 -24t-56 -87l-229 -474q-44 -87 -83.5 -126t-90.5 -39t-82.5 29.5t-31.5 78.5q0 39 23.5 64.5t57.5 25.5q37 0 59 -21t22 -56q0 -31 -22 -54t-55 -23q-28 0 -48 17.5t-27 46.5q-1 -44 28 -71t76 -27t84.5 38t80.5 121l40 84l-211 423
q-22 44 -38 59t-47 15h-13v10h345v-10h-19q-40 0 -40 -35q0 -17 17 -54l99 -214l94 195q15 29 15 51q0 26 -21.5 41.5t-57.5 15.5h-30v10h229z" />
    <glyph glyph-name="z" unicode="z" horiz-adv-x="574" 
d="M538 495l-308 -485h123q66 0 108 43t68 134l10 -2l-34 -185h-473l-4 5l298 485h-114q-57 0 -90.5 -39.5t-65.5 -141.5l-10 2l31 189h458z" />
    <glyph glyph-name="braceleft" unicode="{" horiz-adv-x="444" 
d="M20 315v10q60 0 95 33.5t35 92.5q0 34 -15 88t-15 89q0 68 42.5 107.5t117.5 39.5q57 0 136 -29l-2 -8q-21 6 -37 6q-64 0 -67 -97l-2 -119q-6 -206 -209 -206v-2q210 0 214 -194l3 -129q0 -41 16 -63.5t45 -22.5q13 0 44 9l3 -8q-90 -31 -150 -31q-73 0 -115 33.5
t-42 90.5q0 38 16.5 93.5t16.5 96.5q0 57 -35 88.5t-95 31.5z" />
    <glyph glyph-name="bar" unicode="|" horiz-adv-x="156" 
d="M83 -229h-10v1000h10v-1000z" />
    <glyph glyph-name="braceright" unicode="}" horiz-adv-x="444" 
d="M30 738l-2 8q79 29 136 29q75 0 117.5 -39.5t42.5 -107.5q0 -35 -15 -89t-15 -88q0 -59 35 -92.5t95 -33.5v-10q-60 0 -95 -31.5t-35 -88.5q0 -41 17 -97t17 -93q0 -57 -42 -90.5t-115 -33.5q-61 0 -151 31l3 8q31 -9 44 -9q29 0 45 22.5t17 63.5l2 129q6 194 214 194v2
q-98 0 -152 51t-56 155l-3 119q-3 97 -67 97q-16 0 -37 -6z" />
    <glyph glyph-name="asciitilde" unicode="~" horiz-adv-x="626" 
d="M44 230h-10q0 43 27.5 67.5t70.5 24.5q45 0 104 -27t126 -54.5t131 -27.5q39 0 64 23.5t25 63.5h10q0 -45 -27.5 -71t-71.5 -26q-65 0 -133 27.5t-126.5 54.5t-101.5 27q-39 0 -63.5 -22t-24.5 -60z" />
    <glyph glyph-name="exclamdown" unicode="&#xa1;" horiz-adv-x="315" 
d="M157 342q-37 0 -63 25.5t-26 62.5t26 63t63 26t62.5 -26t25.5 -63t-25.5 -62.5t-62.5 -25.5zM152 257h10q6 -94 30.5 -168t45.5 -122t21 -83q0 -47 -28.5 -75.5t-73.5 -28.5t-73.5 28.5t-28.5 75.5q0 29 13.5 66t30 71.5t33 98t20.5 137.5z" />
    <glyph glyph-name="cent" unicode="&#xa2;" horiz-adv-x="525" 
d="M484 207l5 -8q-89 -66 -204 -68v-117h-10v117q-109 1 -172.5 55.5t-63.5 146.5q0 96 64 156t172 66v122h10v-122h9q79 0 126.5 -31.5t47.5 -83.5q0 -28 -16.5 -45.5t-42.5 -17.5t-42 15t-16 40t15.5 41t39.5 16q22 0 36 -13t16 -36q0 42 -36 70.5t-90 28.5
q-64 0 -102.5 -53.5t-38.5 -143.5t37 -141.5t101 -51.5q79 0 155 58z" />
    <glyph glyph-name="sterling" unicode="&#xa3;" horiz-adv-x="716" 
d="M628 262l7 1q24 -53 24 -111q0 -79 -39 -123t-111 -44q-27 0 -50.5 5.5t-49 22t-35.5 23.5t-40 34.5t-33 30.5q-14 -52 -48.5 -81.5t-82.5 -29.5q-49 0 -77.5 26.5t-28.5 70.5q0 46 33 74t89 28q49 0 115 -25v10q0 81 -82 154h-129v11h118q-2 2 -19 16.5t-20 17.5
t-17.5 16.5t-18.5 19.5t-14.5 19t-13.5 22t-8.5 22.5t-7.5 26.5t-2 28q0 85 74 135.5t206 50.5q114 0 177.5 -43.5t63.5 -119.5q0 -39 -21.5 -63t-56.5 -24q-36 0 -58 21t-22 55q0 36 21.5 58t55.5 22q28 0 48.5 -20t22.5 -49q1 65 -51.5 104t-133.5 39q-72 0 -114 -43.5
t-42 -118.5q0 -66 31 -192h141v-10h-139q21 -92 21 -153v-15q5 -2 19 -7.5t19.5 -7.5t19 -7t20.5 -7t19 -5.5t21.5 -5t20.5 -2.5t22 -1q157 0 157 115q0 19 -1 29zM170 0q45 0 77.5 28.5t45.5 79.5q-68 59 -133 59q-38 0 -62 -23.5t-24 -56.5q0 -40 26 -63.5t70 -23.5z" />
    <glyph glyph-name="currency" unicode="&#xa4;" horiz-adv-x="523" 
d="M473 595l-73 -72q69 -62 69 -154q0 -94 -73 -157l73 -74l-7 -7l-73 75q-55 -44 -127 -44q-76 0 -133 49l-71 -76l-7 7l71 75q-67 61 -67 152q0 96 73 158l-73 72l7 7l74 -73q56 43 126 43q73 0 131 -47l73 72zM262 172q82 0 139.5 57.5t57.5 139.5t-57.5 139.5
t-139.5 57.5t-139.5 -57.5t-57.5 -139.5t57.5 -139.5t139.5 -57.5z" />
    <glyph glyph-name="yen" unicode="&#xa5;" horiz-adv-x="771" 
d="M499 311v-41h202v-10h-202v-84h202v-10h-202v-83q0 -43 20.5 -58t81.5 -15v-10h-406v10q65 0 87 14.5t22 58.5v83h-200v10h200v84h-200v10h195l-201 370q-16 29 -35 39.5t-54 10.5v10h402v-10q-79 0 -79 -42q0 -17 14 -43l147 -279l107 220q20 43 20 76q0 68 -113 68v10
h255v-9q-41 -2 -72 -28t-61 -85z" />
    <glyph glyph-name="brokenbar" unicode="&#xa6;" horiz-adv-x="156" 
d="M83 406h-10v365h10v-365zM83 -229h-10v365h10v-365z" />
    <glyph glyph-name="section" unicode="&#xa7;" horiz-adv-x="592" 
d="M505 586h-10q-19 69 -67 116.5t-110 47.5q-36 0 -59 -21.5t-23 -52.5q0 -39 32 -66t78 -44t91.5 -37t77.5 -57.5t32 -92.5q0 -66 -46.5 -111t-113.5 -57q62 -27 97 -65t35 -96q0 -79 -59 -128t-162 -49q-43 0 -79 11t-55 23.5t-36.5 23.5t-28.5 11q-31 0 -31 -61h-10v197
h10q20 -92 81 -143t125 -51q39 0 62.5 22.5t23.5 56.5q0 33 -32 57t-77.5 42t-91 39.5t-77.5 62t-32 97.5q0 54 37 102.5t100 69.5q-106 53 -106 155q0 77 58.5 125t155.5 48q57 0 106 -22t63 -22q31 0 31 41h10v-172zM146 358q0 -21 12.5 -38.5t38.5 -31t50.5 -23.5
t63.5 -24t63 -24q68 16 68 70q0 29 -25 50t-57 32t-83 28t-82 31q-49 -22 -49 -70z" />
    <glyph glyph-name="dieresis" unicode="&#xa8;" horiz-adv-x="498" 
d="M374 743q32 0 55 -22.5t23 -55.5t-22.5 -55t-55.5 -22q-32 0 -54.5 22t-22.5 55t22.5 55.5t54.5 22.5zM124 742q32 0 54.5 -22.5t22.5 -55.5t-22.5 -55t-54.5 -22q-33 0 -55.5 22t-22.5 55t23 55.5t55 22.5z" />
    <glyph glyph-name="copyright" unicode="&#xa9;" horiz-adv-x="850" 
d="M428 724q162 -2 269 -108.5t107 -267.5q0 -163 -106.5 -268.5t-269.5 -107.5h-3h-3q-162 2 -269 108.5t-107 267.5t107 267.5t269 108.5h3h3zM425 -18q161 0 265 102.5t104 263.5q0 159 -105 262.5t-264 103.5t-264 -103.5t-105 -262.5t105 -262.5t264 -103.5zM635 375
h-9q-23 86 -65 136t-99 51q-53 0 -88.5 -60.5t-35.5 -157.5q0 -99 38.5 -159t99.5 -60q44 0 88 27t73 77l8 -5q-66 -117 -223 -117q-98 0 -165 58t-67 169q0 107 68 174t172 67q44 0 96.5 -20t67.5 -20q32 0 32 33h9v-193z" />
    <glyph glyph-name="ordfeminine" unicode="&#xaa;" horiz-adv-x="406" 
d="M371 471l8 -1q0 -61 -79 -61q-65 0 -81 43q-38 -43 -101 -43q-43 0 -66 17.5t-23 49.5q0 34 25.5 53.5t70.5 19.5h89v67q0 78 -74 78q-40 0 -63.5 -20.5t-23.5 -54.5q5 37 42 37q18 0 29.5 -11.5t11.5 -28.5q0 -19 -13 -31.5t-33 -12.5t-33 13t-13 33q0 90 153 92
q63 1 95.5 -28.5t32.5 -85.5v-125q0 -39 23 -39t23 39zM214 540h-49q-18 0 -28.5 -13t-10.5 -35q0 -57 40 -57q28 0 50 27q-2 14 -2 21v57zM42 349h321v-10h-321v10z" />
    <glyph glyph-name="guillemotleft" unicode="&#xab;" horiz-adv-x="709" 
d="M393 494l6 -6q-137 -174 -208 -237q34 -24 101 -101t108 -138l-6 -6q-79 77 -180 139t-194 101v8q93 40 194.5 103t178.5 137zM671 494l6 -6q-138 -175 -209 -237q35 -24 101 -100.5t109 -138.5l-7 -6q-154 148 -373 240v8q93 40 194.5 103t178.5 137z" />
    <glyph glyph-name="logicalnot" unicode="&#xac;" horiz-adv-x="595" 
d="M545 380v-260h-10v250h-501v10h511z" />
    <glyph glyph-name="softhyphen" unicode="&#xad;" horiz-adv-x="460" 
d="M420 235h-380v10h380v-10z" />
    <glyph glyph-name="registered" unicode="&#xae;" horiz-adv-x="327" 
d="M164 761q59 0 98.5 -39t39.5 -98t-39.5 -98.5t-98.5 -39.5t-99 39.5t-40 98.5q0 58 40 97.5t99 39.5zM164 751q-55 0 -92 -36.5t-37 -90.5q0 -55 37 -92t92 -37t91.5 37t36.5 92q0 54 -36.5 90.5t-91.5 36.5zM87 693h96q40 0 40 -31q0 -13 -10.5 -21t-25.5 -8
q37 0 37 -37q0 -20 7 -20t7 11h5q0 -24 -31 -24q-32 0 -32 32q0 19 -4 26t-16 7h-12v-37q0 -21 19 -21v-5h-80v5q18 0 18 15v86q0 17 -18 17v5zM163 688h-6q-9 0 -9 -8v-47h15q18 0 18 29q0 26 -18 26z" />
    <glyph glyph-name="macron" unicode="&#xaf;" horiz-adv-x="456" 
d="M411 618h-367v10h367v-10z" />
    <glyph glyph-name="degree" unicode="&#xb0;" horiz-adv-x="327" 
d="M164 763q59 0 98.5 -40t39.5 -99t-39.5 -98.5t-98.5 -39.5t-99 39.5t-40 98.5t40 99t99 40zM164 753q-56 0 -92.5 -36.5t-36.5 -92.5q0 -55 37 -91.5t92 -36.5t91.5 36.5t36.5 91.5t-36.5 92t-91.5 37z" />
    <glyph glyph-name="plusminus" unicode="&#xb1;" horiz-adv-x="596" 
d="M572 425v-10h-268v-239h-10v239h-270v10h270v240h10v-240h268zM24 120h548v-10h-548v10z" />
    <glyph glyph-name="twosuperior" unicode="&#xb2;" horiz-adv-x="376" 
d="M31 473l-1 18q0 50 21 84t50.5 52t59 34t50.5 41.5t21 62.5q0 40 -24.5 64t-61.5 24q-38 0 -67 -24t-29 -59q12 41 49 41q20 0 33.5 -14t13.5 -34q0 -22 -14.5 -36t-37.5 -14t-38 16t-15 41q0 44 41 72t107 28q68 0 111.5 -30.5t43.5 -79.5q0 -57 -48.5 -90t-127.5 -39
q-122 -17 -128 -124q7 34 29.5 52t52.5 18q24 0 71.5 -11t73.5 -11q44 0 55 30q9 13 7 31l6 2q14 -36 14 -66q0 -41 -26 -66t-71 -25q-44 0 -94.5 20t-72.5 20q-32 0 -47 -30z" />
    <glyph glyph-name="threesuperior" unicode="&#xb3;" horiz-adv-x="371" 
d="M139 671v10q37 0 58.5 24t21.5 65q0 36 -22 57.5t-56 21.5q-40 0 -64 -19.5t-24 -51.5q10 38 45 38q19 0 31 -12t12 -32q0 -21 -13.5 -33.5t-34.5 -12.5q-23 0 -36.5 14t-13.5 39q0 42 39.5 66t108.5 24q58 0 95.5 -25.5t37.5 -70.5q0 -44 -42 -70t-111 -26
q165 -3 165 -104q0 -53 -43 -83t-120 -30q-69 0 -104 23.5t-35 64.5q0 25 14.5 40.5t36.5 15.5q21 0 34.5 -13.5t13.5 -34.5t-12.5 -33.5t-32.5 -12.5q-36 0 -45 38q0 -33 24.5 -53t63.5 -20q40 0 63.5 27.5t23.5 71.5q0 45 -21 71.5t-58 25.5z" />
    <glyph glyph-name="acute" unicode="&#xb4;" horiz-adv-x="240" 
d="M36 581l-7 6q38 59 77 162q19 50 60 50q23 0 39 -15.5t16 -37.5q0 -35 -42 -62q-9 -6 -41.5 -26t-56 -37.5t-45.5 -39.5z" />
    <glyph glyph-name="paragraph" unicode="&#xb6;" horiz-adv-x="491" 
d="M472 690h-113v-614q0 -85 -43.5 -135t-117.5 -50q-58 0 -93 32t-35 86q0 38 22.5 62t58.5 24t58 -21.5t22 -57.5q0 -35 -20.5 -56t-54.5 -21q-33 0 -54.5 19t-21.5 50q0 -48 32.5 -77.5t85.5 -29.5q69 0 110 47t41 128v253h-90q-89 0 -144 49.5t-55 130.5q0 86 55 138.5
t144 52.5h213v-10z" />
    <glyph glyph-name="periodcentered" unicode="&#xb7;" horiz-adv-x="290" 
d="M145 341q37 0 63 -25.5t26 -62.5t-26 -63t-63 -26t-62.5 26t-25.5 63t25.5 62.5t62.5 25.5z" />
    <glyph glyph-name="cedilla" unicode="&#xb8;" horiz-adv-x="303" 
d="M122 0l-51 -92q34 34 91 34q44 0 71 -24t27 -64q0 -43 -35 -71t-88 -28q-59 0 -110 27l5 8q29 -16 61 -16q31 0 50.5 20.5t19.5 51.5q0 26 -14.5 42.5t-38.5 16.5q-32 0 -57 -27l-6 4l65 118h10z" />
    <glyph glyph-name="onesuperior" unicode="&#xb9;" horiz-adv-x="284" 
d="M201 868v-348q0 -22 13.5 -30.5t50.5 -8.5v-10h-245v10q37 0 50.5 8t13.5 31v246q0 32 -23 36q-17 4 -51 0l-1 10q119 7 185 59z" />
    <glyph glyph-name="ordmasculine" unicode="&#xba;" horiz-adv-x="407" 
d="M214 710q68 0 116 -35t48 -103q0 -73 -50 -117.5t-134 -44.5q-71 0 -118 37.5t-47 105.5q0 67 47 112t138 45zM203 701q-32 0 -47 -32t-15 -116q0 -79 15.5 -106.5t45.5 -27.5q31 0 47.5 35t16.5 121q0 71 -16 98.5t-47 27.5zM350 339h-292v10h292v-10z" />
    <glyph glyph-name="guillemotright" unicode="&#xbb;" horiz-adv-x="709" 
d="M32 488l6 6q77 -74 178.5 -137t194.5 -103v-8q-93 -39 -193 -101t-180 -139l-7 6q42 62 108.5 138.5t100.5 100.5q-71 63 -208 237zM310 488l5 6q76 -74 178.5 -137t195.5 -103v-8q-93 -39 -194 -101t-180 -139l-6 6q41 61 108 138t101 101q-71 63 -208 237z" />
    <glyph glyph-name="onequarter" unicode="&#xbc;" horiz-adv-x="963" 
d="M821 709l-740 -742l-10 12l740 740zM237 715v-348q0 -23 13 -31t50 -8v-10h-244v10q37 0 50.5 8.5t13.5 30.5v247q0 31 -23 36q-17 3 -52 0l-1 9q117 7 186 59zM502 117l-3 12q47 23 91.5 98.5t45.5 159.5q69 -20 127 0q-2 -86 -74.5 -161t-177.5 -99h181v60
q48 10 78.5 51t30.5 86h9v-197h71v-10h-71v-67q0 -22 13 -31t45 -9v-10h-246v10q38 0 54 9t16 31v67h-190z" />
    <glyph glyph-name="onehalf" unicode="&#xbd;" horiz-adv-x="963" 
d="M247 726v-348q0 -22 13.5 -30.5t50.5 -8.5v-10h-245v10q37 0 50.5 8t13.5 31v246q0 32 -23 36q-17 4 -51 0l-1 10q119 7 185 59zM838 713l-739 -742l-11 12l740 740zM557 2v18q0 42 15 73.5t37 48t48.5 32.5t48.5 29t37 36.5t15 54.5q0 40 -24 64t-61 24
q-39 0 -67.5 -23.5t-28.5 -58.5q12 40 49 40q20 0 33.5 -13.5t13.5 -33.5q0 -23 -14.5 -36.5t-37.5 -13.5q-24 0 -38.5 15.5t-14.5 41.5q0 43 41 71t107 28q68 0 111.5 -30.5t43.5 -79.5q0 -57 -49 -90t-127 -39q-122 -17 -128 -124q7 34 29 52.5t52 18.5q24 0 72 -11.5
t74 -11.5q42 0 54 30q10 13 7 31l7 2q14 -34 14 -65q0 -42 -26.5 -67t-71.5 -25q-43 0 -94 20.5t-72 20.5q-32 0 -47 -31z" />
    <glyph glyph-name="threequarters" unicode="&#xbe;" horiz-adv-x="963" 
d="M866 709l-739 -742l-11 12l740 740zM177 513v9q37 0 58.5 24.5t21.5 64.5q0 36 -22 58t-56 22q-40 0 -64 -19.5t-24 -51.5q10 38 45 38q19 0 31 -12t12 -32q0 -21 -13 -33.5t-35 -12.5q-23 0 -36.5 14t-13.5 38q0 42 39.5 66.5t108.5 24.5q58 0 95.5 -25.5t37.5 -70.5
q0 -44 -42 -70t-110 -26q164 -3 164 -104q0 -53 -43 -83t-120 -30q-69 0 -104 23.5t-35 64.5q0 24 14.5 40t36.5 16q21 0 34.5 -13.5t13.5 -34.5t-12.5 -33.5t-32.5 -12.5q-36 0 -45 38q0 -33 24.5 -53t63.5 -20q40 0 63.5 27.5t23.5 71.5q0 45 -21 71.5t-58 25.5zM512 117
l-3 12q48 23 92.5 98.5t45.5 159.5q69 -20 127 0q-3 -86 -75.5 -161t-176.5 -99h181v60q48 10 78 51t30 86h10v-197h71v-10h-71v-67q0 -22 12.5 -31t44.5 -9v-10h-246v10q39 0 55 9t16 31v67h-191z" />
    <glyph glyph-name="questiondown" unicode="&#xbf;" horiz-adv-x="596" 
d="M334 348q-37 0 -63 26t-26 63t26 63.5t63 26.5q38 0 64 -26.5t26 -63.5t-26 -63t-64 -26zM338 274l7 3q13 -26 13 -51q0 -29 -15 -56t-36 -50t-42.5 -48t-36.5 -62t-15 -81q0 -70 43 -112.5t116 -42.5q68 0 114 45.5t46 112.5q-17 -71 -84 -71q-36 0 -58.5 22t-22.5 59
q0 38 24 61t64 23q39 0 63 -25.5t24 -68.5q0 -85 -65 -133.5t-185 -48.5q-107 0 -176 51t-69 130q0 44 16.5 78.5t42.5 56t57.5 38t63.5 30t58 27.5t42.5 33t16.5 44q0 19 -6 36z" />
    <glyph glyph-name="Agrave" unicode="&#xc0;" 
d="M423 793l-8 -6q-22 22 -45 39t-56 38t-41 26q-42 27 -42 62q0 22 16 37.5t39 15.5q41 0 60 -50q39 -103 77 -162zM757 10v-10h-382v10h28q35 0 49.5 12.5t14.5 39.5q0 25 -21 75l-27 68h-237l-33 -75q-19 -44 -19 -69q0 -51 66 -51h42v-10h-226v10h20q29 0 53 28t53 93
l252 569h18l251 -612q18 -47 32.5 -62.5t44.5 -15.5h21zM415 215l-108 274l-121 -274h229z" />
    <glyph glyph-name="Aacute" unicode="&#xc1;" 
d="M420 787l-8 6q38 59 77 162q19 50 60 50q23 0 39 -15.5t16 -37.5q0 -35 -42 -62q-8 -5 -41 -26t-56 -38t-45 -39zM757 10v-10h-382v10h28q35 0 49.5 12.5t14.5 39.5q0 25 -21 75l-27 68h-237l-33 -75q-19 -44 -19 -69q0 -51 66 -51h42v-10h-226v10h20q29 0 53 28t53 93
l252 569h18l251 -612q18 -47 32.5 -62.5t44.5 -15.5h21zM415 215l-108 274l-121 -274h229z" />
    <glyph glyph-name="Acircumflex" unicode="&#xc2;" 
d="M245 789l-6 8l172 173h10l172 -173l-6 -8l-172 94zM757 10v-10h-382v10h28q35 0 49.5 12.5t14.5 39.5q0 25 -21 75l-27 68h-237l-33 -75q-19 -44 -19 -69q0 -51 66 -51h42v-10h-226v10h20q29 0 53 28t53 93l252 569h18l251 -612q18 -47 32.5 -62.5t44.5 -15.5h21z
M415 215l-108 274l-121 -274h229z" />
    <glyph glyph-name="Atilde" unicode="&#xc3;" 
d="M264 771l-9 -5q-28 40 -28 83q0 45 26 72.5t69 27.5q36 0 105.5 -30.5t98.5 -30.5q18 0 28.5 9.5t10.5 23.5q0 24 -16 48l9 6q44 -47 44 -98q0 -37 -22 -57.5t-62 -20.5q-34 0 -106 32.5t-109 32.5q-49 0 -49 -51q0 -25 10 -42zM757 10v-10h-382v10h28q35 0 49.5 12.5
t14.5 39.5q0 25 -21 75l-27 68h-237l-33 -75q-19 -44 -19 -69q0 -51 66 -51h42v-10h-226v10h20q29 0 53 28t53 93l252 569h18l251 -612q18 -47 32.5 -62.5t44.5 -15.5h21zM415 215l-108 274l-121 -274h229z" />
    <glyph glyph-name="Adieresis" unicode="&#xc4;" 
d="M538 794q-33 0 -55.5 22t-22.5 55t22.5 55.5t55.5 22.5q32 0 54.5 -22.5t22.5 -55.5t-22.5 -55t-54.5 -22zM287 793q-32 0 -54.5 22t-22.5 55t22.5 55.5t54.5 22.5q33 0 55 -22.5t22 -55.5t-22 -55t-55 -22zM757 10v-10h-382v10h28q35 0 49.5 12.5t14.5 39.5q0 25 -21 75
l-27 68h-237l-33 -75q-19 -44 -19 -69q0 -51 66 -51h42v-10h-226v10h20q29 0 53 28t53 93l252 569h18l251 -612q18 -47 32.5 -62.5t44.5 -15.5h21zM415 215l-108 274l-121 -274h229z" />
    <glyph glyph-name="Aring" unicode="&#xc5;" 
d="M413 771q-43 0 -71.5 28.5t-28.5 71.5t28.5 71.5t71.5 28.5t71.5 -28.5t28.5 -71.5t-28.5 -71.5t-71.5 -28.5zM413 961q-38 0 -63.5 -26t-25.5 -64t25.5 -64t63.5 -26t63.5 26t25.5 64t-25.5 64t-63.5 26zM757 10v-10h-382v10h28q35 0 49.5 12.5t14.5 39.5q0 25 -21 75
l-27 68h-237l-33 -75q-19 -44 -19 -69q0 -51 66 -51h42v-10h-226v10h20q29 0 53 28t53 93l252 569h18l251 -612q18 -47 32.5 -62.5t44.5 -15.5h21zM415 215l-108 274l-121 -274h229z" />
    <glyph glyph-name="AE" unicode="&#xc6;" horiz-adv-x="1128" 
d="M1088 270l-36 -265l-5 -5h-626v10h32q37 0 51.5 14.5t14.5 51.5v173h-268l-80 -124q-32 -50 -32 -78q0 -37 53 -37h46v-10h-226v10h16q31 0 61.5 29t71.5 92l349 537q-12 22 -57 22h-32v10h609l5 -5l32 -255l-10 -2q-38 145 -82 198.5t-116 53.5h-129q-11 0 -15.5 -4.5
t-4.5 -15.5v-312h93q63 0 87 28t24 101h10v-272h-10q0 76 -24 104.5t-87 28.5h-93v-317q0 -20 20 -21h143q78 -1 126.5 59t78.5 202zM519 258v366q0 16 -4 32l-257 -397z" />
    <glyph glyph-name="Ccedilla" unicode="&#xc7;" 
d="M723 152l9 -7q-63 -78 -138 -117.5t-194 -40.5l-49 -90q34 34 90 34q44 0 71 -24t27 -63q0 -44 -34.5 -71.5t-88.5 -27.5q-61 0 -109 27l4 7q31 -15 62 -15t50.5 20t19.5 51q0 27 -14.5 43t-38.5 16q-31 0 -57 -26l-6 4l63 115q-168 1 -260 91t-92 256q0 169 105 274
t273 105q70 0 140.5 -28t93.5 -28q51 0 52 54h10v-305h-10q-26 149 -88.5 219t-159.5 72q-92 0 -150 -97t-58 -253q0 -165 58 -250.5t170 -85.5q136 0 249 141z" />
    <glyph glyph-name="Egrave" unicode="&#xc8;" horiz-adv-x="725" 
d="M376 787l-8 -6q-22 22 -46 39.5t-55 37t-41 26.5q-43 28 -43 62q0 22 16.5 37.5t39.5 15.5q40 0 59 -50q45 -111 78 -162zM685 270l-37 -265l-5 -5h-625v10h31q37 0 51.5 14t14.5 52v548q0 38 -14.5 52t-51.5 14h-31v10h609l5 -5l31 -255l-10 -2q-37 145 -81 198.5
t-116 53.5h-130q-20 0 -20 -20v-312h93q64 0 88 28t24 101h10v-272h-10q0 76 -24 104.5t-88 28.5h-93v-317q0 -20 20 -21h143q79 -1 127.5 59t78.5 202z" />
    <glyph glyph-name="Eacute" unicode="&#xc9;" horiz-adv-x="725" 
d="M372 781l-7 6q38 59 77 162q19 50 60 50q23 0 39 -15.5t16 -37.5q0 -35 -42 -62q-9 -6 -41.5 -26t-55.5 -37.5t-46 -39.5zM685 270l-37 -265l-5 -5h-625v10h31q37 0 51.5 14t14.5 52v548q0 38 -14.5 52t-51.5 14h-31v10h609l5 -5l31 -255l-10 -2q-37 145 -81 198.5
t-116 53.5h-130q-20 0 -20 -20v-312h93q64 0 88 28t24 101h10v-272h-10q0 76 -24 104.5t-88 28.5h-93v-317q0 -20 20 -21h143q79 -1 127.5 59t78.5 202z" />
    <glyph glyph-name="Ecircumflex" unicode="&#xca;" horiz-adv-x="725" 
d="M198 783l-6 8l172 173h10l172 -173l-6 -8l-173 94zM685 270l-37 -265l-5 -5h-625v10h31q37 0 51.5 14t14.5 52v548q0 38 -14.5 52t-51.5 14h-31v10h609l5 -5l31 -255l-10 -2q-37 145 -81 198.5t-116 53.5h-130q-20 0 -20 -20v-312h93q64 0 88 28t24 101h10v-272h-10
q0 76 -24 104.5t-88 28.5h-93v-317q0 -20 20 -21h143q79 -1 127.5 59t78.5 202z" />
    <glyph glyph-name="Edieresis" unicode="&#xcb;" horiz-adv-x="725" 
d="M490 788q-32 0 -54.5 22t-22.5 55t22.5 55.5t54.5 22.5q33 0 55.5 -22.5t22.5 -55.5t-22.5 -55t-55.5 -22zM240 787q-32 0 -54.5 22t-22.5 55t22.5 55.5t54.5 22.5t54.5 -22.5t22.5 -55.5t-22.5 -55t-54.5 -22zM685 270l-37 -265l-5 -5h-625v10h31q37 0 51.5 14t14.5 52
v548q0 38 -14.5 52t-51.5 14h-31v10h609l5 -5l31 -255l-10 -2q-37 145 -81 198.5t-116 53.5h-130q-20 0 -20 -20v-312h93q64 0 88 28t24 101h10v-272h-10q0 76 -24 104.5t-88 28.5h-93v-317q0 -20 20 -21h143q79 -1 127.5 59t78.5 202z" />
    <glyph glyph-name="Igrave" unicode="&#xcc;" horiz-adv-x="415" 
d="M217 787l-7 -6q-22 22 -45.5 39.5t-56 37.5t-41.5 26q-42 27 -42 62q0 22 16 37.5t39 15.5q41 0 60 -50q39 -103 77 -162zM398 690h-26q-37 0 -51.5 -14.5t-14.5 -51.5v-548q0 -37 14.5 -51.5t51.5 -14.5h26v-10h-380v10h31q37 0 51.5 14t14.5 52v548q0 38 -14.5 52
t-51.5 14h-31v10h380v-10z" />
    <glyph glyph-name="Iacute" unicode="&#xcd;" horiz-adv-x="415" 
d="M214 781l-7 6q38 59 77 162q19 50 60 50q23 0 39 -15.5t16 -37.5q0 -35 -42 -62q-9 -6 -41.5 -26t-56 -37.5t-45.5 -39.5zM398 690h-26q-37 0 -51.5 -14.5t-14.5 -51.5v-548q0 -37 14.5 -51.5t51.5 -14.5h26v-10h-380v10h31q37 0 51.5 14t14.5 52v548q0 38 -14.5 52
t-51.5 14h-31v10h380v-10z" />
    <glyph glyph-name="Icircumflex" unicode="&#xce;" horiz-adv-x="415" 
d="M388 791l-6 -8l-173 94l-170 -94l-5 8l171 173h11zM398 690h-26q-37 0 -51.5 -14.5t-14.5 -51.5v-548q0 -37 14.5 -51.5t51.5 -14.5h26v-10h-380v10h31q37 0 51.5 14t14.5 52v548q0 38 -14.5 52t-51.5 14h-31v10h380v-10z" />
    <glyph glyph-name="Idieresis" unicode="&#xcf;" horiz-adv-x="415" 
d="M332 943q32 0 55 -22.5t23 -55.5t-22.5 -55t-55.5 -22q-32 0 -54.5 22t-22.5 55t22.5 55.5t54.5 22.5zM82 942q32 0 54.5 -22.5t22.5 -55.5t-22.5 -55t-54.5 -22q-33 0 -55.5 22t-22.5 55t23 55.5t55 22.5zM398 690h-26q-37 0 -51.5 -14.5t-14.5 -51.5v-548
q0 -37 14.5 -51.5t51.5 -14.5h26v-10h-380v10h31q37 0 51.5 14t14.5 52v548q0 38 -14.5 52t-51.5 14h-31v10h380v-10z" />
    <glyph glyph-name="Eth" unicode="&#xd0;" horiz-adv-x="819" 
d="M18 700h428q151 0 243 -94.5t92 -249.5q0 -161 -97 -258.5t-257 -97.5h-409v10h31q37 0 51.5 15t14.5 51v259h-70v10h70v279q0 37 -14.5 51t-51.5 14h-31v11zM326 10h73q180 0 180 346q0 334 -177 334h-76q-11 0 -15.5 -4.5t-4.5 -15.5v-325h119v-10h-119v-305
q0 -11 4.5 -15.5t15.5 -4.5z" />
    <glyph glyph-name="Ntilde" unicode="&#xd1;" horiz-adv-x="764" 
d="M532 963l8 6q44 -47 44 -98q0 -37 -22 -57.5t-61 -20.5q-35 0 -107 32.5t-109 32.5q-23 0 -36 -13.5t-13 -37.5q0 -22 10 -42l-8 -5q-29 41 -29 83q0 45 26.5 72.5t69.5 27.5q36 0 105.5 -30.5t98.5 -30.5q18 0 28.5 9.5t10.5 23.5q0 24 -16 48zM753 690h-16
q-44 0 -61 -34t-17 -120v-536h-128l-403 522v-362q0 -89 33.5 -119.5t116.5 -30.5h39v-10h-306v10h22q53 0 69 28.5t16 121.5v464q0 38 -14 52t-52 14h-30v10h223l404 -527v363q0 86 -30 120t-108 34h-31v10h273v-10z" />
    <glyph glyph-name="Ograve" unicode="&#xd2;" horiz-adv-x="820" 
d="M420 787l-8 -6q-22 22 -45 39t-56 38t-41 26q-42 27 -42 62q0 22 16 37.5t39 15.5q41 0 60 -50q39 -103 77 -162zM425 713q160 0 259 -93.5t99 -248.5q0 -183 -106.5 -284t-283.5 -101q-98 0 -176.5 37.5t-128.5 118.5t-50 194q0 168 106 272.5t281 104.5zM412 703
q-76 0 -121 -95.5t-45 -271.5q0 -157 43.5 -248.5t117.5 -91.5q78 0 123 99t45 285q0 158 -42 240.5t-121 82.5z" />
    <glyph glyph-name="Oacute" unicode="&#xd3;" horiz-adv-x="820" 
d="M417 781l-8 6q38 59 77 162q19 50 60 50q23 0 39 -15.5t16 -37.5q0 -35 -42 -62q-8 -5 -41 -26t-56 -38t-45 -39zM425 713q160 0 259 -93.5t99 -248.5q0 -183 -106.5 -284t-283.5 -101q-98 0 -176.5 37.5t-128.5 118.5t-50 194q0 168 106 272.5t281 104.5zM412 703
q-76 0 -121 -95.5t-45 -271.5q0 -157 43.5 -248.5t117.5 -91.5q78 0 123 99t45 285q0 158 -42 240.5t-121 82.5z" />
    <glyph glyph-name="Ocircumflex" unicode="&#xd4;" horiz-adv-x="820" 
d="M590 791l-6 -8l-172 94l-170 -94l-6 8l172 173h10zM425 713q160 0 259 -93.5t99 -248.5q0 -183 -106.5 -284t-283.5 -101q-98 0 -176.5 37.5t-128.5 118.5t-50 194q0 168 106 272.5t281 104.5zM412 703q-76 0 -121 -95.5t-45 -271.5q0 -157 43.5 -248.5t117.5 -91.5
q78 0 123 99t45 285q0 158 -42 240.5t-121 82.5z" />
    <glyph glyph-name="Otilde" unicode="&#xd5;" horiz-adv-x="820" 
d="M546 963l9 6q44 -47 44 -98q0 -37 -22 -57.5t-62 -20.5q-35 0 -106 32.5t-109 32.5q-49 0 -49 -51q0 -25 10 -42l-9 -5q-28 40 -28 83q0 45 26 72.5t69 27.5q36 0 105.5 -30.5t98.5 -30.5q18 0 28.5 9.5t10.5 23.5q0 24 -16 48zM425 713q160 0 259 -93.5t99 -248.5
q0 -183 -106.5 -284t-283.5 -101q-98 0 -176.5 37.5t-128.5 118.5t-50 194q0 168 106 272.5t281 104.5zM412 703q-76 0 -121 -95.5t-45 -271.5q0 -157 43.5 -248.5t117.5 -91.5q78 0 123 99t45 285q0 158 -42 240.5t-121 82.5z" />
    <glyph glyph-name="Odieresis" unicode="&#xd6;" horiz-adv-x="820" 
d="M535 943q32 0 54.5 -22.5t22.5 -55.5t-22.5 -55t-54.5 -22q-33 0 -55.5 22t-22.5 55t22.5 55.5t55.5 22.5zM284 942q33 0 55 -22.5t22 -55.5t-22 -55t-55 -22q-32 0 -54.5 22t-22.5 55t22.5 55.5t54.5 22.5zM425 713q160 0 259 -93.5t99 -248.5q0 -183 -106.5 -284
t-283.5 -101q-98 0 -176.5 37.5t-128.5 118.5t-50 194q0 168 106 272.5t281 104.5zM412 703q-76 0 -121 -95.5t-45 -271.5q0 -157 43.5 -248.5t117.5 -91.5q78 0 123 99t45 285q0 158 -42 240.5t-121 82.5z" />
    <glyph glyph-name="multiply" unicode="&#xd7;" horiz-adv-x="558" 
d="M508 563l-450 -450l-8 8l451 449z" />
    <glyph glyph-name="Oslash" unicode="&#xd8;" horiz-adv-x="833" 
d="M665 763l-53 -93q81 -42 126 -119t45 -180q0 -183 -106.5 -283.5t-283.5 -100.5q-86 0 -158 30l-54 -93h-10l56 96q-87 39 -138.5 119.5t-51.5 195.5q0 168 106.5 273t281.5 105q102 0 180 -39l50 89h10zM279 111l271 468q-41 124 -138 124q-77 0 -121.5 -95.5
t-44.5 -272.5q0 -134 33 -224zM553 568l-270 -467q44 -105 124 -105q78 0 123 99t45 285q0 109 -22 188z" />
    <glyph glyph-name="Ugrave" unicode="&#xd9;" horiz-adv-x="785" 
d="M418 787l-7 -6q-22 22 -45.5 39.5t-56 37.5t-41.5 26q-42 27 -42 62q0 22 16 37.5t39 15.5q41 0 60 -50q39 -103 77 -162zM777 690h-18q-43 0 -59.5 -26t-16.5 -95v-350q0 -233 -267 -233q-305 0 -305 246v392q0 37 -14 51.5t-51 14.5h-34v10h398v-10h-42q-37 -1 -51 -15
t-14 -51v-400q0 -215 183 -215q85 0 136 55.5t51 154.5v350q0 69 -25 95t-90 26h-29v10h248v-10z" />
    <glyph glyph-name="Uacute" unicode="&#xda;" horiz-adv-x="785" 
d="M415 781l-7 6q38 59 77 162q19 50 60 50q23 0 39 -15.5t16 -37.5q0 -34 -43 -62q-10 -7 -41 -26.5t-55 -37t-46 -39.5zM777 690h-18q-43 0 -59.5 -26t-16.5 -95v-350q0 -233 -267 -233q-305 0 -305 246v392q0 37 -14 51.5t-51 14.5h-34v10h398v-10h-42q-37 -1 -51 -15
t-14 -51v-400q0 -215 183 -215q85 0 136 55.5t51 154.5v350q0 69 -25 95t-90 26h-29v10h248v-10z" />
    <glyph glyph-name="Ucircumflex" unicode="&#xdb;" horiz-adv-x="785" 
d="M588 791l-5 -8l-173 94l-170 -94l-6 8l172 173h11zM777 690h-18q-43 0 -59.5 -26t-16.5 -95v-350q0 -233 -267 -233q-305 0 -305 246v392q0 37 -14 51.5t-51 14.5h-34v10h398v-10h-42q-37 -1 -51 -15t-14 -51v-400q0 -215 183 -215q85 0 136 55.5t51 154.5v350
q0 69 -25 95t-90 26h-29v10h248v-10z" />
    <glyph glyph-name="Udieresis" unicode="&#xdc;" horiz-adv-x="785" 
d="M533 943q32 0 54.5 -22.5t22.5 -55.5t-22.5 -55t-54.5 -22t-54.5 22t-22.5 55t22.5 55.5t54.5 22.5zM283 942q32 0 54.5 -22.5t22.5 -55.5t-22.5 -55t-54.5 -22q-33 0 -55.5 22t-22.5 55t22.5 55.5t55.5 22.5zM777 690h-18q-43 0 -59.5 -26t-16.5 -95v-350
q0 -233 -267 -233q-305 0 -305 246v392q0 37 -14 51.5t-51 14.5h-34v10h398v-10h-42q-37 -1 -51 -15t-14 -51v-400q0 -215 183 -215q85 0 136 55.5t51 154.5v350q0 69 -25 95t-90 26h-29v10h248v-10z" />
    <glyph glyph-name="Yacute" unicode="&#xdd;" horiz-adv-x="801" 
d="M423 781l-8 6q38 59 77 162q19 50 60 50q23 0 39 -15.5t16 -37.5q0 -35 -42 -62q-8 -5 -41 -26t-56 -38t-45 -39zM792 700v-10h-11q-34 0 -64 -28t-67 -97l-139 -266v-220q0 -39 15.5 -54t55.5 -15h34v-10h-411v10h38q42 0 58 15t16 54v196l-196 358q-18 33 -39 45
t-57 12h-16v10h406v-10h-33q-21 0 -34 -11.5t-13 -29.5q0 -21 14 -44l157 -287l121 229q30 58 30 85q0 58 -87 58h-33v10h255z" />
    <glyph glyph-name="Thorn" unicode="&#xde;" horiz-adv-x="746" 
d="M308 573h159q116 0 180.5 -50t64.5 -140q0 -93 -63 -144.5t-177 -50.5h-164v-89q0 -53 25 -71t101 -18v-10h-415v10q59 0 78.5 18t19.5 71v506q0 51 -19.5 68t-79.5 17v10h412v-10q-74 0 -98.5 -18.5t-23.5 -73.5v-25zM308 198h90q66 0 96.5 43t30.5 134
q0 97 -29.5 142.5t-93.5 45.5h-94v-365z" />
    <glyph glyph-name="germandbls" unicode="&#xdf;" horiz-adv-x="814" 
d="M101 67v427q0 131 83 200t242 69q72 0 115 -32t43 -85q0 -34 -14.5 -60t-31.5 -39t-31.5 -33t-14.5 -43q0 -30 28.5 -52.5t69 -40t80.5 -39t68.5 -59.5t28.5 -91q0 -92 -61 -147.5t-161 -55.5q-80 0 -171 42v134h10q12 -77 56 -121.5t105 -44.5q43 0 69 26t26 66
q0 37 -29 64t-70.5 44.5t-83 37t-70.5 53t-29 80.5q0 46 22 79.5t54 53.5t64 38.5t54 45t22 62.5q0 49 -40.5 78t-107.5 29q-64 0 -102.5 -51.5t-38.5 -135.5v-565h-273v10q55 0 72 12t17 44z" />
    <glyph glyph-name="agrave" unicode="&#xe0;" horiz-adv-x="646" 
d="M326 587l-7 -6q-22 22 -46 39.5t-55 37t-41 26.5q-43 28 -43 62q0 22 16 37.5t39 15.5q41 0 60 -50q39 -103 77 -162zM635 95v-21q0 -41 -35 -64.5t-98 -23.5q-51 0 -88.5 22t-49.5 61q-71 -82 -178 -83q-71 0 -111 31.5t-40 87.5q0 58 45.5 93t122.5 35h159v121
q0 136 -134 136q-64 0 -109 -37t-45 -95q6 30 27.5 48t54.5 18q35 0 56 -21.5t21 -56.5q0 -36 -23 -58t-60 -22q-38 0 -62 25t-24 66q0 155 263 156q108 1 164.5 -48.5t56.5 -140.5v-248q0 -50 36 -50q18 0 29.5 13.5t11.5 36.5v20zM362 223h-76q-33 0 -54 -24t-21 -69
q0 -46 17 -71.5t49 -25.5q44 0 85 50v140z" />
    <glyph glyph-name="aacute" unicode="&#xe1;" horiz-adv-x="646" 
d="M323 581l-7 6q38 59 77 162q19 50 60 50q23 0 39 -15.5t16 -37.5q0 -35 -42 -62q-9 -6 -41.5 -26t-56 -37.5t-45.5 -39.5zM635 95v-21q0 -41 -35 -64.5t-98 -23.5q-51 0 -88.5 22t-49.5 61q-71 -82 -178 -83q-71 0 -111 31.5t-40 87.5q0 58 45.5 93t122.5 35h159v121
q0 136 -134 136q-64 0 -109 -37t-45 -95q6 30 27.5 48t54.5 18q35 0 56 -21.5t21 -56.5q0 -36 -23 -58t-60 -22q-38 0 -62 25t-24 66q0 155 263 156q108 1 164.5 -48.5t56.5 -140.5v-248q0 -50 36 -50q18 0 29.5 13.5t11.5 36.5v20zM362 223h-76q-33 0 -54 -24t-21 -69
q0 -46 17 -71.5t49 -25.5q44 0 85 50v140z" />
    <glyph glyph-name="acircumflex" unicode="&#xe2;" horiz-adv-x="646" 
d="M148 583l-5 8l171 173h11l172 -173l-6 -8l-173 94zM635 95v-21q0 -41 -35 -64.5t-98 -23.5q-51 0 -88.5 22t-49.5 61q-71 -82 -178 -83q-71 0 -111 31.5t-40 87.5q0 58 45.5 93t122.5 35h159v121q0 136 -134 136q-64 0 -109 -37t-45 -95q6 30 27.5 48t54.5 18
q35 0 56 -21.5t21 -56.5q0 -36 -23 -58t-60 -22q-38 0 -62 25t-24 66q0 155 263 156q108 1 164.5 -48.5t56.5 -140.5v-248q0 -50 36 -50q18 0 29.5 13.5t11.5 36.5v20zM362 223h-76q-33 0 -54 -24t-21 -69q0 -46 17 -71.5t49 -25.5q44 0 85 50v140z" />
    <glyph glyph-name="atilde" unicode="&#xe3;" horiz-adv-x="646" 
d="M167 565l-8 -5q-29 41 -29 83q0 45 26.5 72.5t69.5 27.5q35 0 105 -30.5t99 -30.5q18 0 28.5 9.5t10.5 23.5q0 24 -16 48l8 6q44 -47 44 -98q0 -37 -22 -57.5t-61 -20.5q-35 0 -107 32.5t-109 32.5q-23 0 -36 -13.5t-13 -37.5q0 -22 10 -42zM635 95v-21q0 -41 -35 -64.5
t-98 -23.5q-51 0 -88.5 22t-49.5 61q-71 -82 -178 -83q-71 0 -111 31.5t-40 87.5q0 58 45.5 93t122.5 35h159v121q0 136 -134 136q-64 0 -109 -37t-45 -95q6 30 27.5 48t54.5 18q35 0 56 -21.5t21 -56.5q0 -36 -23 -58t-60 -22q-38 0 -62 25t-24 66q0 155 263 156
q108 1 164.5 -48.5t56.5 -140.5v-248q0 -50 36 -50q18 0 29.5 13.5t11.5 36.5v20zM362 223h-76q-33 0 -54 -24t-21 -69q0 -46 17 -71.5t49 -25.5q44 0 85 50v140z" />
    <glyph glyph-name="adieresis" unicode="&#xe4;" horiz-adv-x="646" 
d="M441 588q-32 0 -54.5 22t-22.5 55t22.5 55.5t54.5 22.5t55 -22.5t23 -55.5t-22.5 -55t-55.5 -22zM191 587q-33 0 -55.5 22t-22.5 55t23 55.5t55 22.5t54.5 -22.5t22.5 -55.5t-22.5 -55t-54.5 -22zM635 95v-21q0 -41 -35 -64.5t-98 -23.5q-51 0 -88.5 22t-49.5 61
q-71 -82 -178 -83q-71 0 -111 31.5t-40 87.5q0 58 45.5 93t122.5 35h159v121q0 136 -134 136q-64 0 -109 -37t-45 -95q6 30 27.5 48t54.5 18q35 0 56 -21.5t21 -56.5q0 -36 -23 -58t-60 -22q-38 0 -62 25t-24 66q0 155 263 156q108 1 164.5 -48.5t56.5 -140.5v-248
q0 -50 36 -50q18 0 29.5 13.5t11.5 36.5v20zM362 223h-76q-33 0 -54 -24t-21 -69q0 -46 17 -71.5t49 -25.5q44 0 85 50v140z" />
    <glyph glyph-name="aring" unicode="&#xe5;" horiz-adv-x="646" 
d="M317 565q-43 0 -71.5 28.5t-28.5 71.5t28.5 71.5t71.5 28.5t71.5 -28.5t28.5 -71.5t-28.5 -71.5t-71.5 -28.5zM317 755q-38 0 -63.5 -26t-25.5 -64t25.5 -64t63.5 -26t63.5 26t25.5 64t-25.5 64t-63.5 26zM635 95v-21q0 -41 -35 -64.5t-98 -23.5q-51 0 -88.5 22t-49.5 61
q-71 -82 -178 -83q-71 0 -111 31.5t-40 87.5q0 58 45.5 93t122.5 35h159v121q0 136 -134 136q-64 0 -109 -37t-45 -95q6 30 27.5 48t54.5 18q35 0 56 -21.5t21 -56.5q0 -36 -23 -58t-60 -22q-38 0 -62 25t-24 66q0 155 263 156q108 1 164.5 -48.5t56.5 -140.5v-248
q0 -50 36 -50q18 0 29.5 13.5t11.5 36.5v20zM362 223h-76q-33 0 -54 -24t-21 -69q0 -46 17 -71.5t49 -25.5q44 0 85 50v140z" />
    <glyph glyph-name="ae" unicode="&#xe6;" horiz-adv-x="938" 
d="M364 228v119q-1 68 -39.5 105.5t-108.5 37.5q-64 0 -109 -37t-45 -95q6 29 28 47.5t56 18.5t55 -21.5t21 -56.5q0 -36 -23 -58t-60 -22q-39 0 -63 25t-24 66q0 74 64.5 114.5t180.5 41.5q58 1 112.5 -20t74.5 -56q32 35 80 55.5t99 20.5q115 0 178.5 -58t63.5 -159l-5 -6
h-348v-6q0 -140 40.5 -206t125.5 -66q95 0 188 75l6 -9q-114 -92 -257 -92q-118 0 -195 60t-84 170v-30q0 -97 -58 -148t-132 -52q-70 0 -110.5 32t-40.5 87q0 57 45 90t123 33h161zM552 301h153q17 0 24 8.5t7 30.5q0 75 -22.5 117.5t-61.5 42.5q-99 0 -100 -199zM365 218
h-92q-33 0 -53.5 -22t-20.5 -66q0 -94 64 -94q41 0 71.5 42t30.5 104v36z" />
    <glyph glyph-name="ccedilla" unicode="&#xe7;" horiz-adv-x="601" 
d="M323 -13l-50 -90q34 34 90 34q44 0 71 -24t27 -64q0 -43 -35 -71t-88 -28q-58 0 -109 27l4 8q31 -16 62 -16t50.5 20.5t19.5 51.5q0 26 -14.5 42.5t-38.5 16.5q-32 0 -57 -27l-6 4l64 116q-130 2 -204.5 66.5t-74.5 185.5q0 116 82.5 195t232.5 79q103 0 160 -44t57 -117
q0 -43 -24 -69t-63 -26t-62.5 22.5t-23.5 61.5q0 35 23.5 58.5t60.5 23.5q30 0 51.5 -20t27.5 -51q-1 62 -46.5 102t-113.5 40q-82 0 -129 -68t-47 -183q0 -113 43 -174.5t122 -61.5q92 0 190 79l6 -9q-113 -90 -258 -90z" />
    <glyph glyph-name="egrave" unicode="&#xe8;" horiz-adv-x="602" 
d="M314 587l-7 -6q-22 22 -45.5 39.5t-56 37.5t-41.5 26q-42 27 -42 62q0 22 16 37.5t39 15.5q41 0 60 -50q39 -103 77 -162zM569 86l7 -8q-115 -92 -257 -92q-132 0 -208.5 68t-76.5 188q0 123 79.5 197t213.5 74q114 0 178 -59t64 -160l-5 -5h-344v-13q0 -143 37 -206.5
t125 -63.5q89 0 187 80zM220 299h149q17 0 24 8t7 30q0 76 -23 121t-62 45q-40 0 -66 -55.5t-29 -148.5z" />
    <glyph glyph-name="eacute" unicode="&#xe9;" horiz-adv-x="602" 
d="M311 581l-7 6q38 59 77 162q19 50 60 50q23 0 39 -15.5t16 -37.5q0 -35 -42 -62q-9 -6 -41.5 -26t-56 -37.5t-45.5 -39.5zM569 86l7 -8q-115 -92 -257 -92q-132 0 -208.5 68t-76.5 188q0 123 79.5 197t213.5 74q114 0 178 -59t64 -160l-5 -5h-344v-13q0 -143 37 -206.5
t125 -63.5q89 0 187 80zM220 299h149q17 0 24 8t7 30q0 76 -23 121t-62 45q-40 0 -66 -55.5t-29 -148.5z" />
    <glyph glyph-name="ecircumflex" unicode="&#xea;" horiz-adv-x="602" 
d="M136 583l-5 8l171 173h11l172 -173l-6 -8l-173 94zM569 86l7 -8q-115 -92 -257 -92q-132 0 -208.5 68t-76.5 188q0 123 79.5 197t213.5 74q114 0 178 -59t64 -160l-5 -5h-344v-13q0 -143 37 -206.5t125 -63.5q89 0 187 80zM220 299h149q17 0 24 8t7 30q0 76 -23 121
t-62 45q-40 0 -66 -55.5t-29 -148.5z" />
    <glyph glyph-name="edieresis" unicode="&#xeb;" horiz-adv-x="602" 
d="M429 588q-32 0 -54.5 22t-22.5 55t22.5 55.5t54.5 22.5t55 -22.5t23 -55.5t-22.5 -55t-55.5 -22zM179 587q-33 0 -55.5 22t-22.5 55t23 55.5t55 22.5t54.5 -22.5t22.5 -55.5t-22.5 -55t-54.5 -22zM569 86l7 -8q-115 -92 -257 -92q-132 0 -208.5 68t-76.5 188
q0 123 79.5 197t213.5 74q114 0 178 -59t64 -160l-5 -5h-344v-13q0 -143 37 -206.5t125 -63.5q89 0 187 80zM220 299h149q17 0 24 8t7 30q0 76 -23 121t-62 45q-40 0 -66 -55.5t-29 -148.5z" />
    <glyph glyph-name="igrave" unicode="&#xec;" horiz-adv-x="397" 
d="M194 587l-7 -6q-22 22 -46 39.5t-55 37t-41 26.5q-43 28 -43 62q0 22 16 37.5t39 15.5q41 0 60 -50q39 -103 77 -162zM289 500v-424q0 -37 14.5 -51.5t51.5 -14.5h27v-10h-370v10h27q37 0 51.5 14.5t14.5 51.5v353q0 34 -13.5 47t-48.5 13h-30v10l268 9z" />
    <glyph glyph-name="iacute" unicode="&#xed;" horiz-adv-x="397" 
d="M191 581l-7 6q38 59 77 162q19 50 60 50q23 0 39 -15.5t16 -37.5q0 -35 -42 -62q-9 -6 -41.5 -26t-56 -37.5t-45.5 -39.5zM289 500v-424q0 -37 14.5 -51.5t51.5 -14.5h27v-10h-370v10h27q37 0 51.5 14.5t14.5 51.5v353q0 34 -13.5 47t-48.5 13h-30v10l268 9z" />
    <glyph glyph-name="icircumflex" unicode="&#xee;" horiz-adv-x="397" 
d="M365 591l-6 -8l-173 94l-170 -94l-5 8l171 173h11zM289 500v-424q0 -37 14.5 -51.5t51.5 -14.5h27v-10h-370v10h27q37 0 51.5 14.5t14.5 51.5v353q0 34 -13.5 47t-48.5 13h-30v10l268 9z" />
    <glyph glyph-name="idieresis" unicode="&#xef;" horiz-adv-x="397" 
d="M309 743q32 0 55 -22.5t23 -55.5t-22.5 -55t-55.5 -22q-32 0 -54.5 22t-22.5 55t22.5 55.5t54.5 22.5zM59 742q32 0 54.5 -22.5t22.5 -55.5t-22.5 -55t-54.5 -22q-33 0 -55.5 22t-22.5 55t23 55.5t55 22.5zM289 500v-424q0 -37 14.5 -51.5t51.5 -14.5h27v-10h-370v10h27
q37 0 51.5 14.5t14.5 51.5v353q0 34 -13.5 47t-48.5 13h-30v10l268 9z" />
    <glyph glyph-name="eth" unicode="&#xf0;" horiz-adv-x="686" 
d="M415 825l-71 -112q132 -13 216.5 -107t84.5 -234q0 -172 -93 -277t-239 -105q-123 0 -197.5 62.5t-74.5 164.5q0 101 70.5 166.5t188.5 65.5q89 0 157 -39q-2 48 -4 73q-5 83 -37 138t-85 73l-90 -144l-12 8l88 140q-22 4 -37 4q-97 0 -171 -43l-6 11q78 45 202 45l23 -1
l75 119zM313 0q67 0 106.5 112.5t37.5 288.5q-44 29 -92 29q-70 0 -108.5 -74t-38.5 -191q0 -165 95 -165z" />
    <glyph glyph-name="ntilde" unicode="&#xf1;" horiz-adv-x="734" 
d="M503 763l8 6q44 -47 44 -98q0 -37 -22 -57.5t-61 -20.5q-34 0 -106 32.5t-110 32.5q-23 0 -36 -13.5t-13 -37.5q0 -22 10 -42l-8 -5q-29 41 -29 83q0 45 26.5 72.5t69.5 27.5q36 0 105.5 -30.5t98.5 -30.5q18 0 28.5 9.5t10.5 23.5q0 24 -16 48zM288 402h2q19 49 67.5 80
t113.5 31q81 0 125 -43.5t44 -121.5v-272q0 -37 14 -51.5t49 -14.5h24v-10h-345v10h17q32 0 44 14t12 52v306q0 81 -68 81q-38 0 -67.5 -31t-29.5 -70v-286q0 -37 12.5 -51.5t44.5 -14.5h17v-10h-352v10h28q38 0 52 14t14 52v354q0 34 -13.5 47t-48.5 13h-32v10l276 6l5 -5z
" />
    <glyph glyph-name="ograve" unicode="&#xf2;" horiz-adv-x="661" 
d="M340 587l-7 -6q-22 22 -45.5 39.5t-56 37.5t-41.5 26q-42 27 -42 62q0 22 16 37.5t39 15.5q41 0 60 -50q39 -103 77 -162zM342 513q73 0 135 -23.5t106 -80t44 -138.5q1 -127 -83 -206t-225 -79q-133 0 -209 67.5t-76 186.5q0 115 79.5 194t228.5 79zM330 503
q-49 0 -76 -66.5t-27 -196.5q0 -244 101 -244q54 1 80.5 66.5t25.5 210.5q-1 230 -104 230z" />
    <glyph glyph-name="oacute" unicode="&#xf3;" horiz-adv-x="661" 
d="M337 581l-7 6q38 59 77 162q19 50 60 50q23 0 39 -15.5t16 -37.5q0 -35 -42 -62q-9 -6 -41.5 -26t-56 -37.5t-45.5 -39.5zM342 513q73 0 135 -23.5t106 -80t44 -138.5q1 -127 -83 -206t-225 -79q-133 0 -209 67.5t-76 186.5q0 115 79.5 194t228.5 79zM330 503
q-49 0 -76 -66.5t-27 -196.5q0 -244 101 -244q54 1 80.5 66.5t25.5 210.5q-1 230 -104 230z" />
    <glyph glyph-name="ocircumflex" unicode="&#xf4;" horiz-adv-x="661" 
d="M511 591l-6 -8l-173 94l-170 -94l-5 8l171 173h11zM342 513q73 0 135 -23.5t106 -80t44 -138.5q1 -127 -83 -206t-225 -79q-133 0 -209 67.5t-76 186.5q0 115 79.5 194t228.5 79zM330 503q-49 0 -76 -66.5t-27 -196.5q0 -244 101 -244q54 1 80.5 66.5t25.5 210.5
q-1 230 -104 230z" />
    <glyph glyph-name="otilde" unicode="&#xf5;" horiz-adv-x="661" 
d="M467 763l8 6q44 -47 44 -98q0 -37 -22 -57.5t-61 -20.5q-35 0 -107 32.5t-109 32.5q-23 0 -36 -13.5t-13 -37.5q0 -22 10 -42l-8 -5q-29 39 -29 83q0 45 26.5 72.5t69.5 27.5q35 0 105 -30.5t99 -30.5q18 0 28.5 9.5t10.5 23.5q0 24 -16 48zM342 513q73 0 135 -23.5
t106 -80t44 -138.5q1 -127 -83 -206t-225 -79q-133 0 -209 67.5t-76 186.5q0 115 79.5 194t228.5 79zM330 503q-49 0 -76 -66.5t-27 -196.5q0 -244 101 -244q54 1 80.5 66.5t25.5 210.5q-1 230 -104 230z" />
    <glyph glyph-name="odieresis" unicode="&#xf6;" horiz-adv-x="661" 
d="M455 743q32 0 55 -22.5t23 -55.5t-22.5 -55t-55.5 -22q-32 0 -54.5 22t-22.5 55t22.5 55.5t54.5 22.5zM205 742q32 0 54.5 -22.5t22.5 -55.5t-22.5 -55t-54.5 -22q-33 0 -55.5 22t-22.5 55t23 55.5t55 22.5zM342 513q73 0 135 -23.5t106 -80t44 -138.5q1 -127 -83 -206
t-225 -79q-133 0 -209 67.5t-76 186.5q0 115 79.5 194t228.5 79zM330 503q-49 0 -76 -66.5t-27 -196.5q0 -244 101 -244q54 1 80.5 66.5t25.5 210.5q-1 230 -104 230z" />
    <glyph glyph-name="divide" unicode="&#xf7;" horiz-adv-x="603" 
d="M303 630q35 0 58.5 -24t23.5 -58q0 -35 -24 -59.5t-58 -24.5q-35 0 -59 24.5t-24 59.5t24 58.5t59 23.5zM572 343h-541v10h541v-10zM303 231q34 0 58 -24t24 -59t-24 -59t-58 -24q-35 0 -59 24t-24 59t24 59t59 24z" />
    <glyph glyph-name="oslash" unicode="&#xf8;" horiz-adv-x="661" 
d="M458 625l-40 -119q90 -18 149 -77t60 -158q1 -127 -83 -205.5t-225 -78.5q-43 0 -71 5l-38 -116h-10l39 118q-97 19 -151 83t-54 163q0 115 79.5 194t228.5 79q34 0 67 -6l39 118h10zM256 48l140 419q-25 36 -66 36q-49 0 -76 -66.5t-27 -196.5q0 -132 29 -192zM402 457
l-139 -421q24 -41 65 -39q107 0 106 276q-1 126 -32 184z" />
    <glyph glyph-name="ugrave" unicode="&#xf9;" horiz-adv-x="735" 
d="M362 587l-7 -6q-23 22 -46 39.5t-55.5 37.5t-41.5 26q-42 27 -42 62q0 22 16 37.5t39 15.5q41 0 60 -50q39 -103 77 -162zM631 495v-425q0 -34 13.5 -47t48.5 -13h32v-10l-271 -6l-5 5v99h-2q-19 -49 -67.5 -80.5t-113.5 -31.5q-81 0 -125 44t-44 122v272q0 37 -14 51.5
t-49 14.5h-24v10h267l5 -5v-377q0 -81 68 -81q38 0 67.5 31t29.5 70v286q0 37 -12.5 51.5t-44.5 14.5h-17v10h253z" />
    <glyph glyph-name="uacute" unicode="&#xfa;" horiz-adv-x="735" 
d="M359 581l-8 6q33 51 78 162q19 50 59 50q23 0 39.5 -15.5t16.5 -37.5q0 -34 -43 -62q-10 -7 -41 -26.5t-55 -37t-46 -39.5zM631 495v-425q0 -34 13.5 -47t48.5 -13h32v-10l-271 -6l-5 5v99h-2q-19 -49 -67.5 -80.5t-113.5 -31.5q-81 0 -125 44t-44 122v272q0 37 -14 51.5
t-49 14.5h-24v10h267l5 -5v-377q0 -81 68 -81q38 0 67.5 31t29.5 70v286q0 37 -12.5 51.5t-44.5 14.5h-17v10h253z" />
    <glyph glyph-name="ucircumflex" unicode="&#xfb;" horiz-adv-x="735" 
d="M532 591l-6 -8l-172 94l-170 -94l-6 8l172 173h11zM631 495v-425q0 -34 13.5 -47t48.5 -13h32v-10l-271 -6l-5 5v99h-2q-19 -49 -67.5 -80.5t-113.5 -31.5q-81 0 -125 44t-44 122v272q0 37 -14 51.5t-49 14.5h-24v10h267l5 -5v-377q0 -81 68 -81q38 0 67.5 31t29.5 70
v286q0 37 -12.5 51.5t-44.5 14.5h-17v10h253z" />
    <glyph glyph-name="udieresis" unicode="&#xfc;" horiz-adv-x="735" 
d="M477 743q32 0 54.5 -22.5t22.5 -55.5t-22.5 -55t-54.5 -22q-33 0 -55 22t-22 55t22 55.5t55 22.5zM226 742q33 0 55.5 -22.5t22.5 -55.5t-22.5 -55t-55.5 -22q-32 0 -54.5 22t-22.5 55t22.5 55.5t54.5 22.5zM631 495v-425q0 -34 13.5 -47t48.5 -13h32v-10l-271 -6l-5 5
v99h-2q-19 -49 -67.5 -80.5t-113.5 -31.5q-81 0 -125 44t-44 122v272q0 37 -14 51.5t-49 14.5h-24v10h267l5 -5v-377q0 -81 68 -81q38 0 67.5 31t29.5 70v286q0 37 -12.5 51.5t-44.5 14.5h-17v10h253z" />
    <glyph glyph-name="yacute" unicode="&#xfd;" horiz-adv-x="655" 
d="M366 582l-7 5q38 59 77 162q19 50 60 50q23 0 39 -15t16 -37q0 -35 -42 -63q-9 -6 -32.5 -20.5t-37.5 -23.5t-35 -25t-38 -33zM648 500v-10h-17q-27 0 -51 -24t-56 -87l-229 -474q-44 -87 -83.5 -126t-90.5 -39t-82.5 29.5t-31.5 78.5q0 39 23.5 64.5t57.5 25.5
q37 0 59 -21t22 -56q0 -31 -22 -54t-55 -23q-28 0 -48 17.5t-27 46.5q-1 -44 28 -71t76 -27t84.5 38t80.5 121l40 84l-211 423q-22 44 -38 59t-47 15h-13v10h345v-10h-19q-40 0 -40 -35q0 -17 17 -54l99 -214l94 195q15 29 15 51q0 26 -21.5 41.5t-57.5 15.5h-30v10h229z
" />
    <glyph glyph-name="thorn" unicode="&#xfe;" horiz-adv-x="702" 
d="M287 402h2q18 49 65 80t108 31q95 0 149.5 -63.5t55.5 -179.5q1 -128 -81.5 -204t-224.5 -76q-36 0 -72 11v-176q0 -37 14.5 -51t51.5 -14h27v-10h-370v10h27q37 0 51 14t14 51v833q0 37 -14.5 51.5t-51.5 14.5h-26v10l270 16l5 -5v-343zM289 362v-351q39 -11 72 -11
q57 0 85.5 64.5t27.5 206.5q-1 192 -93 192q-36 0 -64 -31t-28 -70z" />
    <glyph glyph-name="ydieresis" unicode="&#xff;" horiz-adv-x="655" 
d="M484 588q-32 0 -54.5 22.5t-22.5 54.5q0 33 22.5 55.5t54.5 22.5q33 0 55.5 -22.5t22.5 -55.5q0 -32 -22.5 -54.5t-55.5 -22.5zM234 587q-32 0 -54.5 22.5t-22.5 54.5q0 33 22.5 55.5t54.5 22.5t54.5 -22.5t22.5 -55.5q0 -32 -22.5 -54.5t-54.5 -22.5zM648 500v-10h-17
q-27 0 -51 -24t-56 -87l-229 -474q-44 -87 -83.5 -126t-90.5 -39t-82.5 29.5t-31.5 78.5q0 39 23.5 64.5t57.5 25.5q37 0 59 -21t22 -56q0 -31 -22 -54t-55 -23q-28 0 -48 17.5t-27 46.5q-1 -44 28 -71t76 -27t84.5 38t80.5 121l40 84l-211 423q-22 44 -38 59t-47 15h-13v10
h345v-10h-19q-40 0 -40 -35q0 -17 17 -54l99 -214l94 195q15 29 15 51q0 26 -21.5 41.5t-57.5 15.5h-30v10h229z" />
    <glyph glyph-name="Amacron" unicode="&#x100;" 
d="M595 824h-367v10h367v-10zM757 10v-10h-382v10h28q35 0 49.5 12.5t14.5 39.5q0 25 -21 75l-27 68h-237l-33 -75q-19 -44 -19 -69q0 -51 66 -51h42v-10h-226v10h20q29 0 53 28t53 93l252 569h18l251 -612q18 -47 32.5 -62.5t44.5 -15.5h21zM415 215l-108 274l-121 -274
h229z" />
    <glyph glyph-name="amacron" unicode="&#x101;" horiz-adv-x="646" 
d="M499 618h-367v10h367v-10zM635 95v-21q0 -41 -35 -64.5t-98 -23.5q-51 0 -88.5 22t-49.5 61q-71 -82 -178 -83q-71 0 -111 31.5t-40 87.5q0 58 45.5 93t122.5 35h159v121q0 136 -134 136q-64 0 -109 -37t-45 -95q6 30 27.5 48t54.5 18q35 0 56 -21.5t21 -56.5
q0 -36 -23 -58t-60 -22q-38 0 -62 25t-24 66q0 155 263 156q108 1 164.5 -48.5t56.5 -140.5v-248q0 -50 36 -50q18 0 29.5 13.5t11.5 36.5v20zM362 223h-76q-33 0 -54 -24t-21 -69q0 -46 17 -71.5t49 -25.5q44 0 85 50v140z" />
    <glyph glyph-name="Abreve" unicode="&#x102;" 
d="M570 990h10q-1 -96 -45.5 -146t-122.5 -50q-75 0 -119 50t-44 146h10q11 -51 52 -80t101 -29q63 0 105.5 29t52.5 80zM757 10v-10h-382v10h28q35 0 49.5 12.5t14.5 39.5q0 25 -21 75l-27 68h-237l-33 -75q-19 -44 -19 -69q0 -51 66 -51h42v-10h-226v10h20q29 0 53 28
t53 93l252 569h18l251 -612q18 -47 32.5 -62.5t44.5 -15.5h21zM415 215l-108 274l-121 -274h229z" />
    <glyph glyph-name="abreve" unicode="&#x103;" horiz-adv-x="646" 
d="M474 784h9q-1 -96 -45.5 -146t-122.5 -50q-75 0 -118.5 50t-43.5 146h10q10 -51 51 -80t101 -29q63 0 105.5 28.5t53.5 80.5zM635 95v-21q0 -41 -35 -64.5t-98 -23.5q-51 0 -88.5 22t-49.5 61q-71 -82 -178 -83q-71 0 -111 31.5t-40 87.5q0 58 45.5 93t122.5 35h159v121
q0 136 -134 136q-64 0 -109 -37t-45 -95q6 30 27.5 48t54.5 18q35 0 56 -21.5t21 -56.5q0 -36 -23 -58t-60 -22q-38 0 -62 25t-24 66q0 155 263 156q108 1 164.5 -48.5t56.5 -140.5v-248q0 -50 36 -50q18 0 29.5 13.5t11.5 36.5v20zM362 223h-76q-33 0 -54 -24t-21 -69
q0 -46 17 -71.5t49 -25.5q44 0 85 50v140z" />
    <glyph glyph-name="Aogonek" unicode="&#x104;" 
d="M785 -202l4 -6q-45 -51 -110 -51q-46 0 -74.5 27t-28.5 73q0 54 47.5 95.5t124.5 63.5h-373v10h28q35 0 49.5 12.5t14.5 39.5q0 25 -21 75l-27 68h-237l-33 -75q-19 -44 -19 -69q0 -51 66 -51h42v-10h-226v10h20q29 0 53 28t53 93l252 569h18l251 -612q18 -47 32.5 -62.5
t44.5 -15.5h21v-10q-40 -15 -65.5 -51t-25.5 -76q0 -41 20 -64t56 -23q22 0 43 12zM415 215l-108 274l-121 -274h229z" />
    <glyph glyph-name="aogonek" unicode="&#x105;" horiz-adv-x="646" 
d="M635 95v-21q0 -57 -62 -77q-39 -15 -63.5 -51t-24.5 -75q0 -41 20 -64t57 -23q22 0 43 12l4 -6q-45 -51 -111 -51q-46 0 -74 27t-28 73q0 49 38.5 88t104.5 62q-18 -3 -37 -3q-51 0 -88.5 22t-49.5 61q-71 -82 -178 -83q-71 0 -111 31.5t-40 87.5q0 58 45.5 93t122.5 35
h159v121q0 136 -134 136q-64 0 -109 -37t-45 -95q6 30 27.5 48t54.5 18q35 0 56 -21.5t21 -56.5q0 -36 -23 -58t-60 -22q-38 0 -62 25t-24 66q0 155 263 156q108 1 164.5 -48.5t56.5 -140.5v-248q0 -50 36 -50q18 0 29.5 13.5t11.5 36.5v20zM362 223h-76q-33 0 -54 -24
t-21 -69q0 -46 17 -71.5t49 -25.5q44 0 85 50v140z" />
    <glyph glyph-name="Cacute" unicode="&#x106;" 
d="M422 791l-7 5q38 59 77 162q19 50 60 50q23 0 39 -15t16 -37q0 -35 -42 -63q-9 -6 -32.5 -20.5t-37.5 -23.5t-35 -25t-38 -33zM712 406h-10q-26 149 -88.5 219t-159.5 72q-92 0 -150 -97t-58 -253q0 -165 58 -250.5t170 -85.5q136 0 249 141l9 -7q-64 -79 -140 -119
t-197 -40q-171 0 -264 90.5t-93 257.5q0 169 105 274t273 105q70 0 140.5 -28t93.5 -28q51 0 52 54h10v-305z" />
    <glyph glyph-name="cacute" unicode="&#x107;" horiz-adv-x="601" 
d="M315 581l-7 6q38 59 77 162q19 50 60 50q23 0 39 -15.5t16 -37.5q0 -35 -42 -62q-9 -6 -41.5 -26t-55.5 -37.5t-46 -39.5zM575 86l6 -9q-114 -91 -258 -91q-134 0 -211.5 64.5t-77.5 188.5q0 116 82.5 195t232.5 79q103 0 160 -44t57 -117q0 -43 -24 -69t-63 -26
t-62.5 22.5t-23.5 61.5q0 35 23.5 58.5t60.5 23.5q30 0 51.5 -20t27.5 -51q-1 62 -46.5 102t-113.5 40q-82 0 -129 -68t-47 -183q0 -113 43 -174.5t122 -61.5q92 0 190 79z" />
    <glyph glyph-name="Ccircumflex" unicode="&#x108;" 
d="M596 800l-6 -7l-173 93l-169 -93l-6 7l172 174h10zM712 406h-10q-26 149 -88.5 219t-159.5 72q-92 0 -150 -97t-58 -253q0 -165 58 -250.5t170 -85.5q136 0 249 141l9 -7q-64 -79 -140 -119t-197 -40q-171 0 -264 90.5t-93 257.5q0 169 105 274t273 105q70 0 140.5 -28
t93.5 -28q51 0 52 54h10v-305z" />
    <glyph glyph-name="ccircumflex" unicode="&#x109;" horiz-adv-x="601" 
d="M489 591l-6 -8l-173 94l-169 -94l-6 8l172 173h10zM575 86l6 -9q-114 -91 -258 -91q-134 0 -211.5 64.5t-77.5 188.5q0 116 82.5 195t232.5 79q103 0 160 -44t57 -117q0 -43 -24 -69t-63 -26t-62.5 22.5t-23.5 61.5q0 35 23.5 58.5t60.5 23.5q30 0 51.5 -20t27.5 -51
q-1 62 -46.5 102t-113.5 40q-82 0 -129 -68t-47 -183q0 -113 43 -174.5t122 -61.5q92 0 190 79z" />
    <glyph glyph-name="Cdotaccent" unicode="&#x10a;" 
d="M415 953q32 0 54.5 -22.5t22.5 -54.5q0 -33 -22.5 -55.5t-54.5 -22.5q-33 0 -55.5 22.5t-22.5 55.5q0 32 22.5 54.5t55.5 22.5zM712 406h-10q-26 149 -88.5 219t-159.5 72q-92 0 -150 -97t-58 -253q0 -165 58 -250.5t170 -85.5q136 0 249 141l9 -7q-64 -79 -140 -119
t-197 -40q-171 0 -264 90.5t-93 257.5q0 169 105 274t273 105q70 0 140.5 -28t93.5 -28q51 0 52 54h10v-305z" />
    <glyph glyph-name="cdotaccent" unicode="&#x10b;" horiz-adv-x="601" 
d="M308 744q32 0 54.5 -22.5t22.5 -55.5q0 -32 -22.5 -54.5t-54.5 -22.5q-33 0 -55.5 22.5t-22.5 54.5q0 33 22.5 55.5t55.5 22.5zM575 86l6 -9q-114 -91 -258 -91q-134 0 -211.5 64.5t-77.5 188.5q0 116 82.5 195t232.5 79q103 0 160 -44t57 -117q0 -43 -24 -69t-63 -26
t-62.5 22.5t-23.5 61.5q0 35 23.5 58.5t60.5 23.5q30 0 51.5 -20t27.5 -51q-1 62 -46.5 102t-113.5 40q-82 0 -129 -68t-47 -183q0 -113 43 -174.5t122 -61.5q92 0 190 79z" />
    <glyph glyph-name="Ccaron" unicode="&#x10c;" 
d="M238 966l6 8l173 -93l170 93l5 -8l-171 -173h-11zM712 406h-10q-26 149 -88.5 219t-159.5 72q-92 0 -150 -97t-58 -253q0 -165 58 -250.5t170 -85.5q136 0 249 141l9 -7q-64 -79 -140 -119t-197 -40q-171 0 -264 90.5t-93 257.5q0 169 105 274t273 105q70 0 140.5 -28
t93.5 -28q51 0 52 54h10v-305z" />
    <glyph glyph-name="ccaron" unicode="&#x10d;" horiz-adv-x="601" 
d="M131 757l6 7l173 -93l169 93l6 -7l-172 -174h-10zM575 86l6 -9q-114 -91 -258 -91q-134 0 -211.5 64.5t-77.5 188.5q0 116 82.5 195t232.5 79q103 0 160 -44t57 -117q0 -43 -24 -69t-63 -26t-62.5 22.5t-23.5 61.5q0 35 23.5 58.5t60.5 23.5q30 0 51.5 -20t27.5 -51
q-1 62 -46.5 102t-113.5 40q-82 0 -129 -68t-47 -183q0 -113 43 -174.5t122 -61.5q92 0 190 79z" />
    <glyph glyph-name="Dcaron" unicode="&#x10e;" horiz-adv-x="819" 
d="M223 957l5 7l173 -93l170 93l6 -7l-172 -174h-11zM18 700h428q151 0 243 -94.5t92 -249.5q0 -161 -97 -258.5t-257 -97.5h-409v10h31q37 0 51.5 15t14.5 51v548q0 37 -14.5 51t-51.5 14h-31v11zM402 690h-76q-11 0 -15.5 -4.5t-4.5 -15.5v-640q0 -11 4.5 -15.5t15.5 -4.5
h73q180 0 180 346q0 334 -177 334z" />
    <glyph glyph-name="dcaron" unicode="&#x10f;" horiz-adv-x="851" 
d="M598 750v-674q0 -37 14 -51.5t51 -14.5h27v-10h-270l-5 5v96h-3q-18 -50 -64 -82.5t-104 -32.5q-96 0 -152.5 64.5t-57.5 177.5q0 134 80.5 208t226.5 74q37 0 71 -11v180q0 34 -13.5 47t-47.5 13h-30v10l268 9zM686 505v10q145 2 145 143q-2 -29 -24.5 -48t-55.5 -19
q-36 0 -58 21.5t-22 56.5q0 38 23.5 61t61.5 23q39 0 62 -25.5t23 -69.5q-1 -153 -155 -153zM412 141v348q-37 11 -69 11q-118 0 -115 -256q1 -208 92 -208q34 0 62 33t30 72z" />
    <glyph glyph-name="Dcroat" unicode="&#x110;" horiz-adv-x="828" 
d="M18 700h428q151 0 243 -94.5t92 -249.5q0 -161 -97 -258.5t-257 -97.5h-409v10h31q37 0 51.5 15t14.5 51v265h-79v10h79v273q0 37 -14.5 51t-51.5 14h-31v11zM326 10h73q180 0 180 346q0 334 -177 334h-76q-11 0 -15.5 -4.5t-4.5 -15.5v-319h97v-10h-97v-311
q0 -11 4.5 -15.5t15.5 -4.5z" />
    <glyph glyph-name="dcroat" unicode="&#x111;" horiz-adv-x="700" 
d="M690 10v-10h-270l-5 5v96h-3q-18 -50 -64 -82.5t-104 -32.5q-96 0 -152.5 64.5t-57.5 177.5q0 134 80.5 208t226.5 74q37 0 71 -11v112h-101v10h101v58q0 34 -13.5 47t-47.5 13h-30v10l268 9l9 -8v-129h80v-10h-80v-535q0 -37 14 -51.5t51 -14.5h27zM412 141v348
q-37 11 -69 11q-118 0 -115 -256q1 -208 92 -208q34 0 62 33t30 72z" />
    <glyph glyph-name="Emacron" unicode="&#x112;" horiz-adv-x="725" 
d="M548 818h-367v10h367v-10zM685 270l-37 -265l-5 -5h-625v10h31q37 0 51.5 14t14.5 52v548q0 38 -14.5 52t-51.5 14h-31v10h609l5 -5l31 -255l-10 -2q-37 145 -81 198.5t-116 53.5h-130q-20 0 -20 -20v-312h93q64 0 88 28t24 101h10v-272h-10q0 76 -24 104.5t-88 28.5h-93
v-317q0 -20 20 -21h143q79 -1 127.5 59t78.5 202z" />
    <glyph glyph-name="emacron" unicode="&#x113;" horiz-adv-x="602" 
d="M487 618h-367v10h367v-10zM569 86l7 -8q-115 -92 -257 -92q-132 0 -208.5 68t-76.5 188q0 123 79.5 197t213.5 74q114 0 178 -59t64 -160l-5 -5h-344v-13q0 -143 37 -206.5t125 -63.5q89 0 187 80zM220 299h149q17 0 24 8t7 30q0 76 -23 121t-62 45q-40 0 -66 -55.5
t-29 -148.5z" />
    <glyph glyph-name="Edotaccent" unicode="&#x116;" horiz-adv-x="725" 
d="M365 789q-33 0 -55.5 22.5t-22.5 54.5q0 33 22.5 55.5t55.5 22.5q32 0 54.5 -22.5t22.5 -55.5q0 -32 -22.5 -54.5t-54.5 -22.5zM685 270l-37 -265l-5 -5h-625v10h31q37 0 51.5 14t14.5 52v548q0 38 -14.5 52t-51.5 14h-31v10h609l5 -5l31 -255l-10 -2q-37 145 -81 198.5
t-116 53.5h-130q-20 0 -20 -20v-312h93q64 0 88 28t24 101h10v-272h-10q0 76 -24 104.5t-88 28.5h-93v-317q0 -20 20 -21h143q79 -1 127.5 59t78.5 202z" />
    <glyph glyph-name="edotaccent" unicode="&#x117;" horiz-adv-x="602" 
d="M303 589q-32 0 -54.5 22.5t-22.5 54.5q0 33 22.5 55.5t54.5 22.5q33 0 55.5 -22.5t22.5 -55.5q0 -32 -22.5 -54.5t-55.5 -22.5zM569 86l7 -8q-115 -92 -257 -92q-132 0 -208.5 68t-76.5 188q0 123 79.5 197t213.5 74q114 0 178 -59t64 -160l-5 -5h-344v-13
q0 -143 37 -206.5t125 -63.5q89 0 187 80zM220 299h149q17 0 24 8t7 30q0 76 -23 121t-62 45q-40 0 -66 -55.5t-29 -148.5z" />
    <glyph glyph-name="Eogonek" unicode="&#x118;" horiz-adv-x="725" 
d="M648 5l-5 -5q-40 -15 -65.5 -51t-25.5 -76q0 -41 20 -64t56 -23q22 0 43 12l4 -6q-45 -51 -110 -51q-46 0 -74 27t-28 73q0 54 47 95.5t124 63.5h-616v10h31q37 0 51.5 14t14.5 52v548q0 38 -14.5 52t-51.5 14h-31v10h609l5 -5l31 -255l-10 -2q-37 145 -81 198.5
t-116 53.5h-130q-20 0 -20 -20v-312h93q64 0 88 28t24 101h10v-272h-10q0 76 -24 104.5t-88 28.5h-93v-317q0 -20 20 -21h143q79 -1 127.5 59t78.5 202l10 -1z" />
    <glyph glyph-name="eogonek" unicode="&#x119;" horiz-adv-x="602" 
d="M489 22l-5 -2q-2 -1 -8 -3q-35 -17 -56.5 -51t-21.5 -71q0 -41 20 -64t56 -23q19 0 43 12l4 -5q-44 -52 -110 -52q-46 0 -74.5 27.5t-28.5 72.5q0 81 103 133q-37 -9 -92 -9q-133 0 -209 67.5t-76 187.5q0 123 79.5 197t213.5 74q114 0 178 -59t64 -160l-5 -5h-344v-13
q0 -143 37 -206.5t125 -63.5q89 0 187 80l7 -8q-41 -34 -87 -56zM220 299h149q17 0 24 8t7 30q0 76 -23 121t-62 45q-40 0 -66 -55.5t-29 -148.5z" />
    <glyph glyph-name="Ecaron" unicode="&#x11a;" horiz-adv-x="725" 
d="M360 783l-172 174l6 7l173 -93l170 93l5 -7l-171 -174h-11zM685 270l-37 -265l-5 -5h-625v10h31q37 0 51.5 14t14.5 52v548q0 38 -14.5 52t-51.5 14h-31v10h609l5 -5l31 -255l-10 -2q-37 145 -81 198.5t-116 53.5h-130q-20 0 -20 -20v-312h93q64 0 88 28t24 101h10v-272
h-10q0 76 -24 104.5t-88 28.5h-93v-317q0 -20 20 -21h143q79 -1 127.5 59t78.5 202z" />
    <glyph glyph-name="ecaron" unicode="&#x11b;" horiz-adv-x="602" 
d="M299 583l-172 174l6 7l172 -93l170 93l6 -7l-172 -174h-10zM569 86l7 -8q-115 -92 -257 -92q-132 0 -208.5 68t-76.5 188q0 123 79.5 197t213.5 74q114 0 178 -59t64 -160l-5 -5h-344v-13q0 -143 37 -206.5t125 -63.5q89 0 187 80zM220 299h149q17 0 24 8t7 30
q0 76 -23 121t-62 45q-40 0 -66 -55.5t-29 -148.5z" />
    <glyph glyph-name="Gcircumflex" unicode="&#x11c;" horiz-adv-x="811" 
d="M598 800l-6 -7l-173 93l-169 -93l-6 7l172 174h10zM747 69l-5 -5q-99 -40 -175 -59t-160 -19q-169 0 -269 93.5t-100 254.5q0 168 106 273.5t276 105.5q53 0 98 -14t77.5 -28t54.5 -14q52 0 53 50h10v-297h-10q-54 284 -245 289q-96 0 -154 -99t-58 -266q0 -157 50 -247
t137 -90q62 0 94 27.5t32 78.5v148q0 37 -14.5 51.5t-50.5 14.5h-35v10h332v-10q-24 0 -34 -11t-10 -37v-200z" />
    <glyph glyph-name="gcircumflex" unicode="&#x11d;" horiz-adv-x="596" 
d="M157 583l-5 8l136 173h8l136 -173l-5 -8l-136 94zM231 158v2q-82 9 -127.5 53t-45.5 112q0 84 65 134.5t178 50.5q103 0 167 -53q48 6 82 40.5t33 80.5q-7 -60 -66 -60q-32 0 -51.5 18.5t-19.5 50.5t21 52.5t54 20.5q31 0 51.5 -23.5t20.5 -58.5q0 -47 -33.5 -84
t-83.5 -45q43 -41 43 -101q0 -90 -62.5 -141.5t-170.5 -51.5q-119 0 -119 -56q0 -45 81 -42q22 0 76 4t80 4q82 0 126 -39.5t44 -111.5q0 -81 -74 -127.5t-208 -46.5q-91 0 -140 23.5t-49 67.5q0 40 33.5 63t93.5 23v4h-41q-65 0 -102 29t-37 79q0 57 47 92t134 37zM213 325
q0 -160 73 -160q36 0 57 45.5t21 135.5q0 154 -76 154q-75 0 -75 -175zM388 -93h-158q-56 0 -87 -20t-31 -56q0 -39 47 -60t132 -21q100 0 152 24.5t52 66.5q0 31 -28.5 48.5t-78.5 17.5z" />
    <glyph glyph-name="Gbreve" unicode="&#x11e;" horiz-adv-x="811" 
d="M575 993h10q-1 -96 -46 -146t-123 -50q-75 0 -118.5 50t-43.5 146h10q10 -51 51 -79.5t101 -28.5q63 0 105.5 28.5t53.5 79.5zM747 69l-5 -5q-99 -40 -175 -59t-160 -19q-169 0 -269 93.5t-100 254.5q0 168 106 273.5t276 105.5q53 0 98 -14t77.5 -28t54.5 -14
q52 0 53 50h10v-297h-10q-54 284 -245 289q-96 0 -154 -99t-58 -266q0 -157 50 -247t137 -90q62 0 94 27.5t32 78.5v148q0 37 -14.5 51.5t-50.5 14.5h-35v10h332v-10q-24 0 -34 -11t-10 -37v-200z" />
    <glyph glyph-name="gbreve" unicode="&#x11f;" horiz-adv-x="596" 
d="M447 784h9q-1 -96 -45.5 -146t-122.5 -50q-75 0 -118.5 50t-43.5 146h10q10 -51 51 -80t101 -29q63 0 105.5 28.5t53.5 80.5zM231 158v2q-82 9 -127.5 53t-45.5 112q0 84 65 134.5t178 50.5q103 0 167 -53q48 6 82 40.5t33 80.5q-7 -60 -66 -60q-32 0 -51.5 18.5
t-19.5 50.5t21 52.5t54 20.5q31 0 51.5 -23.5t20.5 -58.5q0 -47 -33.5 -84t-83.5 -45q43 -41 43 -101q0 -90 -62.5 -141.5t-170.5 -51.5q-119 0 -119 -56q0 -45 81 -42q22 0 76 4t80 4q82 0 126 -39.5t44 -111.5q0 -81 -74 -127.5t-208 -46.5q-91 0 -140 23.5t-49 67.5
q0 40 33.5 63t93.5 23v4h-41q-65 0 -102 29t-37 79q0 57 47 92t134 37zM213 325q0 -160 73 -160q36 0 57 45.5t21 135.5q0 154 -76 154q-75 0 -75 -175zM388 -93h-158q-56 0 -87 -20t-31 -56q0 -39 47 -60t132 -21q100 0 152 24.5t52 66.5q0 31 -28.5 48.5t-78.5 17.5z" />
    <glyph glyph-name="Gdotaccent" unicode="&#x120;" horiz-adv-x="811" 
d="M417 953q32 0 54.5 -22.5t22.5 -54.5q0 -33 -22.5 -55.5t-54.5 -22.5q-33 0 -55.5 22.5t-22.5 55.5q0 32 22.5 54.5t55.5 22.5zM747 69l-5 -5q-99 -40 -175 -59t-160 -19q-169 0 -269 93.5t-100 254.5q0 168 106 273.5t276 105.5q53 0 98 -14t77.5 -28t54.5 -14
q52 0 53 50h10v-297h-10q-54 284 -245 289q-96 0 -154 -99t-58 -266q0 -157 50 -247t137 -90q62 0 94 27.5t32 78.5v148q0 37 -14.5 51.5t-50.5 14.5h-35v10h332v-10q-24 0 -34 -11t-10 -37v-200z" />
    <glyph glyph-name="gdotaccent" unicode="&#x121;" horiz-adv-x="596" 
d="M289 589q-33 0 -55.5 22.5t-22.5 54.5q0 33 22.5 55.5t55.5 22.5q32 0 54.5 -22.5t22.5 -55.5q0 -32 -22.5 -54.5t-54.5 -22.5zM231 158v2q-82 9 -127.5 53t-45.5 112q0 84 65 134.5t178 50.5q103 0 167 -53q48 6 82 40.5t33 80.5q-7 -60 -66 -60q-32 0 -51.5 18.5
t-19.5 50.5t21 52.5t54 20.5q31 0 51.5 -23.5t20.5 -58.5q0 -47 -33.5 -84t-83.5 -45q43 -41 43 -101q0 -90 -62.5 -141.5t-170.5 -51.5q-119 0 -119 -56q0 -45 81 -42q22 0 76 4t80 4q82 0 126 -39.5t44 -111.5q0 -81 -74 -127.5t-208 -46.5q-91 0 -140 23.5t-49 67.5
q0 40 33.5 63t93.5 23v4h-41q-65 0 -102 29t-37 79q0 57 47 92t134 37zM213 325q0 -160 73 -160q36 0 57 45.5t21 135.5q0 154 -76 154q-75 0 -75 -175zM388 -93h-158q-56 0 -87 -20t-31 -56q0 -39 47 -60t132 -21q100 0 152 24.5t52 66.5q0 31 -28.5 48.5t-78.5 17.5z" />
    <glyph glyph-name="Gcommaaccent" unicode="&#x122;" horiz-adv-x="811" 
d="M747 69l-5 -5q-99 -40 -175 -59t-160 -19q-169 0 -269 93.5t-100 254.5q0 168 106 273.5t276 105.5q53 0 98 -14t77.5 -28t54.5 -14q52 0 53 50h10v-297h-10q-54 284 -245 289q-96 0 -154 -99t-58 -266q0 -157 50 -247t137 -90q62 0 94 27.5t32 78.5v148q0 37 -14.5 51.5
t-50.5 14.5h-35v10h332v-10q-24 0 -34 -11t-10 -37v-200zM353 -321v10q144 2 144 144q-1 -29 -24 -48t-55 -19q-36 0 -58 21.5t-22 56.5q0 38 23 61t61 23q39 0 62.5 -26t22.5 -69q-1 -154 -154 -154z" />
    <glyph glyph-name="gcommaaccent" unicode="&#x123;" horiz-adv-x="596" 
d="M358 815v-10q-144 -2 -144 -144q2 29 24.5 48t54.5 19q37 0 59 -21.5t22 -56.5q0 -38 -23.5 -61t-61.5 -23q-39 0 -62 26t-23 69q1 154 154 154zM231 158v2q-82 9 -127.5 53t-45.5 112q0 84 65 134.5t178 50.5q103 0 167 -53q48 6 82 40.5t33 80.5q-7 -60 -66 -60
q-32 0 -51.5 18.5t-19.5 50.5t21 52.5t54 20.5q31 0 51.5 -23.5t20.5 -58.5q0 -47 -33.5 -84t-83.5 -45q43 -41 43 -101q0 -90 -62.5 -141.5t-170.5 -51.5q-119 0 -119 -56q0 -45 81 -42q22 0 76 4t80 4q82 0 126 -39.5t44 -111.5q0 -81 -74 -127.5t-208 -46.5
q-91 0 -140 23.5t-49 67.5q0 40 33.5 63t93.5 23v4h-41q-65 0 -102 29t-37 79q0 57 47 92t134 37zM213 325q0 -160 73 -160q36 0 57 45.5t21 135.5q0 154 -76 154q-75 0 -75 -175zM388 -93h-158q-56 0 -87 -20t-31 -56q0 -39 47 -60t132 -21q100 0 152 24.5t52 66.5
q0 31 -28.5 48.5t-78.5 17.5z" />
    <glyph glyph-name="Hcircumflex" unicode="&#x124;" horiz-adv-x="894" 
d="M278 783l-5 8l171 173h11l172 -173l-6 -8l-173 94zM876 690h-32q-37 0 -51 -14.5t-14 -51.5v-548q0 -37 14 -51.5t51 -14.5h32v-10h-380v10h26q37 0 51 14.5t14 51.5v263h-281v-263q0 -37 14.5 -51.5t51.5 -14.5h26v-10h-380v10h31q37 0 51.5 14t14.5 52v548
q0 38 -14.5 52t-51.5 14h-31v10h380v-10h-26q-37 0 -51.5 -14.5t-14.5 -51.5v-275h281v275q0 37 -14 51.5t-51 14.5h-26v10h380v-10z" />
    <glyph glyph-name="hcircumflex" unicode="&#x125;" horiz-adv-x="735" 
d="M376 841l-5 -8l-173 94l-170 -94l-6 8l172 173h11zM288 750v-348h3q18 50 66.5 80.5t113.5 30.5q81 0 125 -43.5t44 -121.5v-272q0 -37 14 -51.5t49 -14.5h25v-10h-346v10h17q33 0 45 14t12 52v306q0 81 -68 81q-38 0 -67.5 -31t-29.5 -70v-286q0 -38 12 -52t45 -14h16
v-10h-352v10h29q37 0 51 14.5t14 51.5v604q0 34 -13.5 47t-47.5 13h-33v10l271 5z" />
    <glyph glyph-name="Hbar" unicode="&#x126;" horiz-adv-x="900" 
d="M876 690h-32q-37 0 -51 -14.5t-14 -51.5v-85h89v-10h-89v-453q0 -37 14 -51.5t51 -14.5h32v-10h-380v10h26q37 0 51 14.5t14 51.5v263h-281v-263q0 -37 14.5 -51.5t51.5 -14.5h26v-10h-380v10h31q37 0 51.5 14t14.5 52v453h-82v10h82v85q0 38 -14.5 52t-51.5 14h-31v10
h380v-10h-26q-37 0 -51.5 -14.5t-14.5 -51.5v-85h281v85q0 37 -14 51.5t-51 14.5h-26v10h380v-10zM587 529h-281v-180h281v180z" />
    <glyph glyph-name="hbar" unicode="&#x127;" horiz-adv-x="754" 
d="M736 10v-10h-346v10h17q33 0 45 14t12 52v306q0 81 -68 81q-38 0 -67.5 -31t-29.5 -70v-286q0 -38 12 -52t45 -14h17v-10h-353v10h29q37 0 51.5 14.5t14.5 51.5v523h-92v10h92v71q0 34 -13.5 47t-48.5 13h-33v10l271 5l5 -5v-141h129v-10h-129v-197h3q18 50 66.5 80.5
t114.5 30.5q81 0 124.5 -43.5t43.5 -121.5v-272q0 -37 14 -51.5t50 -14.5h24z" />
    <glyph glyph-name="Itilde" unicode="&#x128;" horiz-adv-x="415" 
d="M344 963l8 6q44 -47 44 -98q0 -37 -22 -57.5t-61 -20.5q-35 0 -107 32.5t-109 32.5q-23 0 -36 -13.5t-13 -37.5q0 -22 10 -42l-8 -5q-29 39 -29 83q0 45 26.5 72.5t69.5 27.5q35 0 105 -30.5t99 -30.5q18 0 28.5 9.5t10.5 23.5q0 24 -16 48zM398 690h-26
q-37 0 -51.5 -14.5t-14.5 -51.5v-548q0 -37 14.5 -51.5t51.5 -14.5h26v-10h-380v10h31q37 0 51.5 14t14.5 52v548q0 38 -14.5 52t-51.5 14h-31v10h380v-10z" />
    <glyph glyph-name="itilde" unicode="&#x129;" horiz-adv-x="397" 
d="M321 763l8 6q44 -47 44 -98q0 -37 -22 -57.5t-61 -20.5q-35 0 -107 32.5t-109 32.5q-23 0 -36 -13.5t-13 -37.5q0 -22 10 -42l-8 -5q-29 41 -29 83q0 45 26.5 72.5t69.5 27.5q35 0 105 -30.5t99 -30.5q18 0 28.5 9.5t10.5 23.5q0 24 -16 48zM289 500v-424
q0 -37 14.5 -51.5t51.5 -14.5h27v-10h-370v10h27q37 0 51.5 14.5t14.5 51.5v353q0 34 -13.5 47t-48.5 13h-30v10l268 9z" />
    <glyph glyph-name="Imacron" unicode="&#x12a;" horiz-adv-x="415" 
d="M390 818h-367v10h367v-10zM398 690h-26q-37 0 -51.5 -14.5t-14.5 -51.5v-548q0 -37 14.5 -51.5t51.5 -14.5h26v-10h-380v10h31q37 0 51.5 14t14.5 52v548q0 38 -14.5 52t-51.5 14h-31v10h380v-10z" />
    <glyph glyph-name="imacron" unicode="&#x12b;" horiz-adv-x="397" 
d="M367 618h-367v10h367v-10zM289 500v-424q0 -37 14.5 -51.5t51.5 -14.5h27v-10h-370v10h27q37 0 51.5 14.5t14.5 51.5v353q0 34 -13.5 47t-48.5 13h-30v10l268 9z" />
    <glyph glyph-name="Iogonek" unicode="&#x12e;" horiz-adv-x="415" 
d="M426 -202l4 -6q-45 -51 -110 -51q-46 0 -74.5 27t-28.5 73q0 54 47.5 95.5t124.5 63.5h-371v10h31q37 0 51.5 14t14.5 52v548q0 38 -14.5 52t-51.5 14h-31v10h380v-10h-26q-37 0 -51.5 -14.5t-14.5 -51.5v-548q0 -37 14.5 -51.5t51.5 -14.5h26v-10q-40 -15 -65.5 -51
t-25.5 -76q0 -41 20 -64t56 -23q22 0 43 12z" />
    <glyph glyph-name="iogonek" unicode="&#x12f;" horiz-adv-x="397" 
d="M184 589q-33 0 -55.5 22.5t-22.5 54.5q0 33 22.5 55.5t55.5 22.5q32 0 54.5 -22.5t22.5 -55.5q0 -32 -22.5 -54.5t-54.5 -22.5zM389 -202l4 -6q-45 -51 -110 -51q-46 0 -74.5 27t-28.5 73q0 54 47.5 95.5t124.5 63.5h-340v10h27q37 0 51.5 14.5t14.5 51.5v353
q0 34 -13.5 47t-48.5 13h-30v10l268 9l8 -8v-424q0 -37 14.5 -51.5t51.5 -14.5h27v-10h-21q-40 -15 -65.5 -51t-25.5 -76q0 -41 20 -64t56 -23q22 0 43 12z" />
    <glyph glyph-name="Idotaccent" unicode="&#x130;" horiz-adv-x="415" 
d="M206 944q33 0 55.5 -22.5t22.5 -55.5q0 -32 -22.5 -54.5t-55.5 -22.5q-32 0 -54.5 22.5t-22.5 54.5q0 33 22.5 55.5t54.5 22.5zM398 690h-26q-37 0 -51.5 -14.5t-14.5 -51.5v-548q0 -37 14.5 -51.5t51.5 -14.5h26v-10h-380v10h31q37 0 51.5 14t14.5 52v548q0 38 -14.5 52
t-51.5 14h-31v10h380v-10z" />
    <glyph glyph-name="dotlessi" unicode="&#x131;" horiz-adv-x="397" 
d="M289 500v-424q0 -37 14.5 -51.5t51.5 -14.5h27v-10h-370v10h27q37 0 51.5 14.5t14.5 51.5v353q0 34 -13.5 47t-48.5 13h-30v10l268 9z" />
    <glyph glyph-name="IJ" unicode="&#x132;" horiz-adv-x="942" 
d="M398 690h-26q-37 0 -51.5 -14.5t-14.5 -51.5v-548q0 -37 14.5 -51.5t51.5 -14.5h26v-10h-380v10h31q37 0 51.5 14t14.5 52v548q0 38 -14.5 52t-51.5 14h-31v10h380v-10zM920 690h-37q-37 0 -51.5 -14t-14.5 -52v-398q0 -106 -68.5 -171t-175.5 -65q-71 0 -110 36t-39 90
q0 41 26.5 68.5t65.5 27.5q38 0 64 -23.5t26 -61.5q0 -39 -23.5 -62.5t-59.5 -23.5q-73 0 -89 75q0 -53 37.5 -84.5t95.5 -31.5q66 0 103 40.5t37 110.5q0 41 -23 72.5t-58 45.5v355q0 37 -14.5 51.5t-51.5 14.5h-40v10h400v-10z" />
    <glyph glyph-name="ij" unicode="&#x133;" horiz-adv-x="745" 
d="M193 816q46 0 76.5 -30t30.5 -75q0 -44 -30.5 -74t-76.5 -30t-76 30t-30 74q0 45 30 75t76 30zM571 816q46 0 76.5 -30t30.5 -75q0 -44 -30.5 -74t-76.5 -30t-76 30t-30 74q0 45 30 75t76 30zM289 500v-424q0 -37 14.5 -51.5t51.5 -14.5h27v-10h-370v10h27
q37 0 51.5 14.5t14.5 51.5v353q0 34 -14 47.5t-48 13.5h-30v10l268 8zM667 500v-561q0 -89 -50 -146t-127 -57q-55 0 -88.5 30t-33.5 79q0 36 22 58t55 22q31 0 51 -18.5t20 -48.5q0 -31 -18.5 -50t-49.5 -19q-25 0 -44.5 15.5t-25.5 40.5q0 -44 31 -71.5t81 -27.5
q51 0 82.5 34t31.5 89q0 47 -33.5 78.5t-87.5 34.5v448q0 34 -13.5 47t-48.5 13h-30v10l268 8z" />
    <glyph glyph-name="Jcircumflex" unicode="&#x134;" horiz-adv-x="527" 
d="M490 791l-5 -8l-173 94l-170 -94l-6 8l172 173h11zM505 690h-37q-38 0 -52 -14t-14 -52v-398q0 -106 -68.5 -171t-175.5 -65q-71 0 -110 36t-39 90q0 41 26.5 68.5t65.5 27.5q38 0 64 -23.5t26 -61.5q0 -39 -23.5 -62.5t-59.5 -23.5q-73 0 -89 75q0 -53 37.5 -84.5
t95.5 -31.5q66 0 103 40.5t37 110.5q0 41 -23 72.5t-58 45.5v355q0 37 -14.5 51.5t-51.5 14.5h-40v10h400v-10z" />
    <glyph glyph-name="jcircumflex" unicode="&#x135;" horiz-adv-x="338" 
d="M353 591l-6 -8l-173 94l-170 -94l-6 8l172 173h11zM86 -19v448q0 34 -13.5 47t-48.5 13h-30v10l268 9l8 -8v-561q0 -89 -50 -146t-127 -57q-55 0 -88.5 30t-33.5 79q0 36 22 58t55 22q31 0 51 -18.5t20 -48.5q0 -31 -18.5 -50t-49.5 -19q-25 0 -43.5 15.5t-23.5 40.5
q0 -44 30 -70t79 -26q50 0 82 33t32 87q0 47 -33.5 78t-87.5 34z" />
    <glyph glyph-name="Kcommaaccent" unicode="&#x136;" horiz-adv-x="863" 
d="M557 369l196 -305q20 -30 40 -42t53 -12v-10h-369v10h26q37 0 37 30q0 15 -24 54l-162 245l-48 -47v-216q0 -37 14.5 -51.5t51.5 -14.5h23v-10h-377v10h31q37 0 51.5 14t14.5 52v548q0 38 -14.5 52t-51.5 14h-31v10h380v-10h-26q-35 0 -50.5 -15.5t-15.5 -50.5v-315
l252 251q42 42 42 77q0 24 -20 38.5t-55 14.5h-38v10h288v-10q-43 0 -84 -27t-114 -101l-170 -170l7 -8h113q21 0 30 -15zM364 -315v10q144 2 144 144q-2 -29 -24.5 -48t-54.5 -19q-36 0 -58 21.5t-22 56.5q0 38 23 61t62 23t62 -26t22 -69q0 -154 -154 -154z" />
    <glyph glyph-name="kcommaaccent" unicode="&#x137;" horiz-adv-x="728" 
d="M487 365l141 -301q14 -30 35 -42t58 -12v-10h-255l-9 5l-110 254l-57 -43v-147q0 -33 11 -46t38 -13h25v-10h-352v10h27q37 0 51.5 14.5t14.5 51.5v604q0 34 -13.5 47t-48.5 13h-30v10l269 8l8 -8v-521l183 137q23 17 32.5 25t19.5 21.5t10 25.5q0 52 -99 52h-39v10h305
v-10q-32 0 -72.5 -24.5t-118.5 -82.5zM321 -370v10q144 2 144 144q-2 -29 -24 -48t-55 -19q-36 0 -58 21t-22 56q0 38 23.5 61.5t61.5 23.5q39 0 62 -26t22 -69q0 -154 -154 -154z" />
    <glyph glyph-name="kgreenlandic" unicode="&#x138;" horiz-adv-x="746" 
d="M489 361l157 -297q16 -31 37 -42.5t56 -11.5v-10h-346v10h25q36 0 36 30q0 20 -20 56l-87 162l-57 -42v-147q0 -33 11 -46t38 -13h25v-10h-352v10h27q37 0 51.5 14.5t14.5 51.5v353q0 34 -13.5 47t-48.5 13h-30v10l269 9l8 -8v-273l189 140q62 44 62 70q0 25 -24 39
t-69 14h-32v10h300v-10q-25 0 -57.5 -16t-61.5 -35.5t-104 -74.5z" />
    <glyph glyph-name="Lacute" unicode="&#x139;" horiz-adv-x="705" 
d="M221 781l-8 6q33 51 78 162q19 50 59 50q23 0 39.5 -15.5t16.5 -37.5q0 -34 -43 -62q-10 -7 -41 -26.5t-55 -37t-46 -39.5zM400 690h-26q-37 0 -51.5 -14.5t-14.5 -51.5v-594q0 -11 4.5 -15.5t15.5 -4.5h123q78 0 128 55.5t86 199.5l9 -2l-37 -258l-5 -5h-614v10h33
q37 0 51.5 14t14.5 52v548q0 38 -14.5 52t-51.5 14h-32v10h381v-10z" />
    <glyph glyph-name="lacute" unicode="&#x13a;" horiz-adv-x="392" 
d="M203 831l-8 6q33 51 78 162q19 50 59 50q23 0 39.5 -15.5t16.5 -37.5q0 -34 -43 -62q-10 -7 -41 -26.5t-55 -37t-46 -39.5zM289 750v-674q0 -37 14.5 -51.5t51.5 -14.5h27v-10h-370v10h27q37 0 51.5 14.5t14.5 51.5v603q0 34 -14 47.5t-48 13.5h-30v10l268 8z" />
    <glyph glyph-name="Lcommaaccent" unicode="&#x13b;" horiz-adv-x="705" 
d="M400 690h-26q-37 0 -51.5 -14.5t-14.5 -51.5v-594q0 -11 4.5 -15.5t15.5 -4.5h123q78 0 128 55.5t86 199.5l9 -2l-37 -258l-5 -5h-614v10h33q37 0 51.5 14t14.5 52v548q0 38 -14.5 52t-51.5 14h-32v10h381v-10zM292 -315v10q144 2 144 144q-2 -29 -24.5 -48t-54.5 -19
q-36 0 -58 21.5t-22 56.5q0 38 23 61t62 23t62 -26t22 -69q0 -154 -154 -154z" />
    <glyph glyph-name="lcommaaccent" unicode="&#x13c;" horiz-adv-x="392" 
d="M289 750v-674q0 -37 14.5 -51.5t51.5 -14.5h27v-10h-370v10h27q37 0 51.5 14.5t14.5 51.5v603q0 34 -14 47.5t-48 13.5h-30v10l268 8zM128 -315v10q144 2 144 144q-2 -29 -24.5 -48t-54.5 -19q-36 0 -58 21.5t-22 56.5q0 38 23 61t62 23t62 -26t22 -69q0 -154 -154 -154z
" />
    <glyph glyph-name="Lcaron" unicode="&#x13d;" horiz-adv-x="705" 
d="M400 690h-26q-37 0 -51.5 -14.5t-14.5 -51.5v-594q0 -11 4.5 -15.5t15.5 -4.5h123q78 0 128 55.5t86 199.5l9 -2l-37 -258l-5 -5h-614v10h33q37 0 51.5 14t14.5 52v548q0 38 -14.5 52t-51.5 14h-32v10h381v-10z" />
    <glyph glyph-name="lcaron" unicode="&#x13e;" horiz-adv-x="392" 
d="M289 750v-674q0 -37 14.5 -51.5t51.5 -14.5h27v-10h-370v10h27q37 0 51.5 14.5t14.5 51.5v603q0 34 -14 47.5t-48 13.5h-30v10l268 8z" />
    <glyph glyph-name="Ldot" unicode="&#x13f;" horiz-adv-x="705" 
d="M400 690h-26q-37 0 -51.5 -14.5t-14.5 -51.5v-594q0 -11 4.5 -15.5t15.5 -4.5h123q78 0 128 55.5t86 199.5l9 -2l-37 -258l-5 -5h-614v10h33q37 0 51.5 14t14.5 52v548q0 38 -14.5 52t-51.5 14h-32v10h381v-10zM592 541q37 0 62.5 -25.5t25.5 -62.5t-25.5 -63t-62.5 -26
t-63 26t-26 63t26 62.5t63 25.5z" />
    <glyph glyph-name="ldot" unicode="&#x140;" horiz-adv-x="612" 
d="M289 750v-674q0 -37 14.5 -51.5t51.5 -14.5h27v-10h-370v10h27q37 0 51.5 14.5t14.5 51.5v603q0 34 -14 47.5t-48 13.5h-30v10l268 8zM502 440q37 0 63 -25.5t26 -62.5q0 -38 -25.5 -63.5t-63.5 -25.5q-37 0 -62.5 26t-25.5 63t25.5 62.5t62.5 25.5z" />
    <glyph glyph-name="Lslash" unicode="&#x141;" horiz-adv-x="712" 
d="M674 263l-37 -258l-5 -5h-614v10h33q37 0 51.5 14t14.5 52v231l-77 -33v12l77 33v305q0 38 -14.5 52t-51.5 14h-32v10h381v-10h-26q-37 0 -51.5 -14.5t-14.5 -51.5v-225l123 52v-12l-123 -52v-357q0 -11 4.5 -15.5t15.5 -4.5h123q78 0 128 55.5t86 199.5z" />
    <glyph glyph-name="lslash" unicode="&#x142;" horiz-adv-x="400" 
d="M387 10v-10h-370v10h27q37 0 51.5 14.5t14.5 51.5v230l-93 -79v16l93 78v358q0 34 -14 47.5t-48 13.5h-30v10l268 8l8 -8v-272l85 72v-15l-85 -73v-386q0 -38 14 -52t52 -14h27z" />
    <glyph glyph-name="Nacute" unicode="&#x143;" horiz-adv-x="764" 
d="M402 781l-7 6q38 59 77 162q19 50 60 50q23 0 39 -15.5t16 -37.5q0 -35 -42 -62q-9 -6 -41.5 -26t-55.5 -37.5t-46 -39.5zM753 690h-16q-44 0 -61 -34t-17 -120v-536h-128l-403 522v-362q0 -89 33.5 -119.5t116.5 -30.5h39v-10h-306v10h22q53 0 69 28.5t16 121.5v464
q0 38 -14 52t-52 14h-30v10h223l404 -527v363q0 86 -30 120t-108 34h-31v10h273v-10z" />
    <glyph glyph-name="nacute" unicode="&#x144;" horiz-adv-x="734" 
d="M373 581l-7 6q38 59 77 162q19 50 60 50q23 0 39 -15.5t16 -37.5q0 -35 -42 -62q-9 -6 -41.5 -26t-55.5 -37.5t-46 -39.5zM288 402h2q19 49 67.5 80t113.5 31q81 0 125 -43.5t44 -121.5v-272q0 -37 14 -51.5t49 -14.5h24v-10h-345v10h17q32 0 44 14t12 52v306
q0 81 -68 81q-38 0 -67.5 -31t-29.5 -70v-286q0 -37 12.5 -51.5t44.5 -14.5h17v-10h-352v10h28q38 0 52 14t14 52v354q0 34 -13.5 47t-48.5 13h-32v10l276 6l5 -5z" />
    <glyph glyph-name="Ncommaaccent" unicode="&#x145;" horiz-adv-x="764" 
d="M753 690h-16q-44 0 -61 -34t-17 -120v-536h-128l-403 522v-362q0 -89 33.5 -119.5t116.5 -30.5h39v-10h-306v10h22q53 0 69 28.5t16 121.5v464q0 38 -14 52t-52 14h-30v10h223l404 -527v363q0 86 -30 120t-108 34h-31v10h273v-10zM323 -315v10q144 2 144 144
q-2 -29 -24.5 -48t-54.5 -19q-37 0 -59 21.5t-22 56.5q0 38 23.5 61t61.5 23q39 0 62 -26t23 -69q-1 -154 -154 -154z" />
    <glyph glyph-name="ncommaaccent" unicode="&#x146;" horiz-adv-x="734" 
d="M288 402h2q19 49 67.5 80t113.5 31q81 0 125 -43.5t44 -121.5v-272q0 -37 14 -51.5t49 -14.5h24v-10h-345v10h17q32 0 44 14t12 52v306q0 81 -68 81q-38 0 -67.5 -31t-29.5 -70v-286q0 -37 12.5 -51.5t44.5 -14.5h17v-10h-352v10h28q38 0 52 14t14 52v354q0 34 -13.5 47
t-48.5 13h-32v10l276 6l5 -5zM299 -315v10q144 2 144 144q-2 -29 -24.5 -48t-54.5 -19q-37 0 -58.5 21.5t-21.5 56.5q0 38 23 61t61 23q39 0 62.5 -26t22.5 -69q-1 -154 -154 -154z" />
    <glyph glyph-name="Ncaron" unicode="&#x147;" horiz-adv-x="764" 
d="M218 957l6 7l173 -93l169 93l6 -7l-172 -174h-10zM753 690h-16q-44 0 -61 -34t-17 -120v-536h-128l-403 522v-362q0 -89 33.5 -119.5t116.5 -30.5h39v-10h-306v10h22q53 0 69 28.5t16 121.5v464q0 38 -14 52t-52 14h-30v10h223l404 -527v363q0 86 -30 120t-108 34h-31v10
h273v-10z" />
    <glyph glyph-name="ncaron" unicode="&#x148;" horiz-adv-x="734" 
d="M189 757l6 7l173 -93l169 93l6 -7l-172 -174h-10zM288 402h2q19 49 67.5 80t113.5 31q81 0 125 -43.5t44 -121.5v-272q0 -37 14 -51.5t49 -14.5h24v-10h-345v10h17q32 0 44 14t12 52v306q0 81 -68 81q-38 0 -67.5 -31t-29.5 -70v-286q0 -37 12.5 -51.5t44.5 -14.5h17v-10
h-352v10h28q38 0 52 14t14 52v354q0 34 -13.5 47t-48.5 13h-32v10l276 6l5 -5z" />
    <glyph glyph-name="Eng" unicode="&#x14a;" horiz-adv-x="764" 
d="M753 700v-10h-16q-44 0 -61 -34t-17 -120v-536q0 -85 -37 -132.5t-108 -47.5q-58 0 -89.5 34.5t-31.5 96.5h10q0 -32 18 -50.5t49 -18.5q32 0 51.5 18.5t19.5 48.5q0 28 -11 51l-402 522v-362q0 -89 33.5 -119.5t116.5 -30.5h39v-10h-306v10h22q53 0 69 28.5t16 121.5
v464q0 38 -14 52t-52 14h-30v10h224l403 -527v363q0 86 -30 120t-108 34h-31v10h273z" />
    <glyph glyph-name="eng" unicode="&#x14b;" horiz-adv-x="708" 
d="M287 402h2q18 50 66.5 80.5t114.5 30.5q81 0 124.5 -43.5t43.5 -121.5v-371q0 -75 -40 -116t-114 -41q-66 0 -104 28t-38 79h10q0 -59 52 -59q50 0 50 76v438q0 81 -68 81q-38 0 -67.5 -31t-29.5 -70v-286q0 -38 12 -52t45 -14h17v-10h-352v10h28q37 0 51.5 14.5
t14.5 51.5v354q0 34 -13.5 47t-48.5 13h-32v10l276 6l5 -5z" />
    <glyph glyph-name="Omacron" unicode="&#x14c;" horiz-adv-x="820" 
d="M592 818h-367v10h367v-10zM425 713q160 0 259 -93.5t99 -248.5q0 -183 -106.5 -284t-283.5 -101q-98 0 -176.5 37.5t-128.5 118.5t-50 194q0 168 106 272.5t281 104.5zM412 703q-76 0 -121 -95.5t-45 -271.5q0 -157 43.5 -248.5t117.5 -91.5q78 0 123 99t45 285
q0 158 -42 240.5t-121 82.5z" />
    <glyph glyph-name="omacron" unicode="&#x14d;" horiz-adv-x="661" 
d="M513 618h-367v10h367v-10zM342 513q73 0 135 -23.5t106 -80t44 -138.5q1 -127 -83 -206t-225 -79q-133 0 -209 67.5t-76 186.5q0 115 79.5 194t228.5 79zM330 503q-49 0 -76 -66.5t-27 -196.5q0 -244 101 -244q54 1 80.5 66.5t25.5 210.5q-1 230 -104 230z" />
    <glyph glyph-name="Ohungarumlaut" unicode="&#x150;" horiz-adv-x="820" 
d="M318 782l-7 6q38 59 77 162q19 50 60 50q23 0 39 -15t16 -37q0 -35 -42 -63q-9 -6 -41.5 -26t-56 -37.5t-45.5 -39.5zM505 773l-7 5q38 59 77 162q19 50 60 50q23 0 39 -15t16 -37q0 -35 -42 -62q-8 -5 -41 -26t-56 -38t-46 -39zM425 713q160 0 259 -93.5t99 -248.5
q0 -183 -106.5 -284t-283.5 -101q-98 0 -176.5 37.5t-128.5 118.5t-50 194q0 168 106 272.5t281 104.5zM412 703q-76 0 -121 -95.5t-45 -271.5q0 -157 43.5 -248.5t117.5 -91.5q78 0 123 99t45 285q0 158 -42 240.5t-121 82.5z" />
    <glyph glyph-name="ohungarumlaut" unicode="&#x151;" horiz-adv-x="661" 
d="M239 582l-8 6q33 51 78 162q19 50 59 50q23 0 39.5 -15t16.5 -37q0 -34 -43 -63q-10 -7 -41 -26.5t-55 -37t-46 -39.5zM426 573l-7 5q38 59 77 162q19 50 60 50q23 0 39 -15t16 -37q0 -34 -43 -62q-10 -7 -41 -26.5t-55 -37t-46 -39.5zM342 513q73 0 135 -23.5t106 -80
t44 -138.5q1 -127 -83 -206t-225 -79q-133 0 -209 67.5t-76 186.5q0 115 79.5 194t228.5 79zM330 503q-49 0 -76 -66.5t-27 -196.5q0 -244 101 -244q54 1 80.5 66.5t25.5 210.5q-1 230 -104 230z" />
    <glyph glyph-name="OE" unicode="&#x152;" horiz-adv-x="1159" 
d="M1119 270l-36 -265l-5 -5h-462q-56 0 -126.5 -7t-95.5 -7q-72 0 -135.5 21.5t-113 63t-78.5 109t-29 152.5q0 174 105.5 277.5t270.5 103.5q20 0 88 -6.5t132 -6.5h425l5 -5l32 -255l-10 -2q-38 145 -82 198.5t-115 53.5h-134q-20 0 -20 -20v-313h99q63 0 87 28t24 101
h10v-272h-10q0 75 -24 104t-87 29h-99v-317q0 -20 20 -20h149q78 -1 126.5 59t78.5 202zM550 219v292q0 102 -34 147t-105 45q-81 0 -123 -88t-42 -283q0 -174 38.5 -255t120.5 -81q75 0 110 52t35 171z" />
    <glyph glyph-name="oe" unicode="&#x153;" horiz-adv-x="996" 
d="M964 86l6 -8q-112 -91 -250 -91q-63 0 -117 26.5t-85 72.5q-33 -45 -86.5 -72t-113.5 -27q-123 0 -203.5 64.5t-80.5 189.5q0 115 78.5 193.5t228.5 78.5q54 0 105 -22.5t85 -62.5q36 39 87.5 62t103.5 23q115 0 178.5 -58t63.5 -159l-5 -5h-344v-15q0 -268 161 -268
q91 0 188 78zM327 -3q53 0 79 65.5t25 210.5q-1 128 -27 179t-75 51q-53 0 -77.5 -60t-24.5 -202q0 -73 7 -122.5t21.5 -75.5t31.5 -36t40 -10zM615 301h148q32 0 32 40q0 76 -23 119t-62 43q-89 0 -95 -202z" />
    <glyph glyph-name="Racute" unicode="&#x154;" horiz-adv-x="819" 
d="M396 781l-8 6q33 51 78 162q19 50 59 50q23 0 39.5 -15.5t16.5 -37.5q0 -34 -43 -62q-10 -7 -41 -26.5t-55 -37t-46 -39.5zM804 103h10q0 -53 -36 -83t-103 -30q-76 0 -117 44t-41 129q0 117 -25 158t-88 41h-96v-286q0 -37 14.5 -51.5t51.5 -14.5h33v-10h-389v10h31
q38 0 53 14.5t15 51.5v548q0 38 -14.5 52t-51.5 14h-33v10h479q100 0 156 -42.5t56 -113.5q0 -76 -58 -122t-151 -46v-3q107 0 160 -49.5t53 -154.5q0 -74 10.5 -105t34.5 -31q21 0 33.5 20t12.5 50zM308 374h96q58 0 89 43.5t31 120.5q0 72 -30 112t-83 40h-83
q-20 0 -20 -21v-295z" />
    <glyph glyph-name="racute" unicode="&#x155;" horiz-adv-x="579" 
d="M302 581l-7 6q38 59 77 162q19 50 60 50q23 0 39 -15.5t16 -37.5q0 -35 -42 -62q-9 -6 -41.5 -26t-55.5 -37.5t-46 -39.5zM288 395h2q17 49 63.5 82t101.5 33q48 0 78.5 -26.5t30.5 -70.5q0 -40 -28 -67t-70 -27t-67.5 24t-25.5 64q0 37 22 62.5t60 30.5
q-64 0 -114.5 -48.5t-50.5 -109.5v-266q0 -37 16.5 -51.5t60.5 -14.5h17v-10h-372v10h28q38 0 52 14t14 52v354q0 34 -13.5 47t-48.5 13h-32v10l276 6l5 -5z" />
    <glyph glyph-name="Rcommaaccent" unicode="&#x156;" horiz-adv-x="819" 
d="M804 103h10q0 -53 -36 -83t-103 -30q-76 0 -117 44t-41 129q0 117 -25 158t-88 41h-96v-286q0 -37 14.5 -51.5t51.5 -14.5h33v-10h-389v10h31q38 0 53 14.5t15 51.5v548q0 38 -14.5 52t-51.5 14h-33v10h479q100 0 156 -42.5t56 -113.5q0 -76 -58 -122t-151 -46v-3
q107 0 160 -49.5t53 -154.5q0 -74 10.5 -105t34.5 -31q21 0 33.5 20t12.5 50zM308 374h96q58 0 89 43.5t31 120.5q0 72 -30 112t-83 40h-83q-20 0 -20 -21v-295zM352 -315v10q145 2 145 144q-2 -29 -24.5 -48t-55.5 -19q-36 0 -58 21.5t-22 56.5q0 38 23.5 61t61.5 23
q39 0 62 -26t23 -69q-1 -154 -155 -154z" />
    <glyph glyph-name="rcommaaccent" unicode="&#x157;" horiz-adv-x="579" 
d="M288 395h2q17 49 63.5 82t101.5 33q48 0 78.5 -26.5t30.5 -70.5q0 -40 -28 -67t-70 -27t-67.5 24t-25.5 64q0 37 22 62.5t60 30.5q-64 0 -114.5 -48.5t-50.5 -109.5v-266q0 -37 16.5 -51.5t60.5 -14.5h17v-10h-372v10h28q38 0 52 14t14 52v354q0 34 -13.5 47t-48.5 13
h-32v10l276 6l5 -5zM135 -315v10q145 2 145 144q-2 -29 -24.5 -48t-55.5 -19q-36 0 -58 21.5t-22 56.5q0 38 23.5 61t61.5 23q39 0 62 -26t23 -69q-1 -154 -155 -154z" />
    <glyph glyph-name="Rcaron" unicode="&#x158;" horiz-adv-x="819" 
d="M383 783l-171 174l5 7l173 -93l170 93l6 -7l-172 -174h-11zM804 103h10q0 -53 -36 -83t-103 -30q-76 0 -117 44t-41 129q0 117 -25 158t-88 41h-96v-286q0 -37 14.5 -51.5t51.5 -14.5h33v-10h-389v10h31q38 0 53 14.5t15 51.5v548q0 38 -14.5 52t-51.5 14h-33v10h479
q100 0 156 -42.5t56 -113.5q0 -76 -58 -122t-151 -46v-3q107 0 160 -49.5t53 -154.5q0 -74 10.5 -105t34.5 -31q21 0 33.5 20t12.5 50zM308 374h96q58 0 89 43.5t31 120.5q0 72 -30 112t-83 40h-83q-20 0 -20 -21v-295z" />
    <glyph glyph-name="rcaron" unicode="&#x159;" horiz-adv-x="579" 
d="M118 757l6 7l173 -93l169 93l6 -7l-172 -174h-10zM288 395h2q17 49 63.5 82t101.5 33q48 0 78.5 -26.5t30.5 -70.5q0 -40 -28 -67t-70 -27t-67.5 24t-25.5 64q0 37 22 62.5t60 30.5q-64 0 -114.5 -48.5t-50.5 -109.5v-266q0 -37 16.5 -51.5t60.5 -14.5h17v-10h-372v10h28
q38 0 52 14t14 52v354q0 34 -13.5 47t-48.5 13h-32v10l276 6l5 -5z" />
    <glyph glyph-name="Sacute" unicode="&#x15a;" horiz-adv-x="668" 
d="M336 781l-7 6q38 59 77 162q19 50 60 50q23 0 39 -15.5t16 -37.5q0 -34 -43 -62q-10 -7 -41 -26.5t-55 -37t-46 -39.5zM62 273h9q17 -126 93 -199t177 -75q55 -1 91.5 30t36.5 78q0 32 -22.5 57.5t-59 43.5t-80.5 35t-88 38.5t-80.5 48t-59 68.5t-22.5 95q0 96 72 158.5
t185 62.5q52 0 96 -15t74 -30.5t50 -15.5q40 0 40 58h10v-220h-10q-28 95 -93 153t-152 58q-52 0 -85.5 -32.5t-33.5 -79.5q0 -41 23 -72t60 -51t81.5 -38t89 -37.5t81.5 -43.5t60 -63t23 -90q0 -94 -71.5 -151.5t-190.5 -57.5q-53 0 -97.5 13t-68 29t-48 29t-41.5 13
q-40 0 -40 -70h-9v273z" />
    <glyph glyph-name="sacute" unicode="&#x15b;" horiz-adv-x="539" 
d="M276 591l-7 5q38 59 77 162q19 50 60 50q23 0 39 -15t16 -37q0 -35 -42 -63q-9 -6 -32.5 -20.5t-37.5 -23.5t-35 -25t-38 -33zM54 197h10q23 -93 87 -145.5t119 -52.5q37 0 57.5 19.5t20.5 50.5q0 30 -30.5 52.5t-74.5 40t-87.5 38.5t-74 59t-30.5 90q0 73 56 118.5
t145 45.5q60 0 109 -21t64 -21q33 0 33 35h10v-180h-10q-49 175 -183 175q-32 0 -52.5 -20t-20.5 -48q0 -36 30.5 -61.5t74.5 -42t88 -35.5t74.5 -55t30.5 -88q0 -77 -55.5 -121t-156.5 -44q-46 0 -84 18.5t-64 37t-42 18.5q-34 0 -34 -63h-10v200z" />
    <glyph glyph-name="Scircumflex" unicode="&#x15c;" horiz-adv-x="668" 
d="M509 791l-5 -8l-173 94l-170 -94l-6 8l172 173h11zM62 273h9q17 -126 93 -199t177 -75q55 -1 91.5 30t36.5 78q0 32 -22.5 57.5t-59 43.5t-80.5 35t-88 38.5t-80.5 48t-59 68.5t-22.5 95q0 96 72 158.5t185 62.5q52 0 96 -15t74 -30.5t50 -15.5q40 0 40 58h10v-220h-10
q-28 95 -93 153t-152 58q-52 0 -85.5 -32.5t-33.5 -79.5q0 -41 23 -72t60 -51t81.5 -38t89 -37.5t81.5 -43.5t60 -63t23 -90q0 -94 -71.5 -151.5t-190.5 -57.5q-53 0 -97.5 13t-68 29t-48 29t-41.5 13q-40 0 -40 -70h-9v273z" />
    <glyph glyph-name="scircumflex" unicode="&#x15d;" horiz-adv-x="539" 
d="M450 600l-6 -7l-173 93l-169 -93l-6 7l172 174h10zM54 197h10q23 -93 87 -145.5t119 -52.5q37 0 57.5 19.5t20.5 50.5q0 30 -30.5 52.5t-74.5 40t-87.5 38.5t-74 59t-30.5 90q0 73 56 118.5t145 45.5q60 0 109 -21t64 -21q33 0 33 35h10v-180h-10q-49 175 -183 175
q-32 0 -52.5 -20t-20.5 -48q0 -36 30.5 -61.5t74.5 -42t88 -35.5t74.5 -55t30.5 -88q0 -77 -55.5 -121t-156.5 -44q-46 0 -84 18.5t-64 37t-42 18.5q-34 0 -34 -63h-10v200z" />
    <glyph glyph-name="Scedilla" unicode="&#x15e;" horiz-adv-x="668" 
d="M584 491h-10q-28 95 -93 153t-152 58q-52 0 -85.5 -32.5t-33.5 -79.5q0 -41 23 -72t60 -51t81.5 -38t89 -37.5t81.5 -43.5t60 -63t23 -90q0 -93 -71.5 -150.5t-190.5 -57.5h-23l-47 -86q34 34 90 34q44 0 71 -24t27 -64q0 -43 -35 -71t-88 -28q-59 0 -110 27l5 8
q29 -16 61 -16q31 0 50.5 20.5t19.5 51.5q0 26 -14.5 42t-38.5 16q-31 0 -57 -26l-6 4l63 113q-56 4 -101 25t-73.5 39t-48.5 18q-40 0 -40 -70h-9v273h9q17 -126 93 -199t177 -75q55 -1 91.5 30t36.5 78q0 32 -22.5 57.5t-59 43.5t-80.5 35t-88 38.5t-80.5 48t-59 68.5
t-22.5 95q0 96 72 158.5t185 62.5q52 0 96 -15t74 -30.5t50 -15.5q40 0 40 58h10v-220z" />
    <glyph glyph-name="scedilla" unicode="&#x15f;" horiz-adv-x="539" 
d="M468 326h-10q-49 175 -183 175q-33 0 -53 -20t-20 -48q0 -36 30.5 -61.5t74.5 -42t88 -35.5t74.5 -55t30.5 -88q0 -77 -55.5 -120.5t-156.5 -43.5h-19l-49 -88q34 34 90 34q44 0 71 -24t27 -64q0 -43 -35 -71t-88 -28q-59 0 -110 27l5 8q29 -16 61 -16q31 0 50.5 20.5
t19.5 51.5q0 26 -14.5 42t-38.5 16q-31 0 -57 -26l-6 4l64 115q-36 5 -68.5 23t-55 33.5t-37.5 15.5q-34 0 -34 -63h-10v200h10q23 -93 87 -145.5t119 -52.5q37 0 57.5 19.5t20.5 50.5q0 30 -30.5 52.5t-74.5 40t-87.5 38.5t-74 59t-30.5 90q0 73 56 118.5t145 45.5
q60 0 109 -21t64 -21q33 0 33 35h10v-180z" />
    <glyph glyph-name="Scaron" unicode="&#x160;" horiz-adv-x="668" 
d="M152 957l6 7l172 -93l170 93l6 -7l-172 -174h-11zM62 273h9q17 -126 93 -199t177 -75q55 -1 91.5 30t36.5 78q0 32 -22.5 57.5t-59 43.5t-80.5 35t-88 38.5t-80.5 48t-59 68.5t-22.5 95q0 96 72 158.5t185 62.5q52 0 96 -15t74 -30.5t50 -15.5q40 0 40 58h10v-220h-10
q-28 95 -93 153t-152 58q-52 0 -85.5 -32.5t-33.5 -79.5q0 -41 23 -72t60 -51t81.5 -38t89 -37.5t81.5 -43.5t60 -63t23 -90q0 -94 -71.5 -151.5t-190.5 -57.5q-53 0 -97.5 13t-68 29t-48 29t-41.5 13q-40 0 -40 -70h-9v273z" />
    <glyph glyph-name="scaron" unicode="&#x161;" horiz-adv-x="539" 
d="M92 766l6 8l173 -93l170 93l5 -8l-171 -173h-11zM54 197h10q23 -93 87 -145.5t119 -52.5q37 0 57.5 19.5t20.5 50.5q0 30 -30.5 52.5t-74.5 40t-87.5 38.5t-74 59t-30.5 90q0 73 56 118.5t145 45.5q60 0 109 -21t64 -21q33 0 33 35h10v-180h-10q-49 175 -183 175
q-32 0 -52.5 -20t-20.5 -48q0 -36 30.5 -61.5t74.5 -42t88 -35.5t74.5 -55t30.5 -88q0 -77 -55.5 -121t-156.5 -44q-46 0 -84 18.5t-64 37t-42 18.5q-34 0 -34 -63h-10v200z" />
    <glyph glyph-name="Tcedilla" unicode="&#x162;" horiz-adv-x="746" 
d="M717 444l-10 -1q-26 134 -62.5 190.5t-91.5 56.5h-71q-20 0 -20 -21v-593q0 -37 15 -51.5t52 -14.5h32v-10h-185l-51 -92q34 34 91 34q44 0 71 -24t27 -64q0 -43 -35 -71t-88 -28q-59 0 -110 27l5 8q29 -16 61 -16q31 0 50.5 20.5t19.5 51.5q0 26 -14.5 42.5t-38.5 16.5
q-32 0 -57 -27l-6 4l65 118h-195v10h32q38 0 52.5 14.5t14.5 51.5v593q0 12 -4.5 16.5t-15.5 4.5h-70q-47 0 -81 -56.5t-60 -190.5l-10 1l25 256h643z" />
    <glyph glyph-name="tcedilla" unicode="&#x163;" horiz-adv-x="383" 
d="M223 -13l-45 -83q33 35 90 35q44 0 71 -24t27 -64q0 -44 -34.5 -71.5t-88.5 -27.5q-59 0 -110 27l5 8q29 -16 61 -16q31 0 50.5 20t19.5 52q0 26 -14.5 42t-38.5 16q-31 0 -57 -26l-6 4l60 108q-138 8 -138 147v356h-63v10h42q91 0 142.5 43.5t51.5 156.5h10v-200h91v-10
h-91v-399q0 -32 13.5 -49.5t36.5 -17.5q26 0 42 19.5t16 53.5h10q0 -53 -37.5 -82t-108.5 -29z" />
    <glyph glyph-name="Tcaron" unicode="&#x164;" horiz-adv-x="746" 
d="M187 957l6 7l173 -93l169 93l6 -7l-172 -174h-10zM717 444l-10 -1q-26 134 -62.5 190.5t-91.5 56.5h-71q-20 0 -20 -21v-593q0 -37 15 -51.5t52 -14.5h32v-10h-390v10h32q38 0 52.5 14.5t14.5 51.5v593q0 12 -4.5 16.5t-15.5 4.5h-70q-47 0 -81 -56.5t-60 -190.5l-10 1
l25 256h643z" />
    <glyph glyph-name="tcaron" unicode="&#x165;" horiz-adv-x="540" 
d="M379 571v10q144 2 144 144q-1 -29 -24 -48t-55 -19q-36 0 -58 21t-22 56q0 38 23 61.5t62 23.5t62 -26t22 -69q0 -154 -154 -154zM259 500h90v-10h-90v-399q0 -67 49 -67q26 0 42 19.5t16 53.5h10q0 -53 -37 -82t-109 -29q-155 0 -155 148v356h-63v10h42q91 0 143 43.5
t52 156.5h10v-200z" />
    <glyph glyph-name="Tbar" unicode="&#x166;" horiz-adv-x="746" 
d="M547 818h-367v10h367v-10zM717 444l-10 -1q-26 134 -62.5 190.5t-91.5 56.5h-71q-20 0 -20 -21v-593q0 -37 15 -51.5t52 -14.5h32v-10h-390v10h32q38 0 52.5 14.5t14.5 51.5v593q0 12 -4.5 16.5t-15.5 4.5h-70q-47 0 -81 -56.5t-60 -190.5l-10 1l25 256h643z" />
    <glyph glyph-name="tbar" unicode="&#x167;" horiz-adv-x="383" 
d="M366 97h10q0 -53 -37 -82t-109 -29q-155 0 -155 148v144h-47v10h47v202h-63v10h42q91 0 143 43.5t52 156.5h10v-200h90v-10h-90v-202h86v-10h-86v-187q0 -67 49 -67q26 0 42 19.5t16 53.5z" />
    <glyph glyph-name="Utilde" unicode="&#x168;" horiz-adv-x="785" 
d="M545 963l8 6q44 -47 44 -98q0 -37 -22 -57.5t-61 -20.5q-35 0 -107 32.5t-109 32.5q-23 0 -36 -13.5t-13 -37.5q0 -22 10 -42l-8 -5q-29 39 -29 83q0 45 26.5 72.5t69.5 27.5q35 0 105 -30.5t99 -30.5q17 0 28 9.5t11 23.5q0 24 -16 48zM777 690h-18q-43 0 -59.5 -26
t-16.5 -95v-350q0 -233 -267 -233q-305 0 -305 246v392q0 37 -14 51.5t-51 14.5h-34v10h398v-10h-42q-37 -1 -51 -15t-14 -51v-400q0 -215 183 -215q85 0 136 55.5t51 154.5v350q0 69 -25 95t-90 26h-29v10h248v-10z" />
    <glyph glyph-name="utilde" unicode="&#x169;" horiz-adv-x="735" 
d="M488 763l9 6q44 -47 44 -98q0 -37 -22 -57.5t-61 -20.5q-35 0 -107 32.5t-109 32.5q-23 0 -36 -13.5t-13 -37.5q0 -22 10 -42l-9 -5q-28 40 -28 83q0 45 26.5 72.5t69.5 27.5q35 0 104.5 -30.5t98.5 -30.5q18 0 28.5 9.5t10.5 23.5q0 24 -16 48zM631 495v-425
q0 -34 13.5 -47t48.5 -13h32v-10l-271 -6l-5 5v99h-2q-19 -49 -67.5 -80.5t-113.5 -31.5q-81 0 -125 44t-44 122v272q0 37 -14 51.5t-49 14.5h-24v10h267l5 -5v-377q0 -81 68 -81q38 0 67.5 31t29.5 70v286q0 37 -12.5 51.5t-44.5 14.5h-17v10h253z" />
    <glyph glyph-name="Umacron" unicode="&#x16a;" horiz-adv-x="785" 
d="M590 818h-367v10h367v-10zM777 690h-18q-43 0 -59.5 -26t-16.5 -95v-350q0 -233 -267 -233q-305 0 -305 246v392q0 37 -14 51.5t-51 14.5h-34v10h398v-10h-42q-37 -1 -51 -15t-14 -51v-400q0 -215 183 -215q85 0 136 55.5t51 154.5v350q0 69 -25 95t-90 26h-29v10h248
v-10z" />
    <glyph glyph-name="umacron" unicode="&#x16b;" horiz-adv-x="735" 
d="M534 618h-367v10h367v-10zM631 495v-425q0 -34 13.5 -47t48.5 -13h32v-10l-271 -6l-5 5v99h-2q-19 -49 -67.5 -80.5t-113.5 -31.5q-81 0 -125 44t-44 122v272q0 37 -14 51.5t-49 14.5h-24v10h267l5 -5v-377q0 -81 68 -81q38 0 67.5 31t29.5 70v286q0 37 -12.5 51.5
t-44.5 14.5h-17v10h253z" />
    <glyph glyph-name="Ubreve" unicode="&#x16c;" horiz-adv-x="785" 
d="M566 984h9q-1 -96 -45.5 -146t-122.5 -50q-75 0 -118.5 50t-43.5 146h9q11 -51 52 -80t101 -29q63 0 105.5 29t53.5 80zM777 690h-18q-43 0 -59.5 -26t-16.5 -95v-350q0 -233 -267 -233q-305 0 -305 246v392q0 37 -14 51.5t-51 14.5h-34v10h398v-10h-42q-37 -1 -51 -15
t-14 -51v-400q0 -215 183 -215q85 0 136 55.5t51 154.5v350q0 69 -25 95t-90 26h-29v10h248v-10z" />
    <glyph glyph-name="ubreve" unicode="&#x16d;" horiz-adv-x="735" 
d="M509 784h10q-1 -96 -45.5 -146t-122.5 -50q-75 0 -118.5 50t-43.5 146h9q11 -51 52 -80t101 -29q63 0 105.5 29t52.5 80zM631 495v-425q0 -34 13.5 -47t48.5 -13h32v-10l-271 -6l-5 5v99h-2q-19 -49 -67.5 -80.5t-113.5 -31.5q-81 0 -125 44t-44 122v272q0 37 -14 51.5
t-49 14.5h-24v10h267l5 -5v-377q0 -81 68 -81q38 0 67.5 31t29.5 70v286q0 37 -12.5 51.5t-44.5 14.5h-17v10h253z" />
    <glyph glyph-name="Uring" unicode="&#x16e;" horiz-adv-x="785" 
d="M409 965q43 0 71.5 -28.5t28.5 -71.5t-28.5 -71.5t-71.5 -28.5t-71.5 28.5t-28.5 71.5t28.5 71.5t71.5 28.5zM409 955q-38 0 -63.5 -26t-25.5 -64t25.5 -64t63.5 -26t63.5 26t25.5 64t-25.5 64t-63.5 26zM777 690h-18q-43 0 -59.5 -26t-16.5 -95v-350q0 -233 -267 -233
q-305 0 -305 246v392q0 37 -14 51.5t-51 14.5h-34v10h398v-10h-42q-37 -1 -51 -15t-14 -51v-400q0 -215 183 -215q85 0 136 55.5t51 154.5v350q0 69 -25 95t-90 26h-29v10h248v-10z" />
    <glyph glyph-name="uring" unicode="&#x16f;" horiz-adv-x="735" 
d="M353 765q43 0 71.5 -28.5t28.5 -71.5t-28.5 -71.5t-71.5 -28.5t-71.5 28.5t-28.5 71.5t28.5 71.5t71.5 28.5zM353 755q-38 0 -63.5 -26t-25.5 -64t25.5 -64t63.5 -26t63.5 26t25.5 64t-25.5 64t-63.5 26zM631 495v-425q0 -34 13.5 -47t48.5 -13h32v-10l-271 -6l-5 5v99
h-2q-19 -49 -67.5 -80.5t-113.5 -31.5q-81 0 -125 44t-44 122v272q0 37 -14 51.5t-49 14.5h-24v10h267l5 -5v-377q0 -81 68 -81q38 0 67.5 31t29.5 70v286q0 37 -12.5 51.5t-44.5 14.5h-17v10h253z" />
    <glyph glyph-name="Uhungarumlaut" unicode="&#x170;" horiz-adv-x="785" 
d="M317 782l-8 6q38 59 77 162q19 50 60 50q23 0 39 -15t16 -37q0 -35 -42 -63q-8 -5 -41 -26t-56 -38t-45 -39zM504 773l-7 5q32 50 77 162q19 50 60 50q23 0 39 -15t16 -37q0 -34 -43 -62q-10 -7 -41 -26.5t-55 -37t-46 -39.5zM777 690h-18q-43 0 -59.5 -26t-16.5 -95
v-350q0 -233 -267 -233q-305 0 -305 246v392q0 37 -14 51.5t-51 14.5h-34v10h398v-10h-42q-37 -1 -51 -15t-14 -51v-400q0 -215 183 -215q85 0 136 55.5t51 154.5v350q0 69 -25 95t-90 26h-29v10h248v-10z" />
    <glyph glyph-name="uhungarumlaut" unicode="&#x171;" horiz-adv-x="735" 
d="M260 582l-7 6q38 59 77 162q19 50 60 50q23 0 39 -15t16 -37q0 -35 -42 -63q-9 -6 -41.5 -26t-55.5 -37.5t-46 -39.5zM448 573l-8 5q38 59 77 162q19 50 60 50q23 0 39 -15t16 -37q0 -35 -42 -62l-33 -21t-36.5 -23.5t-35 -25.5t-37.5 -33zM631 495v-425q0 -34 13.5 -47
t48.5 -13h32v-10l-271 -6l-5 5v99h-2q-19 -49 -67.5 -80.5t-113.5 -31.5q-81 0 -125 44t-44 122v272q0 37 -14 51.5t-49 14.5h-24v10h267l5 -5v-377q0 -81 68 -81q38 0 67.5 31t29.5 70v286q0 37 -12.5 51.5t-44.5 14.5h-17v10h253z" />
    <glyph glyph-name="Uogonek" unicode="&#x172;" horiz-adv-x="785" 
d="M776 700v-10h-17q-43 0 -59.5 -26t-16.5 -95v-351q0 -180 -164 -221q-40 -15 -65 -51t-25 -76q0 -41 20 -64t56 -23q19 0 43 12l4 -5q-45 -51 -110 -51q-46 0 -74.5 27t-28.5 72q0 51 42 91t111 63q-34 -6 -76 -6q-305 0 -305 246v392q0 37 -14 51.5t-51 14.5h-34v10h398
v-10h-42q-37 -1 -51 -15t-14 -51v-400q0 -215 183 -215q85 0 136 55.5t51 154.5v350q0 69 -25 95t-90 26h-29v10h247z" />
    <glyph glyph-name="uogonek" unicode="&#x173;" horiz-adv-x="735" 
d="M754 -202l4 -6q-46 -51 -111 -51q-46 0 -74 27t-28 73q0 54 47 95.5t123 63.5l-261 -6l-5 5v99h-2q-19 -49 -67.5 -80.5t-113.5 -31.5q-81 0 -125 44t-44 122v272q0 37 -14 51.5t-49 14.5h-24v10h267l5 -5v-377q0 -81 68 -81q38 0 67.5 31t29.5 70v286q0 37 -12.5 51.5
t-44.5 14.5h-17v10h253l5 -5v-425q0 -34 13.5 -47t48.5 -13h32v-10q-40 -15 -65.5 -51t-25.5 -76q0 -41 20 -64t56 -23q22 0 44 12z" />
    <glyph glyph-name="Wcircumflex" unicode="&#x174;" horiz-adv-x="1250" 
d="M477 783l-5 8l171 173h11l172 -173l-6 -8l-173 94zM1242 700v-10h-23q-45 0 -73 -33t-67 -125l-233 -532h-17l-187 463l-234 -463h-16l-251 588q-28 63 -49 82.5t-68 19.5h-15v10h411v-10h-25q-28 0 -43 -14t-15 -38q0 -20 11 -45l157 -376l131 260l-60 151
q-14 36 -28.5 49t-40.5 13h-15v10h377v-10h-22q-30 0 -46.5 -15.5t-16.5 -41.5q0 -9 14 -53l134 -357l135 311q26 60 26 96q0 28 -19.5 44t-53.5 16h-47v10h269z" />
    <glyph glyph-name="wcircumflex" unicode="&#x175;" horiz-adv-x="952" 
d="M342 583l-5 8l171 173h11l172 -173l-6 -8l-173 94zM945 500v-10h-17q-31 0 -55.5 -26.5t-51.5 -85.5l-169 -378h-10l-161 318l-158 -318h-11l-206 417q-21 43 -37.5 58t-47.5 15h-14v10h344v-10h-19q-40 0 -40 -35q0 -14 20 -54l98 -205l152 304h10l154 -309l84 190
q14 30 14 52q0 26 -18.5 41.5t-49.5 15.5h-40v10h229z" />
    <glyph glyph-name="Ycircumflex" unicode="&#x176;" horiz-adv-x="801" 
d="M248 783l-6 8l172 173h10l172 -173l-6 -8l-172 94zM792 700v-10h-11q-34 0 -64 -28t-67 -97l-139 -266v-220q0 -39 15.5 -54t55.5 -15h34v-10h-411v10h38q42 0 58 15t16 54v196l-196 358q-18 33 -39 45t-57 12h-16v10h406v-10h-33q-21 0 -34 -11.5t-13 -29.5
q0 -21 14 -44l157 -287l121 229q30 58 30 85q0 58 -87 58h-33v10h255z" />
    <glyph glyph-name="ycircumflex" unicode="&#x177;" horiz-adv-x="655" 
d="M192 584l-6 7l172 174h10l172 -174l-6 -7l-173 93zM648 500v-10h-17q-27 0 -51 -24t-56 -87l-229 -474q-44 -87 -83.5 -126t-90.5 -39t-82.5 29.5t-31.5 78.5q0 39 23.5 64.5t57.5 25.5q37 0 59 -21t22 -56q0 -31 -22 -54t-55 -23q-28 0 -48 17.5t-27 46.5q-1 -44 28 -71
t76 -27t84.5 38t80.5 121l40 84l-211 423q-22 44 -38 59t-47 15h-13v10h345v-10h-19q-40 0 -40 -35q0 -17 17 -54l99 -214l94 195q15 29 15 51q0 26 -21.5 41.5t-57.5 15.5h-30v10h229z" />
    <glyph glyph-name="Ydieresis" unicode="&#x178;" horiz-adv-x="801" 
d="M541 788q-33 0 -55.5 22t-22.5 55t22.5 55.5t55.5 22.5q32 0 54.5 -22.5t22.5 -55.5t-22.5 -55t-54.5 -22zM290 787q-32 0 -54.5 22t-22.5 55t22.5 55.5t54.5 22.5q33 0 55 -22.5t22 -55.5t-22 -55t-55 -22zM792 700v-10h-11q-34 0 -64 -28t-67 -97l-139 -266v-220
q0 -39 15.5 -54t55.5 -15h34v-10h-411v10h38q42 0 58 15t16 54v196l-196 358q-18 33 -39 45t-57 12h-16v10h406v-10h-33q-21 0 -34 -11.5t-13 -29.5q0 -21 14 -44l157 -287l121 229q30 58 30 85q0 58 -87 58h-33v10h255z" />
    <glyph glyph-name="Zacute" unicode="&#x179;" horiz-adv-x="701" 
d="M366 781l-7 6q38 59 77 162q19 50 60 50q23 0 39 -15.5t16 -37.5q0 -35 -42 -62q-9 -6 -41.5 -26t-55.5 -37.5t-46 -39.5zM666 694l-419 -684h191q75 0 125 54.5t92 192.5l10 -2l-47 -250l-6 -5h-588l-3 6l418 684h-175q-78 0 -120 -53.5t-76 -196.5l-10 1l31 254l5 5
h568z" />
    <glyph glyph-name="zacute" unicode="&#x17a;" horiz-adv-x="574" 
d="M306 581l-7 6q38 59 77 162q19 50 60 50q23 0 39 -15.5t16 -37.5q0 -35 -42 -62q-9 -6 -41.5 -26t-56 -37.5t-45.5 -39.5zM538 495l-308 -485h123q66 0 108 43t68 134l10 -2l-34 -185h-473l-4 5l298 485h-114q-57 0 -90.5 -39.5t-65.5 -141.5l-10 2l31 189h458z" />
    <glyph glyph-name="Zdotaccent" unicode="&#x17b;" horiz-adv-x="701" 
d="M359 944q32 0 54.5 -22.5t22.5 -55.5q0 -32 -22.5 -54.5t-54.5 -22.5q-33 0 -55.5 22.5t-22.5 54.5q0 33 22.5 55.5t55.5 22.5zM666 694l-419 -684h191q75 0 125 54.5t92 192.5l10 -2l-47 -250l-6 -5h-588l-3 6l418 684h-175q-78 0 -120 -53.5t-76 -196.5l-10 1l31 254
l5 5h568z" />
    <glyph glyph-name="zdotaccent" unicode="&#x17c;" horiz-adv-x="574" 
d="M299 744q32 0 54.5 -22.5t22.5 -55.5q0 -32 -22.5 -54.5t-54.5 -22.5q-33 0 -55.5 22.5t-22.5 54.5q0 33 22.5 55.5t55.5 22.5zM538 495l-308 -485h123q66 0 108 43t68 134l10 -2l-34 -185h-473l-4 5l298 485h-114q-57 0 -90.5 -39.5t-65.5 -141.5l-10 2l31 189h458z" />
    <glyph glyph-name="Zcaron" unicode="&#x17d;" horiz-adv-x="701" 
d="M182 957l6 7l173 -93l170 93l5 -7l-171 -174h-11zM666 694l-419 -684h191q75 0 125 54.5t92 192.5l10 -2l-47 -250l-6 -5h-588l-3 6l418 684h-175q-78 0 -120 -53.5t-76 -196.5l-10 1l31 254l5 5h568z" />
    <glyph glyph-name="zcaron" unicode="&#x17e;" horiz-adv-x="574" 
d="M122 757l6 7l173 -93l169 93l6 -7l-172 -174h-10zM538 495l-308 -485h123q66 0 108 43t68 134l10 -2l-34 -185h-473l-4 5l298 485h-114q-57 0 -90.5 -39.5t-65.5 -141.5l-10 2l31 189h458z" />
    <glyph glyph-name="florin" unicode="&#x192;" horiz-adv-x="594" 
d="M226 442l9 59q18 126 74.5 192.5t142.5 66.5q55 0 87 -31t32 -82q0 -39 -20.5 -63t-58.5 -24q-36 0 -58.5 20.5t-22.5 55.5q0 36 21.5 58t55.5 22q28 0 48.5 -18.5t24.5 -50.5q0 47 -29 75t-80 28q-65 0 -108 -42t-47 -114q-4 -70 35.5 -111t109.5 -41h71l-2 -10h-104
l-70 -482q-14 -97 -70 -153.5t-137 -56.5q-49 0 -78.5 27.5t-29.5 72.5q0 32 20.5 53.5t51.5 21.5q30 0 49 -18t19 -47q0 -30 -17.5 -48t-48.5 -18q-29 0 -46.5 16.5t-17.5 39.5q0 -41 27 -65.5t71 -24.5q58 0 94 37.5t36 94.5q0 42 -29 72.5t-74 32.5l67 445h-75l2 10h75z
" />
    <glyph glyph-name="Acaron" unicode="&#x1cd;" 
d="M407 789l-172 174l6 7l173 -93l170 93l5 -7l-171 -174h-11zM757 10v-10h-382v10h28q35 0 49.5 12.5t14.5 39.5q0 25 -21 75l-27 68h-237l-33 -75q-19 -44 -19 -69q0 -51 66 -51h42v-10h-226v10h20q29 0 53 28t53 93l252 569h18l251 -612q18 -47 32.5 -62.5t44.5 -15.5h21
zM415 215l-108 274l-121 -274h229z" />
    <glyph glyph-name="acaron" unicode="&#x1ce;" horiz-adv-x="646" 
d="M311 583l-172 174l6 7l173 -93l169 93l6 -7l-172 -174h-10zM635 95v-21q0 -41 -35 -64.5t-98 -23.5q-51 0 -88.5 22t-49.5 61q-71 -82 -178 -83q-71 0 -111 31.5t-40 87.5q0 58 45.5 93t122.5 35h159v121q0 136 -134 136q-64 0 -109 -37t-45 -95q6 30 27.5 48t54.5 18
q35 0 56 -21.5t21 -56.5q0 -36 -23 -58t-60 -22q-38 0 -62 25t-24 66q0 155 263 156q108 1 164.5 -48.5t56.5 -140.5v-248q0 -50 36 -50q18 0 29.5 13.5t11.5 36.5v20zM362 223h-76q-33 0 -54 -24t-21 -69q0 -46 17 -71.5t49 -25.5q44 0 85 50v140z" />
    <glyph glyph-name="Icaron" unicode="&#x1cf;" horiz-adv-x="415" 
d="M30 957l6 7l172 -93l170 93l6 -7l-172 -174h-10zM398 690h-26q-37 0 -51.5 -14.5t-14.5 -51.5v-548q0 -37 14.5 -51.5t51.5 -14.5h26v-10h-380v10h31q37 0 51.5 14t14.5 52v548q0 38 -14.5 52t-51.5 14h-31v10h380v-10z" />
    <glyph glyph-name="icaron" unicode="&#x1d0;" horiz-adv-x="397" 
d="M7 757l6 7l173 -93l169 93l6 -7l-172 -174h-10zM289 500v-424q0 -37 14.5 -51.5t51.5 -14.5h27v-10h-370v10h27q37 0 51.5 14.5t14.5 51.5v353q0 34 -13.5 47t-48.5 13h-30v10l268 9z" />
    <glyph glyph-name="Ocaron" unicode="&#x1d1;" horiz-adv-x="820" 
d="M232 957l6 7l173 -93l170 93l5 -7l-171 -174h-11zM425 713q160 0 259 -93.5t99 -248.5q0 -183 -106.5 -284t-283.5 -101q-98 0 -176.5 37.5t-128.5 118.5t-50 194q0 168 106 272.5t281 104.5zM412 703q-76 0 -121 -95.5t-45 -271.5q0 -157 43.5 -248.5t117.5 -91.5
q78 0 123 99t45 285q0 158 -42 240.5t-121 82.5z" />
    <glyph glyph-name="ocaron" unicode="&#x1d2;" horiz-adv-x="661" 
d="M153 757l6 7l172 -93l170 93l6 -7l-172 -174h-10zM342 513q73 0 135 -23.5t106 -80t44 -138.5q1 -127 -83 -206t-225 -79q-133 0 -209 67.5t-76 186.5q0 115 79.5 194t228.5 79zM330 503q-49 0 -76 -66.5t-27 -196.5q0 -244 101 -244q54 1 80.5 66.5t25.5 210.5
q-1 230 -104 230z" />
    <glyph glyph-name="Ucaron" unicode="&#x1d3;" horiz-adv-x="785" 
d="M231 957l6 7l172 -93l170 93l6 -7l-172 -174h-11zM777 690h-18q-43 0 -59.5 -26t-16.5 -95v-350q0 -233 -267 -233q-305 0 -305 246v392q0 37 -14 51.5t-51 14.5h-34v10h398v-10h-42q-37 -1 -51 -15t-14 -51v-400q0 -215 183 -215q85 0 136 55.5t51 154.5v350
q0 69 -25 95t-90 26h-29v10h248v-10z" />
    <glyph glyph-name="ucaron" unicode="&#x1d4;" horiz-adv-x="735" 
d="M175 757l5 7l173 -93l170 93l6 -7l-172 -174h-11zM631 495v-425q0 -34 13.5 -47t48.5 -13h32v-10l-271 -6l-5 5v99h-2q-19 -49 -67.5 -80.5t-113.5 -31.5q-81 0 -125 44t-44 122v272q0 37 -14 51.5t-49 14.5h-24v10h267l5 -5v-377q0 -81 68 -81q38 0 67.5 31t29.5 70v286
q0 37 -12.5 51.5t-44.5 14.5h-17v10h253z" />
    <glyph glyph-name="Gcaron" unicode="&#x1e6;" horiz-adv-x="811" 
d="M240 966l6 8l173 -93l169 93l6 -8l-172 -173h-10zM747 69l-5 -5q-99 -40 -175 -59t-160 -19q-169 0 -269 93.5t-100 254.5q0 168 106 273.5t276 105.5q53 0 98 -14t77.5 -28t54.5 -14q52 0 53 50h10v-297h-10q-54 284 -245 289q-96 0 -154 -99t-58 -266q0 -157 50 -247
t137 -90q62 0 94 27.5t32 78.5v148q0 37 -14.5 51.5t-50.5 14.5h-35v10h332v-10q-24 0 -34 -11t-10 -37v-200z" />
    <glyph glyph-name="gcaron" unicode="&#x1e7;" horiz-adv-x="596" 
d="M284 583l-172 174l6 7l173 -93l169 93l6 -7l-172 -174h-10zM231 158v2q-82 9 -127.5 53t-45.5 112q0 84 65 134.5t178 50.5q103 0 167 -53q48 6 82 40.5t33 80.5q-7 -60 -66 -60q-32 0 -51.5 18.5t-19.5 50.5t21 52.5t54 20.5q31 0 51.5 -23.5t20.5 -58.5
q0 -47 -33.5 -84t-83.5 -45q43 -41 43 -101q0 -90 -62.5 -141.5t-170.5 -51.5q-119 0 -119 -56q0 -45 81 -42q22 0 76 4t80 4q82 0 126 -39.5t44 -111.5q0 -81 -74 -127.5t-208 -46.5q-91 0 -140 23.5t-49 67.5q0 40 33.5 63t93.5 23v4h-41q-65 0 -102 29t-37 79q0 57 47 92
t134 37zM213 325q0 -160 73 -160q36 0 57 45.5t21 135.5q0 154 -76 154q-75 0 -75 -175zM388 -93h-158q-56 0 -87 -20t-31 -56q0 -39 47 -60t132 -21q100 0 152 24.5t52 66.5q0 31 -28.5 48.5t-78.5 17.5z" />
    <glyph glyph-name="Scommaaccent" unicode="&#x218;" horiz-adv-x="668" 
d="M62 273h9q17 -126 93 -199t177 -75q55 -1 91.5 30t36.5 78q0 32 -22.5 57.5t-59 43.5t-80.5 35t-88 38.5t-80.5 48t-59 68.5t-22.5 95q0 96 72 158.5t185 62.5q52 0 96 -15t74 -30.5t50 -15.5q40 0 40 58h10v-220h-10q-28 95 -93 153t-152 58q-52 0 -85.5 -32.5
t-33.5 -79.5q0 -41 23 -72t60 -51t81.5 -38t89 -37.5t81.5 -43.5t60 -63t23 -90q0 -94 -71.5 -151.5t-190.5 -57.5q-53 0 -97.5 13t-68 29t-48 29t-41.5 13q-40 0 -40 -70h-9v273zM271 -322v10q144 2 144 144q-1 -29 -24 -48t-55 -19q-36 0 -58 21.5t-22 56.5q0 38 23 61
t62 23t62 -26t22 -69q0 -154 -154 -154z" />
    <glyph glyph-name="scommaaccent" unicode="&#x219;" horiz-adv-x="539" 
d="M54 197h10q23 -93 87 -145.5t119 -52.5q37 0 57.5 19.5t20.5 50.5q0 30 -30.5 52.5t-74.5 40t-87.5 38.5t-74 59t-30.5 90q0 73 56 118.5t145 45.5q60 0 109 -21t64 -21q33 0 33 35h10v-180h-10q-49 175 -183 175q-32 0 -52.5 -20t-20.5 -48q0 -36 30.5 -61.5t74.5 -42
t88 -35.5t74.5 -55t30.5 -88q0 -77 -55.5 -121t-156.5 -44q-46 0 -84 18.5t-64 37t-42 18.5q-34 0 -34 -63h-10v200zM195 -324v10q144 2 144 144q-1 -29 -24 -48t-55 -19q-36 0 -58 21t-22 56q0 38 23 61.5t62 23.5t62 -26t22 -69q0 -154 -154 -154z" />
    <glyph glyph-name="Tcommaaccent" unicode="&#x21a;" horiz-adv-x="746" 
d="M717 444l-10 -1q-26 134 -62.5 190.5t-91.5 56.5h-71q-20 0 -20 -21v-593q0 -37 15 -51.5t52 -14.5h32v-10h-390v10h32q38 0 52.5 14.5t14.5 51.5v593q0 12 -4.5 16.5t-15.5 4.5h-70q-47 0 -81 -56.5t-60 -190.5l-10 1l25 256h643zM301 -315v10q144 2 144 144
q-2 -29 -24.5 -48t-54.5 -19q-36 0 -58 21.5t-22 56.5q0 38 23 61t61 23q39 0 62.5 -26t22.5 -69q-1 -154 -154 -154z" />
    <glyph glyph-name="tcommaaccent" unicode="&#x21b;" horiz-adv-x="383" 
d="M259 500h90v-10h-90v-399q0 -67 49 -67q26 0 42 19.5t16 53.5h10q0 -53 -37 -82t-109 -29q-155 0 -155 148v356h-63v10h42q91 0 143 43.5t52 156.5h10v-200zM153 -318v10q144 2 144 144q-1 -29 -24 -48.5t-55 -19.5q-36 0 -58 21.5t-22 56.5q0 38 23 61t62 23t62 -25.5
t22 -68.5q0 -154 -154 -154z" />
    <glyph glyph-name="dotlessj" unicode="&#x237;" horiz-adv-x="338" 
d="M86 -19v448q0 34 -13.5 47t-48.5 13h-30v10l268 9l8 -8v-561q0 -89 -50 -146t-127 -57q-55 0 -88.5 30t-33.5 79q0 36 22 58t55 22q31 0 51 -18.5t20 -48.5q0 -31 -18.5 -50t-49.5 -19q-25 0 -43.5 15.5t-23.5 40.5q0 -44 30 -70t79 -26q50 0 82 33t32 87q0 47 -33.5 78
t-87.5 34z" />
    <glyph glyph-name="circumflex" unicode="&#x2c6;" horiz-adv-x="377" 
d="M370 591l-5 -8l-173 94l-170 -94l-6 8l172 173h11z" />
    <glyph glyph-name="caron" unicode="&#x2c7;" horiz-adv-x="387" 
d="M16 757l6 7l173 -93l170 93l5 -7l-171 -174h-11z" />
    <glyph glyph-name="breve" unicode="&#x2d8;" horiz-adv-x="413" 
d="M362 784h10q-1 -96 -46 -146t-123 -50q-74 0 -118 50t-44 146h10q11 -51 51.5 -80t100.5 -29q63 0 105.5 28.5t53.5 80.5z" />
    <glyph glyph-name="dotaccent" unicode="&#x2d9;" horiz-adv-x="258" 
d="M129 744q33 0 55.5 -22.5t22.5 -55.5q0 -32 -22.5 -54.5t-55.5 -22.5t-55 22.5t-22 54.5q0 33 22 55.5t55 22.5z" />
    <glyph glyph-name="ring" unicode="&#x2da;" horiz-adv-x="300" 
d="M150 765q43 0 71.5 -28.5t28.5 -71.5t-28.5 -71.5t-71.5 -28.5t-71.5 28.5t-28.5 71.5t28.5 71.5t71.5 28.5zM150 755q-38 0 -63.5 -26t-25.5 -64t25.5 -64t63.5 -26t63.5 26t25.5 64t-25.5 64t-63.5 26z" />
    <glyph glyph-name="ogonek" unicode="&#x2db;" horiz-adv-x="316" 
d="M243 10v-2q-40 -15 -65.5 -51t-25.5 -76q0 -41 20 -64t56 -23q22 0 43 12l4 -6q-45 -51 -110 -51q-46 0 -74 27t-28 73q0 56 49.5 98t130.5 63z" />
    <glyph glyph-name="tilde" unicode="&#x2dc;" horiz-adv-x="457" 
d="M364 763l8 6q44 -47 44 -98q0 -37 -22 -57.5t-61 -20.5q-35 0 -107 32.5t-109 32.5q-23 0 -36 -13.5t-13 -37.5q0 -22 10 -42l-8 -5q-29 41 -29 83q0 45 26.5 72.5t69.5 27.5q35 0 105 -30.5t99 -30.5q18 0 28.5 9.5t10.5 23.5q0 24 -16 48z" />
    <glyph glyph-name="hungarumlaut" unicode="&#x2dd;" horiz-adv-x="468" 
d="M62 582l-7 6q38 59 77 162q19 50 60 50q23 0 39 -15t16 -37q0 -35 -42 -63q-9 -6 -41.5 -26t-55.5 -37.5t-46 -39.5zM250 573l-8 5q38 59 77 162q19 50 60 50q23 0 39 -15t16 -37q0 -35 -42 -62l-33 -21t-36.5 -23.5t-35 -25.5t-37.5 -33z" />
    <glyph glyph-name="commaaccent" unicode="&#x326;" horiz-adv-x="0" 
d="M66 -315v10q144 2 144 144q-2 -29 -24.5 -48t-54.5 -19q-37 0 -59 21.5t-22 56.5q0 38 23.5 61t61.5 23q39 0 62 -26t23 -69q-1 -154 -154 -154z" />
    <glyph glyph-name="Delta" unicode="&#x394;" horiz-adv-x="646" 
d="M623 13l-9 -13h-580l-10 11l293 690h12zM36 10h400l-205 463z" />
    <glyph glyph-name="Omega" unicode="&#x3a9;" horiz-adv-x="829" 
d="M167 10h183q-136 34 -221.5 135t-85.5 225q0 151 102.5 245.5t266.5 94.5q166 0 270.5 -94.5t104.5 -245.5q0 -125 -88.5 -227t-226.5 -133h193q36 0 55.5 20t34.5 73l9 -2l-21 -101h-291l-5 10q71 57 110.5 153.5t39.5 206.5q0 147 -51.5 238.5t-133.5 91.5
q-80 0 -130 -91.5t-50 -238.5q0 -113 38 -214t106 -146l-5 -10h-282l-21 101l9 2q15 -53 34.5 -73t55.5 -20z" />
    <glyph glyph-name="mu" unicode="&#x3bc;" horiz-adv-x="732" 
d="M722 10v-13h-256l-8 9q0 14 3 179h-5q-5 -93 -56 -146t-138 -53q-115 0 -151 90h-2q9 -27 29.5 -49.5t42 -39t41.5 -34.5t33 -43.5t13 -58.5q0 -74 47 -74q23 0 46 17l4 -7q-50 -36 -134 -36q-72 0 -114 45t-42 122q0 25 11.5 98.5t10.5 131.5v4v272q0 37 -14 51.5
t-49 14.5h-24v10h267l5 -5v-362q0 -89 63 -89q46 0 74 43.5t28 113.5v223q0 37 -12.5 51.5t-44.5 14.5h-17v9h253l5 -5v-424q0 -34 13.5 -47t48.5 -13h29z" />
    <glyph glyph-name="pi" unicode="&#x3c0;" horiz-adv-x="822" 
d="M782 510h-79l-14 -389q-3 -83 44 -83q18 0 31 16t13 42h10q0 -46 -36.5 -76.5t-101.5 -30.5q-72 0 -110 36t-35 102l14 383h-147l-25 -481q-1 -29 -27 -29h-252v10q56 0 77 16.5t23 59.5l22 411l-8 10q-60 0 -100 -40t-48 -107l-10 1q9 82 55.5 120.5t134.5 38.5h569v-10
z" />
    <glyph glyph-name="Bdotaccent" unicode="&#x1e02;" horiz-adv-x="791" 
d="M380 799q-32 0 -54.5 22.5t-22.5 54.5q0 33 22.5 55.5t54.5 22.5q33 0 55.5 -22.5t22.5 -55.5q0 -32 -22.5 -54.5t-55.5 -22.5zM18 700h463q105 0 163 -41t58 -117q0 -67 -50 -108.5t-137 -46.5q100 -6 161.5 -57.5t61.5 -129.5q0 -91 -67 -145.5t-180 -54.5h-473v10h31
q37 0 51.5 14t14.5 52v548q0 38 -14.5 52t-51.5 14h-31v10zM401 690h-75q-20 0 -20 -20v-279h88q64 0 94.5 34t30.5 106q0 159 -118 159zM326 10h82q67 0 99 46t32 143q0 182 -145 182h-88v-351q0 -11 4.5 -15.5t15.5 -4.5z" />
    <glyph glyph-name="bdotaccent" unicode="&#x1e03;" horiz-adv-x="702" 
d="M287 750v-351h2q17 49 64.5 80t108.5 31q92 0 148 -65t57 -177q1 -128 -80.5 -205t-223.5 -77q-126 0 -258 40v653q0 34 -13.5 47.5t-48.5 13.5h-32v10l271 5zM477 740q33 0 55.5 -22.5t22.5 -55.5q0 -32 -22.5 -54.5t-55.5 -22.5q-32 0 -54.5 22.5t-22.5 54.5
q0 33 22.5 55.5t54.5 22.5zM289 359v-293q0 -70 74 -70q60 0 86 66.5t25 218.5q-1 182 -90 182q-37 0 -65 -32t-30 -72z" />
    <glyph glyph-name="Ddotaccent" unicode="&#x1e0a;" horiz-adv-x="819" 
d="M399 944q33 0 55.5 -22.5t22.5 -55.5q0 -32 -22.5 -54.5t-55.5 -22.5q-32 0 -54.5 22.5t-22.5 54.5q0 33 22.5 55.5t54.5 22.5zM18 700h428q151 0 243 -94.5t92 -249.5q0 -161 -97 -258.5t-257 -97.5h-409v10h31q37 0 51.5 15t14.5 51v548q0 37 -14.5 51t-51.5 14h-31v11
zM402 690h-76q-11 0 -15.5 -4.5t-4.5 -15.5v-640q0 -11 4.5 -15.5t15.5 -4.5h73q180 0 180 346q0 334 -177 334z" />
    <glyph glyph-name="ddotaccent" unicode="&#x1e0b;" horiz-adv-x="700" 
d="M598 750v-674q0 -37 14 -51.5t51 -14.5h27v-10h-270l-5 5v96h-3q-18 -50 -64 -82.5t-104 -32.5q-96 0 -152.5 64.5t-57.5 177.5q0 134 80.5 208t226.5 74q37 0 71 -11v180q0 34 -13.5 47t-47.5 13h-30v10l268 9zM167 715q33 0 55.5 -22.5t22.5 -55.5q0 -32 -22.5 -54.5
t-55.5 -22.5t-55 22.5t-22 54.5q0 33 22 55.5t55 22.5zM412 141v348q-37 11 -69 11q-118 0 -115 -256q1 -208 92 -208q34 0 62 33t30 72z" />
    <glyph glyph-name="Fdotaccent" unicode="&#x1e1e;" horiz-adv-x="673" 
d="M349 789q-33 0 -55.5 22.5t-22.5 54.5q0 33 22.5 55.5t55.5 22.5t55 -22.5t22 -55.5q0 -32 -22 -54.5t-55 -22.5zM645 439l-8 -1q-37 144 -80.5 198t-112.5 54h-118q-11 0 -15.5 -4.5t-4.5 -15.5v-322h79q58 0 84.5 32.5t26.5 100.5h10v-277h-10q0 70 -26.5 102t-84.5 32
h-79v-256q0 -40 20 -56t70 -16h43v-10h-421v9h25q40 0 56 17t16 55v537q0 40 -15.5 56t-56.5 16h-25v10h601l5 -5z" />
    <glyph glyph-name="fdotaccent" unicode="&#x1e1f;" horiz-adv-x="391" 
d="M265 994q33 0 55.5 -22.5t22.5 -55.5q0 -32 -22.5 -54.5t-55.5 -22.5q-32 0 -54.5 22.5t-22.5 54.5q0 33 22.5 55.5t54.5 22.5zM103 500v46q1 107 52 162t132 55q61 0 99 -34t38 -89q0 -37 -22.5 -60t-57.5 -23q-37 0 -58 20.5t-21 55.5t21 56t56 21q30 0 49 -19t23 -51
q0 51 -35 82t-92 31q-61 0 -102 -36.5t-41 -93.5q0 -123 159 -123h88v-10h-104v-414q0 -37 16.5 -51.5t60.5 -14.5h17v-10h-372v10h28q37 0 51.5 14.5t14.5 51.5v414h-78v10h78z" />
    <glyph glyph-name="Macute" unicode="&#x1e3e;" horiz-adv-x="1054" 
d="M538 781l-7 6q38 59 77 162q19 50 60 50q23 0 39 -15.5t16 -37.5q0 -35 -42 -62q-9 -6 -41.5 -26t-55.5 -37.5t-46 -39.5zM1036 690h-24q-41 0 -58 -17t-17 -58v-533q0 -38 14.5 -55t50.5 -17h34v-10h-383v10h27q36 0 50.5 17t14.5 55v571l-288 -653h-8l-319 607v-452
q0 -85 19.5 -115t73.5 -30h33v-10h-237v10h26q44 0 59.5 30t15.5 115v469q0 37 -14.5 51.5t-51.5 14.5h-29v10h274l245 -478l211 478h281v-10z" />
    <glyph glyph-name="macute" unicode="&#x1e3f;" horiz-adv-x="1084" 
d="M557 581l-7 6q38 59 77 162q19 50 60 50q23 0 39 -15.5t16 -37.5q0 -35 -42 -62q-9 -6 -41.5 -26t-55.5 -37.5t-46 -39.5zM636 399h3q18 49 66.5 81.5t115.5 32.5q80 0 124.5 -43.5t44.5 -121.5v-272q0 -38 13.5 -52t49.5 -14h24v-10h-345v10h16q33 0 45 14t12 52v306
q0 81 -68 81q-39 0 -68 -30.5t-29 -70.5v-286q0 -37 14 -51.5t49 -14.5h11v-10h-332v10h17q33 0 45 14t12 52v306q0 81 -68 81q-39 0 -68 -30.5t-29 -70.5v-286q0 -38 12 -52t45 -14h18v-10h-354v10h29q37 0 51 14.5t14 51.5v354q0 34 -13.5 47t-47.5 13h-33v10l276 6l5 -5
l-5 -99h3q19 49 67 80t113 31q64 0 108.5 -32t56.5 -82z" />
    <glyph glyph-name="Mdotaccent" unicode="&#x1e40;" horiz-adv-x="1054" 
d="M531 944q32 0 54.5 -22.5t22.5 -55.5q0 -32 -22.5 -54.5t-54.5 -22.5q-33 0 -55.5 22.5t-22.5 54.5q0 33 22.5 55.5t55.5 22.5zM1036 690h-24q-41 0 -58 -17t-17 -58v-533q0 -38 14.5 -55t50.5 -17h34v-10h-383v10h27q36 0 50.5 17t14.5 55v571l-288 -653h-8l-319 607
v-452q0 -85 19.5 -115t73.5 -30h33v-10h-237v10h26q44 0 59.5 30t15.5 115v469q0 37 -14.5 51.5t-51.5 14.5h-29v10h274l245 -478l211 478h281v-10z" />
    <glyph glyph-name="mdotaccent" unicode="&#x1e41;" horiz-adv-x="1084" 
d="M550 744q32 0 54.5 -22.5t22.5 -55.5q0 -32 -22.5 -54.5t-54.5 -22.5q-33 0 -55.5 22.5t-22.5 54.5q0 33 22.5 55.5t55.5 22.5zM636 399h3q18 49 66.5 81.5t115.5 32.5q80 0 124.5 -43.5t44.5 -121.5v-272q0 -38 13.5 -52t49.5 -14h24v-10h-345v10h16q33 0 45 14t12 52
v306q0 81 -68 81q-39 0 -68 -30.5t-29 -70.5v-286q0 -37 14 -51.5t49 -14.5h11v-10h-332v10h17q33 0 45 14t12 52v306q0 81 -68 81q-39 0 -68 -30.5t-29 -70.5v-286q0 -38 12 -52t45 -14h18v-10h-354v10h29q37 0 51 14.5t14 51.5v354q0 34 -13.5 47t-47.5 13h-33v10l276 6
l5 -5l-5 -99h3q19 49 67 80t113 31q64 0 108.5 -32t56.5 -82z" />
    <glyph glyph-name="Ndotaccent" unicode="&#x1e44;" horiz-adv-x="764" 
d="M395 944q32 0 54.5 -22.5t22.5 -55.5q0 -32 -22.5 -54.5t-54.5 -22.5q-33 0 -55.5 22.5t-22.5 54.5q0 33 22.5 55.5t55.5 22.5zM753 690h-16q-44 0 -61 -34t-17 -120v-536h-128l-403 522v-362q0 -89 33.5 -119.5t116.5 -30.5h39v-10h-306v10h22q53 0 69 28.5t16 121.5
v464q0 38 -14 52t-52 14h-30v10h223l404 -527v363q0 86 -30 120t-108 34h-31v10h273v-10z" />
    <glyph glyph-name="ndotaccent" unicode="&#x1e45;" horiz-adv-x="734" 
d="M366 744q32 0 54.5 -22.5t22.5 -55.5q0 -32 -22.5 -54.5t-54.5 -22.5q-33 0 -55.5 22.5t-22.5 54.5q0 33 22.5 55.5t55.5 22.5zM288 402h2q19 49 67.5 80t113.5 31q81 0 125 -43.5t44 -121.5v-272q0 -37 14 -51.5t49 -14.5h24v-10h-345v10h17q32 0 44 14t12 52v306
q0 81 -68 81q-38 0 -67.5 -31t-29.5 -70v-286q0 -37 12.5 -51.5t44.5 -14.5h17v-10h-352v10h28q38 0 52 14t14 52v354q0 34 -13.5 47t-48.5 13h-32v10l276 6l5 -5z" />
    <glyph glyph-name="Pdotaccent" unicode="&#x1e56;" horiz-adv-x="747" 
d="M385 789q-33 0 -55.5 22.5t-22.5 54.5q0 33 22.5 55.5t55.5 22.5t55 -22.5t22 -55.5q0 -32 -22 -54.5t-55 -22.5zM18 700h450q116 0 180 -50.5t64 -142.5q0 -93 -65 -145t-181 -51h-158v-225q0 -43 21 -59.5t76 -16.5h49v-10h-436v10h33q37 0 51.5 14.5t14.5 51.5v548
q0 37 -15 51.5t-51 14.5h-33v10zM308 321h85q66 0 99.5 46.5t33.5 133.5q0 189 -129 189h-69q-11 0 -15.5 -4.5t-4.5 -15.5v-349z" />
    <glyph glyph-name="pdotaccent" unicode="&#x1e57;" horiz-adv-x="702" 
d="M382 744q33 0 55.5 -22.5t22.5 -55.5q0 -32 -22.5 -54.5t-55.5 -22.5q-32 0 -54.5 22.5t-22.5 54.5q0 33 22.5 55.5t54.5 22.5zM287 402h2q18 49 65 80t108 31q95 0 149.5 -63.5t55.5 -179.5q1 -128 -81.5 -204t-224.5 -76q-36 0 -72 11v-176q0 -37 14.5 -51t51.5 -14h27
v-10h-370v10h27q37 0 51 14t14 51v599q0 37 -14.5 51.5t-51.5 14.5h-26v10h270l5 -5v-93zM289 362v-351q39 -11 72 -11q57 0 85.5 64.5t27.5 206.5q-1 192 -93 192q-36 0 -64 -31t-28 -70z" />
    <glyph glyph-name="Sdotaccent" unicode="&#x1e60;" horiz-adv-x="668" 
d="M328 944q33 0 55.5 -22.5t22.5 -55.5q0 -32 -22.5 -54.5t-55.5 -22.5q-32 0 -54.5 22.5t-22.5 54.5q0 33 22.5 55.5t54.5 22.5zM62 273h9q17 -126 93 -199t177 -75q55 -1 91.5 30t36.5 78q0 32 -22.5 57.5t-59 43.5t-80.5 35t-88 38.5t-80.5 48t-59 68.5t-22.5 95
q0 96 72 158.5t185 62.5q52 0 96 -15t74 -30.5t50 -15.5q40 0 40 58h10v-220h-10q-28 95 -93 153t-152 58q-52 0 -85.5 -32.5t-33.5 -79.5q0 -41 23 -72t60 -51t81.5 -38t89 -37.5t81.5 -43.5t60 -63t23 -90q0 -94 -71.5 -151.5t-190.5 -57.5q-53 0 -97.5 13t-68 29t-48 29
t-41.5 13q-40 0 -40 -70h-9v273z" />
    <glyph glyph-name="sdotaccent" unicode="&#x1e61;" horiz-adv-x="539" 
d="M269 753q32 0 54.5 -22.5t22.5 -54.5q0 -33 -22.5 -55.5t-54.5 -22.5q-33 0 -55.5 22.5t-22.5 55.5q0 32 22.5 54.5t55.5 22.5zM54 197h10q23 -93 87 -145.5t119 -52.5q37 0 57.5 19.5t20.5 50.5q0 30 -30.5 52.5t-74.5 40t-87.5 38.5t-74 59t-30.5 90q0 73 56 118.5
t145 45.5q60 0 109 -21t64 -21q33 0 33 35h10v-180h-10q-49 175 -183 175q-32 0 -52.5 -20t-20.5 -48q0 -36 30.5 -61.5t74.5 -42t88 -35.5t74.5 -55t30.5 -88q0 -77 -55.5 -121t-156.5 -44q-46 0 -84 18.5t-64 37t-42 18.5q-34 0 -34 -63h-10v200z" />
    <glyph glyph-name="Tdotaccent" unicode="&#x1e6a;" horiz-adv-x="746" 
d="M364 944q32 0 54.5 -22.5t22.5 -55.5q0 -32 -22.5 -54.5t-54.5 -22.5q-33 0 -55.5 22.5t-22.5 54.5q0 33 22.5 55.5t55.5 22.5zM717 444l-10 -1q-26 134 -62.5 190.5t-91.5 56.5h-71q-20 0 -20 -21v-593q0 -37 15 -51.5t52 -14.5h32v-10h-390v10h32q38 0 52.5 14.5
t14.5 51.5v593q0 12 -4.5 16.5t-15.5 4.5h-70q-47 0 -81 -56.5t-60 -190.5l-10 1l25 256h643z" />
    <glyph glyph-name="tdotaccent" unicode="&#x1e6b;" horiz-adv-x="383" 
d="M171 893q33 0 55.5 -22.5t22.5 -54.5q0 -33 -22.5 -55.5t-55.5 -22.5t-55 22.5t-22 55.5q0 32 22 54.5t55 22.5zM259 500h90v-10h-90v-399q0 -67 49 -67q26 0 42 19.5t16 53.5h10q0 -53 -37 -82t-109 -29q-155 0 -155 148v356h-63v10h42q91 0 143 43.5t52 156.5h10v-200z
" />
    <glyph glyph-name="Wgrave" unicode="&#x1e80;" horiz-adv-x="1250" 
d="M655 787l-7 -6q-22 22 -46 39.5t-55 37t-41 26.5q-43 28 -43 62q0 22 16 37.5t39 15.5q41 0 60 -50q39 -103 77 -162zM1242 700v-10h-23q-45 0 -73 -33t-67 -125l-233 -532h-17l-187 463l-234 -463h-16l-251 588q-28 63 -49 82.5t-68 19.5h-15v10h411v-10h-25
q-28 0 -43 -14t-15 -38q0 -20 11 -45l157 -376l131 260l-60 151q-14 36 -28.5 49t-40.5 13h-15v10h377v-10h-22q-30 0 -46.5 -15.5t-16.5 -41.5q0 -9 14 -53l134 -357l135 311q26 60 26 96q0 28 -19.5 44t-53.5 16h-47v10h269z" />
    <glyph glyph-name="wgrave" unicode="&#x1e81;" horiz-adv-x="952" 
d="M520 587l-7 -6q-22 22 -45.5 39.5t-56 37.5t-41.5 26q-42 27 -42 62q0 22 16 37.5t39 15.5q41 0 60 -50q39 -103 77 -162zM945 500v-10h-17q-31 0 -55.5 -26.5t-51.5 -85.5l-169 -378h-10l-161 318l-158 -318h-11l-206 417q-21 43 -37.5 58t-47.5 15h-14v10h344v-10h-19
q-40 0 -40 -35q0 -14 20 -54l98 -205l152 304h10l154 -309l84 190q14 30 14 52q0 26 -18.5 41.5t-49.5 15.5h-40v10h229z" />
    <glyph glyph-name="Wacute" unicode="&#x1e82;" horiz-adv-x="1250" 
d="M652 781l-7 6q38 59 77 162q19 50 60 50q23 0 39 -15.5t16 -37.5q0 -35 -42 -62q-9 -6 -41.5 -26t-56 -37.5t-45.5 -39.5zM1242 700v-10h-23q-45 0 -73 -33t-67 -125l-233 -532h-17l-187 463l-234 -463h-16l-251 588q-28 63 -49 82.5t-68 19.5h-15v10h411v-10h-25
q-28 0 -43 -14t-15 -38q0 -20 11 -45l157 -376l131 260l-60 151q-14 36 -28.5 49t-40.5 13h-15v10h377v-10h-22q-30 0 -46.5 -15.5t-16.5 -41.5q0 -9 14 -53l134 -357l135 311q26 60 26 96q0 28 -19.5 44t-53.5 16h-47v10h269z" />
    <glyph glyph-name="wacute" unicode="&#x1e83;" horiz-adv-x="952" 
d="M517 581l-7 6q38 59 77 162q19 50 60 50q23 0 39 -15.5t16 -37.5q0 -35 -42 -62q-9 -6 -41.5 -26t-56 -37.5t-45.5 -39.5zM945 500v-10h-17q-31 0 -55.5 -26.5t-51.5 -85.5l-169 -378h-10l-161 318l-158 -318h-11l-206 417q-21 43 -37.5 58t-47.5 15h-14v10h344v-10h-19
q-40 0 -40 -35q0 -14 20 -54l98 -205l152 304h10l154 -309l84 190q14 30 14 52q0 26 -18.5 41.5t-49.5 15.5h-40v10h229z" />
    <glyph glyph-name="Wdieresis" unicode="&#x1e84;" horiz-adv-x="1250" 
d="M770 788q-32 0 -54.5 22t-22.5 55t22.5 55.5t54.5 22.5t55 -22.5t23 -55.5t-22.5 -55t-55.5 -22zM520 787q-33 0 -55.5 22t-22.5 55t23 55.5t55 22.5t54.5 -22.5t22.5 -55.5t-22.5 -55t-54.5 -22zM1242 700v-10h-23q-45 0 -73 -33t-67 -125l-233 -532h-17l-187 463
l-234 -463h-16l-251 588q-28 63 -49 82.5t-68 19.5h-15v10h411v-10h-25q-28 0 -43 -14t-15 -38q0 -20 11 -45l157 -376l131 260l-60 151q-14 36 -28.5 49t-40.5 13h-15v10h377v-10h-22q-30 0 -46.5 -15.5t-16.5 -41.5q0 -9 14 -53l134 -357l135 311q26 60 26 96
q0 28 -19.5 44t-53.5 16h-47v10h269z" />
    <glyph glyph-name="wdieresis" unicode="&#x1e85;" horiz-adv-x="952" 
d="M635 588q-32 0 -54.5 22t-22.5 55t22.5 55.5t54.5 22.5t55 -22.5t23 -55.5t-22.5 -55t-55.5 -22zM385 587q-33 0 -55.5 22t-22.5 55t23 55.5t55 22.5t54.5 -22.5t22.5 -55.5t-22.5 -55t-54.5 -22zM945 500v-10h-17q-31 0 -55.5 -26.5t-51.5 -85.5l-169 -378h-10l-161 318
l-158 -318h-11l-206 417q-21 43 -37.5 58t-47.5 15h-14v10h344v-10h-19q-40 0 -40 -35q0 -14 20 -54l98 -205l152 304h10l154 -309l84 190q14 30 14 52q0 26 -18.5 41.5t-49.5 15.5h-40v10h229z" />
    <glyph glyph-name="Etilde" unicode="&#x1ebc;" horiz-adv-x="725" 
d="M217 765l-9 -5q-28 40 -28 83q0 45 26 72.5t69 27.5q36 0 105.5 -30.5t98.5 -30.5q18 0 28.5 9.5t10.5 23.5q0 24 -16 48l9 6q43 -46 43 -98q0 -37 -21.5 -57.5t-61.5 -20.5q-34 0 -106 32.5t-110 32.5q-48 0 -48 -51q0 -25 10 -42zM685 270l-37 -265l-5 -5h-625v10h31
q37 0 51.5 14t14.5 52v548q0 38 -14.5 52t-51.5 14h-31v10h609l5 -5l31 -255l-10 -2q-37 145 -81 198.5t-116 53.5h-130q-20 0 -20 -20v-312h93q64 0 88 28t24 101h10v-272h-10q0 76 -24 104.5t-88 28.5h-93v-317q0 -20 20 -21h143q79 -1 127.5 59t78.5 202z" />
    <glyph glyph-name="etilde" unicode="&#x1ebd;" horiz-adv-x="602" 
d="M155 565l-8 -5q-29 39 -29 83q0 45 26.5 72.5t69.5 27.5q35 0 105 -30.5t99 -30.5q18 0 28.5 9.5t10.5 23.5q0 24 -16 48l8 6q44 -47 44 -98q0 -37 -22 -57.5t-61 -20.5q-35 0 -107 32.5t-109 32.5q-23 0 -36 -13.5t-13 -37.5q0 -22 10 -42zM569 86l7 -8
q-115 -92 -257 -92q-132 0 -208.5 68t-76.5 188q0 123 79.5 197t213.5 74q114 0 178 -59t64 -160l-5 -5h-344v-13q0 -143 37 -206.5t125 -63.5q89 0 187 80zM220 299h149q17 0 24 8t7 30q0 76 -23 121t-62 45q-40 0 -66 -55.5t-29 -148.5z" />
    <glyph glyph-name="Ygrave" unicode="&#x1ef2;" horiz-adv-x="801" 
d="M426 787l-8 -6q-22 22 -45 39t-56 38t-41 26q-42 27 -42 62q0 22 16 37.5t39 15.5q41 0 60 -50q39 -103 77 -162zM792 700v-10h-11q-34 0 -64 -28t-67 -97l-139 -266v-220q0 -39 15.5 -54t55.5 -15h34v-10h-411v10h38q42 0 58 15t16 54v196l-196 358q-18 33 -39 45
t-57 12h-16v10h406v-10h-33q-21 0 -34 -11.5t-13 -29.5q0 -21 14 -44l157 -287l121 229q30 58 30 85q0 58 -87 58h-33v10h255z" />
    <glyph glyph-name="ygrave" unicode="&#x1ef3;" horiz-adv-x="655" 
d="M370 587l-8 -5q-22 22 -45 39t-56.5 38t-40.5 25q-43 29 -43 63q0 22 16.5 37t39.5 15q40 0 59 -50q45 -111 78 -162zM648 500v-10h-17q-27 0 -51 -24t-56 -87l-229 -474q-44 -87 -83.5 -126t-90.5 -39t-82.5 29.5t-31.5 78.5q0 39 23.5 64.5t57.5 25.5q37 0 59 -21
t22 -56q0 -31 -22 -54t-55 -23q-28 0 -48 17.5t-27 46.5q-1 -44 28 -71t76 -27t84.5 38t80.5 121l40 84l-211 423q-22 44 -38 59t-47 15h-13v10h345v-10h-19q-40 0 -40 -35q0 -17 17 -54l99 -214l94 195q15 29 15 51q0 26 -21.5 41.5t-57.5 15.5h-30v10h229z" />
    <glyph glyph-name="Ytilde" unicode="&#x1ef8;" horiz-adv-x="801" 
d="M267 765l-9 -5q-28 40 -28 83q0 45 26 72.5t69 27.5q36 0 105.5 -30.5t98.5 -30.5q18 0 28.5 9.5t10.5 23.5q0 24 -16 48l9 6q44 -47 44 -98q0 -37 -22 -57.5t-62 -20.5q-35 0 -106 32.5t-109 32.5q-49 0 -49 -51q0 -25 10 -42zM792 700v-10h-11q-34 0 -64 -28t-67 -97
l-139 -266v-220q0 -39 15.5 -54t55.5 -15h34v-10h-411v10h38q42 0 58 15t16 54v196l-196 358q-18 33 -39 45t-57 12h-16v10h406v-10h-33q-21 0 -34 -11.5t-13 -29.5q0 -21 14 -44l157 -287l121 229q30 58 30 85q0 58 -87 58h-33v10h255z" />
    <glyph glyph-name="ytilde" unicode="&#x1ef9;" horiz-adv-x="655" 
d="M211 565l-9 -5q-28 40 -28 84q0 45 26 72t69 27q36 0 105.5 -30t98.5 -30q18 0 28.5 9t10.5 24q0 24 -16 48l9 6q43 -46 43 -99q0 -36 -21.5 -56.5t-61.5 -20.5q-34 0 -106 32t-110 32q-48 0 -48 -51q0 -25 10 -42zM648 500v-10h-17q-27 0 -51 -24t-56 -87l-229 -474
q-44 -87 -83.5 -126t-90.5 -39t-82.5 29.5t-31.5 78.5q0 39 23.5 64.5t57.5 25.5q37 0 59 -21t22 -56q0 -31 -22 -54t-55 -23q-28 0 -48 17.5t-27 46.5q-1 -44 28 -71t76 -27t84.5 38t80.5 121l40 84l-211 423q-22 44 -38 59t-47 15h-13v10h345v-10h-19q-40 0 -40 -35
q0 -17 17 -54l99 -214l94 195q15 29 15 51q0 26 -21.5 41.5t-57.5 15.5h-30v10h229z" />
    <glyph glyph-name="endash" unicode="&#x2013;" horiz-adv-x="744" 
d="M704 235h-664v10h664v-10z" />
    <glyph glyph-name="emdash" unicode="&#x2014;" horiz-adv-x="1093" 
d="M1053 235h-1013v10h1013v-10z" />
    <glyph glyph-name="quoteleft" unicode="&#x2018;" horiz-adv-x="278" 
d="M209 726v-10q-144 -2 -144 -144q2 29 24.5 48t54.5 19q37 0 59 -21.5t22 -56.5q0 -38 -23.5 -61t-61.5 -23q-39 0 -62 26t-23 69q1 154 154 154z" />
    <glyph glyph-name="quoteright" unicode="&#x2019;" horiz-adv-x="278" 
d="M70 470v10q144 2 144 143q-2 -29 -24.5 -48t-54.5 -19q-37 0 -59 21.5t-22 56.5q0 38 23.5 61t61.5 23q39 0 62 -25.5t23 -69.5q-2 -153 -154 -153z" />
    <glyph glyph-name="quotesinglbase" unicode="&#x201a;" horiz-adv-x="283" 
d="M65 -97v10q144 2 144 144q-2 -29 -24 -48t-55 -19q-36 0 -58 21.5t-22 56.5q0 38 23.5 61t61.5 23q39 0 62 -26t22 -69q0 -154 -154 -154z" />
    <glyph glyph-name="quotedblleft" unicode="&#x201c;" horiz-adv-x="498" 
d="M209 726v-10q-144 -2 -144 -144q2 29 24.5 48t54.5 19q37 0 59 -21.5t22 -56.5q0 -38 -23.5 -61t-61.5 -23q-39 0 -62 26t-23 69q1 154 154 154zM429 726v-10q-144 -2 -144 -144q2 29 24.5 48t54.5 19q36 0 58 -21.5t22 -56.5q0 -38 -23 -61t-62 -23t-62 26t-22 69
q0 154 154 154z" />
    <glyph glyph-name="quotedblright" unicode="&#x201d;" horiz-adv-x="497" 
d="M70 470v10q144 2 144 143q-2 -29 -24.5 -48t-54.5 -19q-37 0 -59 21.5t-22 56.5q0 38 23.5 61t61.5 23q39 0 62 -25.5t23 -69.5q-2 -153 -154 -153zM289 470v10q144 2 144 143q-2 -29 -24.5 -48t-54.5 -19q-37 0 -59 21.5t-22 56.5q0 38 23.5 61t61.5 23q39 0 62 -25.5
t23 -69.5q-1 -153 -154 -153z" />
    <glyph glyph-name="quotedblbase" unicode="&#x201e;" horiz-adv-x="519" 
d="M301 -97v10q144 2 144 144q-2 -29 -24 -48t-55 -19q-36 0 -58 21.5t-22 56.5q0 38 23.5 61t61.5 23q39 0 62 -26t22 -69q0 -154 -154 -154zM65 -101v10q144 2 144 144q-2 -29 -24 -48t-55 -19q-36 0 -58 21.5t-22 56.5q0 38 23.5 61t61.5 23q39 0 62 -26t22 -69
q0 -154 -154 -154z" />
    <glyph glyph-name="dagger" unicode="&#x2020;" horiz-adv-x="514" 
d="M259 -70h-10q0 220 -14.5 319.5t-45.5 147.5q26 22 43.5 59t18.5 71q-50 -1 -95.5 -28t-66.5 -27q-27 0 -43.5 16t-16.5 43t16.5 43.5t43.5 16.5q21 0 66.5 -27t95.5 -29q-1 41 -14.5 71t-27 51.5t-13.5 41.5q0 28 16.5 44.5t44.5 16.5t44.5 -16.5t16.5 -44.5
q0 -20 -14 -41.5t-28 -51.5t-15 -71q51 1 97 28.5t67 27.5q28 0 44 -16.5t16 -43.5t-16 -43t-44 -16q-21 0 -67 27t-97 28q1 -34 19 -71t46 -59q-34 -50 -50.5 -149.5t-16.5 -317.5z" />
    <glyph glyph-name="daggerdbl" unicode="&#x2021;" horiz-adv-x="516" 
d="M258 753q27 0 43.5 -17.5t16.5 -46.5q0 -23 -14 -44.5t-28 -50.5t-14 -70q41 1 70 15.5t50 28t42 13.5q29 0 46 -16.5t17 -44.5t-17 -44.5t-46 -16.5q-21 0 -42 13.5t-50 28t-70 15.5q0 -118 65 -170q-65 -52 -65 -172q41 1 70 15.5t50 28t42 13.5q29 0 46 -16.5
t17 -44.5t-17 -44.5t-46 -16.5q-21 0 -42 13.5t-50 28t-70 15.5q0 -43 14.5 -74t29 -52.5t14.5 -39.5q0 -29 -17 -46t-45 -17q-29 0 -45.5 17t-16.5 46q0 18 14 39.5t28 52.5t14 74q-40 -2 -68.5 -16t-49.5 -27.5t-43 -13.5q-28 0 -45 16.5t-17 44.5t17 44.5t45 16.5
q22 0 43 -13.5t49.5 -27.5t68.5 -16q0 119 -63 172q63 53 63 170q-40 -2 -69 -16t-50 -27.5t-42 -13.5q-28 0 -45 16.5t-17 44.5t17 44.5t45 16.5q21 0 42 -13.5t50 -27.5t69 -16q0 52 -27.5 96.5t-27.5 68.5q0 29 16.5 46.5t44.5 17.5z" />
    <glyph glyph-name="bullet" unicode="&#x2022;" horiz-adv-x="445" 
d="M223 513q71 0 121.5 -51t50.5 -122t-50.5 -121.5t-121.5 -50.5q-72 0 -122.5 50.5t-50.5 121.5t50.5 122t122.5 51z" />
    <glyph glyph-name="ellipsis" unicode="&#x2026;" horiz-adv-x="870" 
d="M145 164q37 0 63 -26t26 -63t-26 -63t-63 -26t-62.5 26t-25.5 63t25.5 63t62.5 26zM436 164q37 0 62.5 -26t25.5 -63t-25.5 -63t-62.5 -26t-63 26t-26 63t25.5 63t63.5 26zM725 164q37 0 62.5 -26t25.5 -63t-25.5 -63t-62.5 -26t-63 26t-26 63t26 63t63 26z" />
    <glyph glyph-name="perthousand" unicode="&#x2030;" horiz-adv-x="1253" 
d="M207 729q66 0 114 -45.5t48 -111.5t-48.5 -113t-114.5 -47q-67 0 -116 46t-49 111q0 67 49 113.5t117 46.5zM743 715l-639 -727l-8 7l639 727zM206 716q-59 0 -59 -147q0 -143 59 -143q57 0 57 145t-57 145zM625 308q66 0 114 -45.5t48 -111.5t-48.5 -113t-114.5 -47
q-67 0 -116 46t-49 111q0 67 49 113.5t117 46.5zM1050 308q66 0 114 -45.5t48 -111.5t-48.5 -113t-114.5 -47q-67 0 -116 46t-49 111q0 67 49 113.5t117 46.5zM624 295q-59 0 -59 -147q0 -143 59 -143q57 0 57 145t-57 145zM1049 295q-59 0 -59 -147q0 -143 59 -143
q57 0 57 145t-57 145z" />
    <glyph glyph-name="guilsinglleft" unicode="&#x2039;" horiz-adv-x="431" 
d="M393 494l6 -6q-137 -174 -208 -237q34 -24 101 -101t108 -138l-6 -6q-79 77 -180 139t-194 101v8q93 40 194.5 103t178.5 137z" />
    <glyph glyph-name="guilsinglright" unicode="&#x203a;" horiz-adv-x="431" 
d="M32 488l6 6q77 -74 178.5 -137t194.5 -103v-8q-93 -39 -193 -101t-180 -139l-7 6q42 62 108.5 138.5t100.5 100.5q-71 63 -208 237z" />
    <glyph glyph-name="fraction" unicode="&#x2044;" horiz-adv-x="203" 
d="M486 709l-740 -741l-10 11l741 740z" />
    <glyph glyph-name="zerosuperior" unicode="&#x2070;" horiz-adv-x="437" 
d="M227 869q76 0 126 -56t50 -148q0 -90 -56 -147.5t-141 -57.5q-76 0 -125.5 56.5t-49.5 148.5q0 90 55.5 147t140.5 57zM217 859q-62 0 -62 -194q0 -195 60 -195q65 0 65 195q0 194 -63 194z" />
    <glyph glyph-name="foursuperior" unicode="&#x2074;" horiz-adv-x="403" 
d="M12 587l-3 12q47 23 91.5 98.5t46.5 159.5q68 -20 127 0q-3 -86 -75.5 -161t-177.5 -99h181v60q48 10 78.5 51t30.5 86h9v-197h71v-10h-71v-67q0 -22 13 -31t45 -9v-10h-246v10q39 0 54.5 9t15.5 31v67h-190z" />
    <glyph glyph-name="fivesuperior" unicode="&#x2075;" horiz-adv-x="381" 
d="M64 864v-40q29 49 73 49q23 0 62.5 -18t66.5 -18q46 0 46 33l6 1q19 -53 -3.5 -89t-71.5 -36q-36 0 -69.5 22t-59.5 38.5t-50 5.5v-147q46 28 130 28q76 0 116.5 -31.5t40.5 -81.5q0 -54 -47 -87t-124 -32q-70 1 -106.5 25.5t-36.5 64.5q0 25 15 41t38 16q20 0 34 -14
t14 -35q0 -20 -12.5 -32.5t-32.5 -12.5q-33 0 -47 37q0 -31 27.5 -52t68.5 -21q40 0 67 27t27 73q0 49 -24 74t-66 25q-37 0 -85 -23l-7 4v206h10z" />
    <glyph glyph-name="sixsuperior" unicode="&#x2076;" horiz-adv-x="413" 
d="M251 695q60 0 95 -30t35 -81q0 -53 -46 -87.5t-123 -35.5q-73 -1 -126 48t-53 151q0 103 65 155t149 52q53 0 84 -24t31 -61q0 -24 -14 -38.5t-36 -14.5t-35 12.5t-13 32.5q0 22 12.5 34.5t32.5 12.5q36 0 44 -38q0 31 -27 52.5t-66 21.5q-50 0 -78 -44.5t-28 -126.5v-14
q44 23 97 23zM216 471q28 0 40.5 24t12.5 82q0 101 -57 101q-31 0 -57 -16q0 -74 8 -117t20.5 -58.5t32.5 -15.5z" />
    <glyph glyph-name="sevensuperior" unicode="&#x2077;" horiz-adv-x="317" 
d="M287 862h9q0 -40 -14 -77t-30.5 -62.5t-28.5 -76.5t-9 -118q1 -32 -16.5 -50t-48.5 -18q-30 0 -47.5 17t-19.5 46q-2 39 14 71t42 56t53 45.5t52 49.5t36 59q-20 10 -45 -4t-61.5 -34.5t-74.5 -20.5q-49 0 -71.5 35.5t-2.5 92.5l6 -1q0 -37 45 -37q24 0 63 17t65 17
q52 0 79 -53q6 22 5 46z" />
    <glyph glyph-name="eightsuperior" unicode="&#x2078;" horiz-adv-x="395" 
d="M195 869q74 0 114.5 -25t40.5 -69q0 -94 -124 -100q66 -1 101 -28.5t35 -77.5q0 -51 -43 -80t-118 -29q-79 0 -123.5 27.5t-44.5 77.5t36 79.5t99 30.5q-59 1 -91.5 26t-32.5 66q0 46 40.5 74t110.5 28zM196 859q-45 0 -45 -91q0 -89 46 -89t46 89q0 91 -47 91zM197 669
q-51 0 -51 -95q0 -104 52 -104q26 0 39 24t13 80q0 95 -53 95z" />
    <glyph glyph-name="ninesuperior" unicode="&#x2079;" horiz-adv-x="413" 
d="M201 867q73 1 126.5 -48t53.5 -151q0 -53 -19.5 -94.5t-51.5 -65t-68.5 -35.5t-74.5 -12q-54 0 -85 24t-31 61q0 25 14 39t37 14q22 0 34.5 -12.5t12.5 -32.5q0 -22 -12.5 -34.5t-32.5 -12.5q-35 0 -43 39q0 -32 26.5 -53t66.5 -21q50 0 77.5 44t27.5 126v14
q-44 -23 -97 -23q-60 0 -94.5 29t-34.5 77q0 56 46 91t122 37zM202 650q30 0 57 16q-1 109 -16 150t-45 41q-29 0 -41.5 -24t-12.5 -82q0 -101 58 -101z" />
    <glyph glyph-name="euro" unicode="&#x20ac;" horiz-adv-x="749" 
d="M678 458h-10q-24 110 -81.5 173t-128.5 63q-69 0 -109.5 -79.5t-43.5 -232.5h211v-10h-211l-1 -18q0 -9 0.5 -25t0.5 -24h211v-10h-210q14 -282 157 -282q76 0 130.5 56.5t73.5 152.5h10v-232h-10q0 53 -53 53q-16 0 -43.5 -14t-68.5 -28.5t-89 -14.5q-133 0 -215.5 83.5
t-93.5 225.5h-79v10h79q-1 11 -1 33v34h-78v10h79q11 151 96.5 241t219.5 90q41 0 75.5 -10.5t53 -23t39 -23t37.5 -10.5q19 0 30.5 16t12.5 43h10v-247z" />
    <glyph glyph-name="trademark" unicode="&#x2122;" horiz-adv-x="687" 
d="M281 656h-8q-22 84 -55 84h-23q-7 0 -7 -8v-200q0 -24 36 -24v-8h-148v8q20 0 27 5.5t7 18.5v200q0 6 -8 8h-22q-24 0 -47 -84h-7l8 94h240zM662 750v-8q-19 0 -26 -7t-7 -26v-176q0 -14 7 -19.5t26 -5.5v-8h-143v8q33 0 33 25v192l-99 -225h-6l-108 214v-153
q0 -31 8.5 -42t33.5 -11v-8h-86v8q20 0 27.5 11t7.5 42v140q0 41 -35 41v8h111l79 -157l68 157h109z" />
    <glyph glyph-name="oneeighth" unicode="&#x215b;" horiz-adv-x="946" 
d="M230 725v-348q0 -22 13.5 -30.5t50.5 -8.5v-10h-245v10q37 0 50.5 8.5t13.5 30.5v246q0 31 -23 36q-17 4 -52 0v10q118 7 185 59zM821 709l-740 -742l-10 12l740 740zM690 388q73 0 114 -25t41 -69q0 -94 -125 -100q66 -1 101 -28.5t35 -77.5q0 -51 -43 -80t-118 -29
q-79 0 -123.5 27.5t-44.5 77.5t36 79.5t99 30.5q-59 1 -91.5 26t-32.5 66q0 46 40.5 74t111.5 28zM691 378q-45 0 -45 -91q0 -89 45 -89q46 0 46 89q0 91 -46 91zM691 188q-50 0 -50 -95q0 -56 13 -80t39 -24q51 0 51 104q0 95 -53 95z" />
    <glyph glyph-name="threeeighths" unicode="&#x215c;" horiz-adv-x="963" 
d="M855 709l-740 -742l-10 12l740 740zM176 511v10q36 0 57.5 24t21.5 65q0 36 -22 57.5t-56 21.5q-40 0 -63.5 -19.5t-23.5 -51.5q10 38 44 38q19 0 31 -12t12 -32q0 -21 -13 -33.5t-35 -12.5q-23 0 -36 14t-13 39q0 41 39 65.5t108 24.5q59 0 96 -25.5t37 -70.5
q0 -44 -42 -70t-110 -26q164 -3 164 -104q0 -53 -42.5 -83t-119.5 -30q-69 0 -104.5 23.5t-35.5 64.5q0 24 15 40t36 16t34.5 -13.5t13.5 -34.5t-12 -33.5t-32 -12.5q-37 0 -45 38q0 -33 24.5 -53t63.5 -20t62.5 27t23.5 72q0 46 -20.5 72t-57.5 25zM717 390q74 0 114.5 -25
t40.5 -69q0 -94 -124 -100q66 -1 101 -28.5t35 -77.5q0 -51 -43 -80t-118 -29q-79 0 -123.5 27.5t-44.5 77.5t36 79.5t99 30.5q-59 1 -91.5 26t-32.5 66q0 46 40.5 74t110.5 28zM718 380q-45 0 -45 -91q0 -89 46 -89t46 89q0 91 -47 91zM719 190q-51 0 -51 -95
q0 -104 52 -104q26 0 39 24t13 80q0 95 -53 95z" />
    <glyph glyph-name="fiveeighths" unicode="&#x215d;" horiz-adv-x="963" 
d="M853 709l-740 -742l-10 12l740 740zM84 704v-40q31 49 74 49q23 0 62.5 -18t66.5 -18q46 0 46 33l6 1q19 -53 -3.5 -89t-72.5 -36q-36 0 -69.5 22t-59.5 38.5t-50 5.5v-147q48 28 131 28q76 0 116 -31.5t40 -81.5q0 -54 -47 -87t-124 -32q-69 1 -106 25.5t-37 64.5
q0 25 15 41t38 16q21 0 34.5 -13.5t13.5 -35.5q0 -20 -12 -32.5t-32 -12.5q-35 0 -47 37q0 -31 27 -52t68 -21t68 27t27 73q0 49 -24.5 74t-66.5 25q-35 0 -85 -23l-7 4v206h10zM708 393q74 0 114.5 -25t40.5 -69q0 -94 -124 -100q66 -1 101 -28.5t35 -77.5q0 -51 -43 -80
t-118 -29q-79 0 -123.5 27.5t-44.5 77.5t36 79.5t99 30.5q-59 1 -91.5 26t-32.5 66q0 46 40.5 74t110.5 28zM709 383q-45 0 -45 -91q0 -89 46 -89t46 89q0 91 -47 91zM710 193q-51 0 -51 -95q0 -104 52 -104q26 0 39 24t13 80q0 95 -53 95z" />
    <glyph glyph-name="seveneighths" unicode="&#x215e;" horiz-adv-x="963" 
d="M826 709l-739 -742l-11 12l740 740zM362 702h9q0 -40 -14 -77t-30.5 -62.5t-28.5 -76.5t-9 -118q0 -32 -17.5 -50t-48.5 -18q-30 0 -47.5 17t-18.5 46q-2 39 14 71t42 56t53 45.5t52 49.5t36 59q-20 10 -45.5 -4t-61.5 -34.5t-74 -20.5q-50 0 -72.5 35.5t-2.5 92.5l7 -1
q0 -37 45 -37q24 0 63 17t65 17q50 0 79 -53q6 22 5 46zM734 195q66 -1 101 -28.5t35 -77.5q0 -51 -43 -80t-118 -29q-79 0 -123.5 27.5t-44.5 77.5t36 79.5t99 30.5q-59 1 -91.5 26t-32.5 66q0 46 40.5 74t110.5 28q74 0 114.5 -25t40.5 -70q0 -93 -124 -99zM659 288
q0 -89 46 -89t46 89q0 91 -47 91q-45 0 -45 -91zM706 -10q26 0 39 23.5t13 80.5q0 95 -53 95q-51 0 -51 -95q0 -104 52 -104z" />
    <glyph glyph-name="partialdiff" unicode="&#x2202;" horiz-adv-x="720" 
d="M152 658l-7 13q79 42 194 42q148 0 233.5 -88.5t85.5 -244.5q0 -171 -100 -280.5t-250 -109.5q-115 0 -183.5 60t-68.5 156q0 109 73 176t192 67q87 0 152 -36q2 40 2 63q0 113 -40.5 167t-125.5 54q-81 0 -157 -39zM308 3q67 0 111.5 113.5t53.5 283.5q-45 27 -88 27
q-153 0 -153 -289q0 -67 21 -101t55 -34z" />
    <glyph glyph-name="emptyset" unicode="&#x2205;" horiz-adv-x="485" 
d="M448 573l-67 -78q69 -62 69 -154q0 -85 -61 -146t-146 -61q-76 0 -132 48l-68 -79l-7 5l68 79q-68 62 -68 154q0 85 61 146t146 61q73 0 131 -47l68 78zM110 195l258 298q-55 45 -125 45q-82 0 -139.5 -57.5t-57.5 -139.5q0 -87 64 -146zM374 488l-257 -299
q55 -45 126 -45q82 0 139.5 57.5t57.5 139.5q0 88 -66 147z" />
    <glyph glyph-name="product" unicode="&#x220f;" horiz-adv-x="645" 
d="M620 693h-101v-776h-10v776h-363v-776h-10v776h-111v10h595v-10z" />
    <glyph glyph-name="summation" unicode="&#x2211;" horiz-adv-x="687" 
d="M645 696h-422l282 -317l-331 -342h471v-142h-601v10l346 361l-347 428v12h602v-10z" />
    <glyph glyph-name="minus" unicode="&#x2212;" horiz-adv-x="532" 
d="M492 344h-452v10h452v-10z" />
    <glyph glyph-name="radical" unicode="&#x221a;" horiz-adv-x="719" 
d="M769 785h-79l-354 -834h-13l-223 318l-95 -64l-5 8l250 178l161 -235l272 639h86v-10z" />
    <glyph glyph-name="infinity" unicode="&#x221e;" horiz-adv-x="802" 
d="M600 513q71 0 119 -47t48 -117q0 -69 -48 -115.5t-119 -46.5q-34 0 -64 11.5t-58.5 37t-45.5 44.5t-46 55q-54 -70 -98.5 -107t-100.5 -37q-65 0 -108.5 44t-43.5 109q1 65 44 108.5t108 43.5q26 0 51 -10t40 -19t40 -36t32.5 -36t35.5 -44q33 42 49.5 61t46.5 48
t58.5 41t59.5 12zM600 197q67 0 112 43.5t45 108.5q0 66 -45 110t-112 44q-31 0 -58.5 -12t-56.5 -40.5t-45 -47.5t-48 -60q29 -36 45.5 -55t44.5 -44t56.5 -36t61.5 -11zM187 201q36 0 72.5 22.5t60 48t60.5 71.5q-30 37 -44.5 54t-41.5 42.5t-52.5 36t-54.5 10.5
q-61 0 -101.5 -40.5t-40.5 -101.5t40.5 -102t101.5 -41z" />
    <glyph glyph-name="integral" unicode="&#x222b;" horiz-adv-x="555" 
d="M377 760q58 0 93 -32.5t35 -85.5q0 -39 -22.5 -63t-59.5 -24q-35 0 -56.5 22.5t-21.5 56.5t22.5 56t55.5 22q29 0 49.5 -20t21.5 -50q1 49 -31.5 78.5t-85.5 29.5q-57 0 -92.5 -40.5t-35.5 -109.5q0 -70 25.5 -150t55.5 -141t55.5 -141.5t25.5 -151.5q0 -126 -68 -201
t-179 -75q-51 0 -81.5 28t-30.5 75q0 34 20.5 56t52.5 22q31 0 49.5 -20t18.5 -52q0 -29 -18.5 -48t-49.5 -19q-26 0 -43.5 17t-19.5 44q0 -42 28 -67.5t74 -25.5q56 0 89 37.5t33 102.5q0 57 -27 132t-59 138t-59 147.5t-27 159.5q0 133 73 213t190 80z" />
    <glyph glyph-name="approxequal" unicode="&#x2248;" horiz-adv-x="614" 
d="M38 387h-10q0 44 23 68t65 24q36 0 85 -17t90.5 -37.5t98.5 -37.5t107 -17q37 0 58 23t21 64h10q0 -47 -23 -72t-66 -25q-51 0 -109 17t-99.5 37.5t-89.5 37.5t-83 17q-37 0 -57.5 -21.5t-20.5 -60.5zM38 200h-10q0 44 23 68t65 24q45 0 109 -27t136 -54.5t136 -27.5
q37 0 58 23t21 64h10q0 -47 -23 -72t-66 -25q-65 0 -138 27.5t-136.5 54.5t-106.5 27q-37 0 -57.5 -21.5t-20.5 -60.5z" />
    <glyph glyph-name="notequal" unicode="&#x2260;" horiz-adv-x="638" 
d="M374 460l-71 -213h310v-10h-313l-87 -262h-10l87 262h-265v10h268l71 213h-339v10h342l84 254h10l-84 -254h236v-10h-239z" />
    <glyph glyph-name="lessequal" unicode="&#x2264;" horiz-adv-x="658" 
d="M621 174l-597 224v10l599 222l4 -9l-590 -218l587 -219zM628 102v-10h-604v10h604z" />
    <glyph glyph-name="greaterequal" unicode="&#x2265;" horiz-adv-x="658" 
d="M634 408v-10l-597 -224l-3 10l587 219l-590 218l4 9zM30 102h604v-10h-604v10z" />
    <glyph glyph-name="lozenge" unicode="&#x25ca;" horiz-adv-x="464" 
d="M439 337l-200 -379h-10l-204 379l203 399h14zM427 337l-192 392l-198 -392l197 -369z" />
    <glyph glyph-name="zero.subs" horiz-adv-x="437" 
d="M228 209q77 0 127 -56t50 -148q0 -91 -56 -148t-142 -57q-76 0 -125 56.5t-49 148.5q0 90 55 147t140 57zM218 199q-61 0 -61 -194q0 -195 59 -195q65 0 65 195q0 194 -63 194z" />
    <glyph glyph-name="one.subs" horiz-adv-x="284" 
d="M201 207v-348q0 -22 13.5 -30.5t50.5 -8.5v-10h-245v10q37 0 50.5 8t13.5 31v247q0 31 -23 36q-17 3 -51 0l-1 9q119 7 185 59z" />
    <glyph glyph-name="two.subs" horiz-adv-x="376" 
d="M31 -188l-1 17q0 50 21 84.5t50.5 52.5t59 34t50.5 41.5t21 62.5q0 40 -24.5 64t-61.5 24q-38 0 -67 -24t-29 -59q12 41 49 41q20 0 33.5 -14t13.5 -34q0 -22 -14.5 -36t-37.5 -14t-38 16t-15 41q0 44 41 72t107 28q68 0 111.5 -30.5t43.5 -79.5q0 -57 -48.5 -90
t-127.5 -40q-122 -17 -128 -124q7 35 29.5 53t52.5 18q24 0 71.5 -11t73.5 -11q44 0 55 29q9 13 7 32l6 1q14 -34 14 -65q0 -41 -26 -66t-71 -25q-44 0 -94.5 20t-72.5 20q-32 0 -47 -30z" />
    <glyph glyph-name="three.subs" horiz-adv-x="371" 
d="M139 11v10q37 0 58.5 24t21.5 65q0 36 -22 57.5t-56 21.5q-40 0 -64 -19.5t-24 -51.5q10 38 45 38q19 0 31 -12t12 -32q0 -21 -13.5 -33.5t-34.5 -12.5q-23 0 -36.5 14t-13.5 39q0 42 39.5 66t108.5 24q58 0 95.5 -25.5t37.5 -70.5q0 -44 -42 -70t-111 -26
q165 -3 165 -104q0 -53 -43 -83t-120 -30q-69 0 -104 23.5t-35 64.5q0 24 14.5 40t36.5 16q21 0 34.5 -13.5t13.5 -34.5t-12.5 -33.5t-32.5 -12.5q-36 0 -45 38q0 -33 24.5 -53t63.5 -20q40 0 63.5 27.5t23.5 71.5q0 45 -21 71.5t-58 25.5z" />
    <glyph glyph-name="four.subs" horiz-adv-x="403" 
d="M12 -73l-3 12q47 23 91.5 98.5t46.5 159.5q68 -20 127 0q-3 -86 -75.5 -161t-177.5 -99h181v60q48 10 78.5 51t30.5 86h9v-197h71v-10h-71v-67q0 -22 13 -31t45 -9v-10h-246v10q39 0 54.5 9t15.5 31v67h-190z" />
    <glyph glyph-name="five.subs" horiz-adv-x="381" 
d="M64 204v-40q29 49 73 49q23 0 62.5 -18t66.5 -18q46 0 46 33l6 1q19 -53 -3.5 -89t-71.5 -36q-36 0 -69.5 22t-59.5 38.5t-50 5.5v-147q46 28 130 28q76 0 116.5 -31.5t40.5 -81.5q0 -55 -47 -87.5t-124 -31.5q-70 1 -106.5 25t-36.5 64q0 25 15 41t38 16
q21 0 34.5 -13.5t13.5 -35.5q0 -20 -12.5 -32.5t-32.5 -12.5q-33 0 -47 37q0 -31 27.5 -52t68.5 -21q40 0 67 27.5t27 72.5q0 50 -24 75t-66 25q-39 0 -85 -24l-7 5v206h10z" />
    <glyph glyph-name="six.dnom" horiz-adv-x="413" 
d="M251 225q60 0 95 -30t35 -81q0 -53 -46 -87.5t-123 -35.5q-73 -1 -126 48t-53 151q0 103 65 155t149 52q53 0 84 -24t31 -61q0 -24 -14 -38.5t-36 -14.5t-35 12.5t-13 32.5q0 22 12.5 34.5t32.5 12.5q36 0 44 -38q0 31 -27 52.5t-66 21.5q-50 0 -78 -44.5t-28 -126.5v-14
q44 23 97 23zM216 1q28 0 40.5 24t12.5 82q0 101 -57 101q-31 0 -57 -16q0 -74 8 -117t20.5 -58.5t32.5 -15.5z" />
    <glyph glyph-name="seven.dnom" horiz-adv-x="317" 
d="M287 393h9q0 -40 -14 -77t-30.5 -63t-28.5 -77t-9 -118q1 -31 -16.5 -49t-48.5 -18q-30 0 -47.5 17t-19.5 46q-2 39 14 71t42 55.5t53 45t52 50t36 59.5q-20 10 -45 -4t-61.5 -34.5t-74.5 -20.5q-49 0 -71.5 35.5t-2.5 92.5l6 -1q0 -37 45 -37q24 0 63 17t65 17
q51 0 79 -54q6 23 5 47z" />
    <glyph glyph-name="six.subs" horiz-adv-x="413" 
d="M251 35q60 0 95 -30t35 -81q0 -54 -46 -88t-123 -35q-73 -1 -126 48t-53 151q0 103 65 155t149 52q53 0 84 -24t31 -61q0 -24 -14 -38.5t-36 -14.5t-35 12.5t-13 32.5q0 22 12.5 34.5t32.5 12.5q36 0 44 -38q0 31 -27 52.5t-66 21.5q-50 0 -78 -44.5t-28 -126.5v-14
q44 23 97 23zM216 -189q28 0 40.5 24t12.5 82q0 101 -57 101q-31 0 -57 -16q0 -74 8 -117t20.5 -58.5t32.5 -15.5z" />
    <glyph glyph-name="seven.subs" horiz-adv-x="317" 
d="M287 202h9q0 -40 -14 -77t-30.5 -62.5t-28.5 -76.5t-9 -118q1 -32 -16.5 -50t-48.5 -18q-30 0 -47.5 17t-19.5 46q-2 39 14 71t42 56t53 45.5t52 49.5t36 59q-20 10 -45 -4t-61.5 -34.5t-74.5 -20.5q-49 0 -71.5 35.5t-2.5 92.5l6 -1q0 -37 45 -37q24 0 63 17t65 17
q52 0 79 -53q6 22 5 46z" />
    <glyph glyph-name="eight.dnom" horiz-adv-x="395" 
d="M195 399q74 0 114.5 -25t40.5 -69q0 -94 -124 -100q66 -1 101 -28.5t35 -77.5q0 -51 -43 -80t-118 -29q-79 0 -123.5 27.5t-44.5 77.5t36 79.5t99 30.5q-59 1 -91.5 26t-32.5 66q0 46 40.5 74t110.5 28zM196 389q-45 0 -45 -91q0 -89 46 -89t46 89q0 91 -47 91zM197 199
q-51 0 -51 -95q0 -104 52 -104q26 0 39 24t13 80q0 95 -53 95z" />
    <glyph glyph-name="eight.subs" horiz-adv-x="395" 
d="M195 209q74 0 114.5 -25t40.5 -69q0 -94 -124 -100q66 -1 101 -28.5t35 -77.5q0 -51 -43 -80t-118 -29q-79 0 -123.5 27.5t-44.5 77.5t36 79.5t99 30.5q-59 1 -91.5 26t-32.5 66q0 46 40.5 74t110.5 28zM196 199q-45 0 -45 -91q0 -89 46 -89t46 89q0 91 -47 91zM197 9
q-51 0 -51 -95q0 -104 52 -104q26 0 39 23.5t13 80.5q0 95 -53 95z" />
    <glyph glyph-name="nine.dnom" horiz-adv-x="413" 
d="M201 397q73 1 126.5 -48t53.5 -151q0 -53 -19.5 -94.5t-51.5 -65t-68.5 -35.5t-74.5 -12q-54 0 -85 24t-31 61q0 25 14 39t37 14q22 0 34.5 -12.5t12.5 -32.5q0 -22 -12.5 -34.5t-32.5 -12.5q-35 0 -43 39q0 -32 26.5 -53t66.5 -21q50 0 77.5 44t27.5 126v14
q-44 -23 -97 -23q-60 0 -94.5 29t-34.5 77q0 56 46 91t122 37zM202 180q30 0 57 16q-1 109 -16 150t-45 41q-29 0 -41.5 -24t-12.5 -82q0 -101 58 -101z" />
    <glyph glyph-name="nine.subs" horiz-adv-x="413" 
d="M201 207q73 1 126.5 -48t53.5 -151q0 -103 -65 -155t-149 -52q-54 0 -85 24t-31 61q0 24 14 38.5t37 14.5q21 0 34 -12.5t13 -32.5q0 -22 -12.5 -34.5t-32.5 -12.5q-35 0 -43 38q0 -32 26.5 -53t66.5 -21q50 0 77.5 44.5t27.5 126.5v14q-44 -23 -97 -23q-60 0 -94.5 29
t-34.5 77q0 56 46 91t122 37zM202 -10q30 0 57 16q-1 109 -16 150t-45 41q-29 0 -41.5 -24t-12.5 -82q0 -101 58 -101z" />
    <glyph glyph-name="zero.numr" horiz-adv-x="437" 
d="M228 709q77 0 127 -56t50 -148q0 -90 -56 -147.5t-142 -57.5q-76 0 -125 56.5t-49 148.5q0 90 55 147t140 57zM218 699q-61 0 -61 -194q0 -195 59 -195q65 0 65 195q0 194 -63 194z" />
    <glyph glyph-name="one.numr" horiz-adv-x="284" 
d="M201 707v-348q0 -22 13.5 -30.5t50.5 -8.5v-10h-245v10q37 0 50.5 8t13.5 31v247q0 31 -23 36q-17 3 -51 0l-1 9q119 7 185 59z" />
    <glyph glyph-name="two.numr" horiz-adv-x="376" 
d="M31 312l-1 18q0 50 21 84t50.5 52t59 34t50.5 41.5t21 62.5q0 40 -24.5 64t-61.5 24q-38 0 -67 -24t-29 -59q12 41 49 41q20 0 33.5 -14t13.5 -34q0 -22 -14.5 -36t-37.5 -14t-38 16t-15 41q0 44 41 72t107 28q68 0 111.5 -30.5t43.5 -79.5q0 -57 -48.5 -90t-127.5 -39
q-122 -17 -128 -124q7 34 29.5 52t52.5 18q24 0 71.5 -11t73.5 -11q44 0 55 30q9 13 7 31l6 2q14 -36 14 -66q0 -41 -26 -66t-71 -25q-44 0 -94.5 20t-72.5 20q-32 0 -47 -30z" />
    <glyph glyph-name="three.numr" horiz-adv-x="371" 
d="M139 511v10q37 0 58.5 24t21.5 65q0 36 -22 57.5t-56 21.5q-40 0 -64 -19.5t-24 -51.5q10 38 45 38q19 0 31 -12t12 -32q0 -21 -13.5 -33.5t-34.5 -12.5q-23 0 -36.5 14t-13.5 39q0 42 39.5 66t108.5 24q58 0 95.5 -25.5t37.5 -70.5q0 -44 -42 -70t-111 -26
q165 -3 165 -104q0 -53 -43 -83t-120 -30q-69 0 -104 23.5t-35 64.5q0 25 14.5 40.5t36.5 15.5q21 0 34.5 -13.5t13.5 -34.5t-12.5 -33.5t-32.5 -12.5q-36 0 -45 38q0 -33 24.5 -53t63.5 -20q40 0 63.5 27.5t23.5 71.5q0 45 -21 71.5t-58 25.5z" />
    <glyph glyph-name="four.numr" horiz-adv-x="403" 
d="M12 427l-3 12q47 23 91.5 98.5t46.5 159.5q68 -20 127 0q-3 -86 -75.5 -161t-177.5 -99h181v60q48 10 78.5 51t30.5 86h9v-197h71v-10h-71v-67q0 -22 13 -31t45 -9v-10h-246v10q39 0 54.5 9t15.5 31v67h-190z" />
    <glyph glyph-name="five.numr" horiz-adv-x="381" 
d="M64 704v-40q29 49 73 49q23 0 62.5 -18t66.5 -18q46 0 46 33l6 1q19 -53 -3.5 -89t-71.5 -36q-36 0 -69.5 22t-59.5 38.5t-50 5.5v-147q46 28 130 28q76 0 116.5 -31.5t40.5 -81.5q0 -54 -47 -87t-124 -32q-70 1 -106.5 25.5t-36.5 64.5q0 25 15 41t38 16q20 0 34 -14
t14 -35q0 -20 -12.5 -32.5t-32.5 -12.5q-33 0 -47 37q0 -31 27.5 -52t68.5 -21q40 0 67 27t27 73q0 49 -24 74t-66 25q-37 0 -85 -23l-7 4v206h10z" />
    <glyph glyph-name="six.numr" horiz-adv-x="413" 
d="M251 535q60 0 95 -30t35 -81q0 -53 -46 -87.5t-123 -35.5q-73 -1 -126 48t-53 151q0 103 65 155t149 52q53 0 84 -24t31 -61q0 -24 -14 -38.5t-36 -14.5t-35 12.5t-13 32.5q0 22 12.5 34.5t32.5 12.5q36 0 44 -38q0 31 -27 52.5t-66 21.5q-50 0 -78 -44.5t-28 -126.5v-14
q44 23 97 23zM216 311q28 0 40.5 24t12.5 82q0 101 -57 101q-31 0 -57 -16q0 -74 8 -117t20.5 -58.5t32.5 -15.5z" />
    <glyph glyph-name="seven.numr" horiz-adv-x="317" 
d="M287 702h9q0 -40 -14 -77t-30.5 -62.5t-28.5 -76.5t-9 -118q1 -32 -16.5 -50t-48.5 -18q-30 0 -47.5 17t-19.5 46q-2 39 14 71t42 56t53 45.5t52 49.5t36 59q-20 10 -45 -4t-61.5 -34.5t-74.5 -20.5q-49 0 -71.5 35.5t-2.5 92.5l6 -1q0 -37 45 -37q24 0 63 17t65 17
q52 0 79 -53q6 22 5 46z" />
    <glyph glyph-name="g.alt" horiz-adv-x="596" 
d="M231 158v2q-82 9 -127.5 53t-45.5 112q0 84 65 134.5t178 50.5q103 0 167 -53q48 6 82 40.5t33 80.5q-7 -60 -66 -60q-32 0 -51.5 18.5t-19.5 50.5t21 52.5t54 20.5q31 0 51.5 -23.5t20.5 -58.5q0 -47 -33.5 -84t-83.5 -45q43 -41 43 -101q0 -90 -62.5 -141.5
t-170.5 -51.5q-119 0 -119 -56q0 -45 81 -42q22 0 76 4t80 4q82 0 126 -39.5t44 -111.5q0 -81 -74 -127.5t-208 -46.5q-91 0 -140 23.5t-49 67.5q0 40 33.5 63t93.5 23v4h-41q-65 0 -102 29t-37 79q0 57 47 92t134 37zM213 325q0 -160 73 -160q36 0 57 45.5t21 135.5
q0 154 -76 154q-75 0 -75 -175zM388 -93h-158q-56 0 -87 -20t-31 -56q0 -39 47 -60t132 -21q100 0 152 24.5t52 66.5q0 31 -28.5 48.5t-78.5 17.5z" />
    <glyph glyph-name="eight.numr" horiz-adv-x="395" 
d="M195 709q74 0 114.5 -25t40.5 -69q0 -94 -124 -100q66 -1 101 -28.5t35 -77.5q0 -51 -43 -80t-118 -29q-79 0 -123.5 27.5t-44.5 77.5t36 79.5t99 30.5q-59 1 -91.5 26t-32.5 66q0 46 40.5 74t110.5 28zM196 699q-45 0 -45 -91q0 -89 46 -89t46 89q0 91 -47 91zM197 509
q-51 0 -51 -95q0 -104 52 -104q26 0 39 24t13 80q0 95 -53 95z" />
    <glyph glyph-name="nine.numr" horiz-adv-x="413" 
d="M201 707q73 1 126.5 -48t53.5 -151q0 -53 -19.5 -94.5t-51.5 -65t-68.5 -35.5t-74.5 -12q-54 0 -85 24t-31 61q0 25 14 39t37 14q22 0 34.5 -12.5t12.5 -32.5q0 -22 -12.5 -34.5t-32.5 -12.5q-35 0 -43 39q0 -32 26.5 -53t66.5 -21q50 0 77.5 44t27.5 126v14
q-44 -23 -97 -23q-60 0 -94.5 29t-34.5 77q0 56 46 91t122 37zM202 490q30 0 57 16q-1 109 -16 150t-45 41q-29 0 -41.5 -24t-12.5 -82q0 -101 58 -101z" />
    <glyph glyph-name="zero.dnom" horiz-adv-x="437" 
d="M228 400q77 0 127 -56t50 -148q0 -90 -56 -147.5t-142 -57.5q-76 0 -125 56.5t-49 148.5q0 90 55 147t140 57zM218 390q-61 0 -61 -194q0 -195 59 -195q65 0 65 195q0 194 -63 194z" />
    <glyph glyph-name="one.dnom" horiz-adv-x="284" 
d="M201 397v-348q0 -22 13.5 -30.5t50.5 -8.5v-10h-245v10q37 0 50.5 8t13.5 31v247q0 31 -23 36q-17 3 -51 0l-1 9q119 7 185 59z" />
    <glyph glyph-name="two.dnom" horiz-adv-x="376" 
d="M31 6l-1 18q0 50 21 84t50.5 52t59 34t50.5 41.5t21 62.5q0 40 -24 64t-62 24q-39 0 -67.5 -23.5t-28.5 -58.5q12 40 49 40q20 0 33.5 -13.5t13.5 -33.5q0 -23 -14.5 -36.5t-37.5 -13.5q-24 0 -38.5 15.5t-14.5 41.5q0 43 41 71t107 28q68 0 111.5 -30.5t43.5 -79.5
q0 -57 -48.5 -90t-127.5 -39q-122 -17 -128 -124q7 34 29.5 52.5t52.5 18.5q24 0 71.5 -11.5t73.5 -11.5q43 0 55 30q9 13 7 31l6 2q14 -34 14 -65q0 -42 -26 -67t-71 -25q-44 0 -94.5 20.5t-72.5 20.5q-31 0 -47 -31z" />
    <glyph glyph-name="three.dnom" horiz-adv-x="371" 
d="M139 202v9q37 0 58.5 24t21.5 65q0 36 -22 58t-56 22q-40 0 -64 -19.5t-24 -51.5q10 38 45 38q19 0 31 -12.5t12 -32.5t-13.5 -32.5t-34.5 -12.5q-23 0 -36.5 14t-13.5 38q0 42 39.5 66.5t108.5 24.5q58 0 95.5 -25.5t37.5 -70.5q0 -44 -42 -70t-111 -26q165 -4 165 -104
q0 -53 -43 -83t-120 -30q-69 0 -104 23.5t-35 64.5q0 24 14.5 40t36.5 16q21 0 34.5 -13.5t13.5 -34.5t-12.5 -33.5t-32.5 -12.5q-36 0 -45 38q0 -33 24.5 -53t63.5 -20q40 0 63.5 27.5t23.5 71.5q0 45 -21 71.5t-58 25.5z" />
    <glyph glyph-name="four.dnom" horiz-adv-x="403" 
d="M12 117l-3 12q47 23 91.5 98.5t46.5 159.5q68 -20 127 0q-3 -86 -75.5 -161t-177.5 -99h181v60q48 10 78.5 51t30.5 86h9v-197h71v-10h-71v-67q0 -22 13 -31t45 -9v-10h-246v10q39 0 54.5 9t15.5 31v67h-190z" />
    <glyph glyph-name="five.dnom" horiz-adv-x="381" 
d="M64 394v-40q29 49 73 49q23 0 62.5 -18t66.5 -18q46 0 46 33l6 1q19 -53 -3.5 -89t-71.5 -36q-36 0 -69.5 22t-59.5 38.5t-50 5.5v-147q46 28 130 28q76 0 116.5 -31.5t40.5 -81.5q0 -54 -47 -87t-124 -32q-70 1 -106.5 25.5t-36.5 64.5q0 25 15 41t38 16q20 0 34 -14
t14 -35q0 -20 -12.5 -32.5t-32.5 -12.5q-33 0 -47 37q0 -31 27.5 -52t68.5 -21q40 0 67 27t27 73q0 49 -24 74t-66 25q-37 0 -85 -23l-7 4v206h10z" />
    <glyph glyph-name="per" horiz-adv-x="435" 
d="M219 729q66 0 114 -45.5t48 -111.5t-48.5 -113t-114.5 -47q-67 0 -115.5 45.5t-48.5 111.5q0 67 49 113.5t116 46.5zM218 716q-58 0 -58 -147q0 -143 58 -143q57 0 57 145t-57 145z" />
    <glyph glyph-name="sw" horiz-adv-x="378" 
d="M527 690h-228q-124 0 -197.5 -61.5t-73.5 -169.5q0 -88 55 -143t144 -55q-73 16 -73 87q0 37 24 61.5t63 24.5q38 0 61.5 -26t23.5 -64q0 -39 -28.5 -66t-70.5 -27q-93 0 -151 57.5t-58 150.5q0 112 76.5 176.5t204.5 64.5h228v-10z" />
    <glyph glyph-name="sw2" horiz-adv-x="382" 
d="M-101 10h184q119 -1 195 64.5t76 173.5q0 84 -55.5 137.5t-143.5 53.5q74 -15 74 -84q0 -38 -23.5 -62.5t-62.5 -24.5q-38 0 -62 24t-24 63q0 41 27.5 67.5t70.5 26.5q92 0 150.5 -56t58.5 -145q0 -113 -77 -180.5t-204 -67.5h-184v10z" />
    <glyph glyph-name="sw3" horiz-adv-x="271" 
d="M665 690h-366q-124 0 -197.5 -61.5t-73.5 -169.5q0 -88 55 -143t144 -55q-73 16 -73 87q0 37 24 61.5t63 24.5q38 0 61.5 -26t23.5 -64q0 -39 -28.5 -66t-70.5 -27q-93 0 -151 57.5t-58 150.5q0 112 76.5 176.5t204.5 64.5h366v-10z" />
    <glyph glyph-name="sw4" horiz-adv-x="377" 
d="M404 490h-115q-117 0 -189 -61.5t-72 -165.5q0 -83 54.5 -133.5t137.5 -50.5q-74 17 -74 84q0 39 23.5 63t62.5 24t62.5 -23.5t23.5 -63.5t-28 -67t-70 -27q-88 0 -145 53.5t-57 140.5q0 109 74.5 173t196.5 64h115v-10z" />
    <glyph glyph-name="sw5" horiz-adv-x="349" 
d="M403 740h-108q-121 0 -194 -61.5t-73 -166.5q0 -86 53.5 -139.5t141.5 -53.5q-73 16 -73 86q0 38 24.5 62t62.5 24t61.5 -26t23.5 -64t-28.5 -65t-70.5 -27q-93 0 -149 56.5t-56 146.5q0 109 76 173.5t201 64.5h108v-10z" />
    </font>
</defs>
</svg>
