<?xml version="1.0" standalone="no"?>
<!DOCTYPE svg PUBLIC "-//W3C//DTD SVG 1.1//EN" "http://www.w3.org/Graphics/SVG/1.1/DTD/svg11.dtd" >
<svg xmlns="http://www.w3.org/2000/svg" xmlns:xlink="http://www.w3.org/1999/xlink" version="1.1">
<metadata>
Created by FontForge 20201107 at Wed Jul 24 15:08:16 2024
 By 
(c) 2011 Microsoft Corporation. All Rights Reserved.
</metadata>
<defs>
<font id="GeorgiaPro-Regular" horiz-adv-x="1024" >
  <font-face 
    font-family="Georgia Pro"
    font-weight="400"
    font-stretch="normal"
    units-per-em="2048"
    panose-1="2 4 5 2 5 4 5 2 3 3"
    ascent="1638"
    descent="-410"
    x-height="985"
    cap-height="1419"
    bbox="-354 -621 2390 1878"
    underline-thickness="102"
    underline-position="-255"
    unicode-range="U+0020-FB04"
  />
<missing-glyph horiz-adv-x="2048" 
d="M1792 0h-1536v1536h1536v-1536zM385 1409v-1280h1280v1280h-1280z" />
    <glyph glyph-name="ff" unicode="ff" horiz-adv-x="1269" 
d="M1411 1430q0 -43 -23.5 -75t-74.5 -32q-20 0 -39 7t-31.5 15t-28.5 26.5t-22.5 28t-22.5 34t-20 30.5q-139 -6 -139 -381v-102h254v-94h-254v-709q0 -69 55 -90q27 -11 133 -22v-66h-520v66q76 8 90 12q55 17 55 90v719h-417v-709q0 -69 55 -90q27 -11 133 -22v-66h-520
v66q76 8 90 12q55 17 55 90v719h-194v94h194v41q0 225 115.5 364.5t292.5 139.5q86 0 133 -33.5t47 -85.5q0 -43 -23.5 -75t-74.5 -32q-20 0 -39 7t-31.5 15.5t-28 26.5t-22.5 28t-23 34t-20 31q-139 -6 -139 -381v-80h417v63q0 225 115.5 364.5t292.5 139.5q86 0 133 -33
t47 -85z" />
    <glyph glyph-name="fi" unicode="fi" horiz-adv-x="1193" 
d="M1145 0h-473v66q55 6 86 14q53 14 53 90v631q0 48 -29 90h-376v-713q0 -69 55 -90q52 -17 100 -22v-66h-487v66q65 7 90 14q55 14 55 90v717h-194v94h194v25q0 252 152 411q50 54 132.5 93.5t180.5 39.5q151 0 224 -47.5t73 -120.5q0 -40 -25 -74t-67 -34q-29 0 -52.5 10
t-37 21t-27 36.5t-18 39t-14.5 47t-13 42.5h-53q-116 0 -192 -97.5t-76 -307.5v-84h329l248 16l14 -14v-803q0 -70 58 -92q52 -18 90 -22v-66z" />
    <glyph glyph-name="fl" unicode="fl" horiz-adv-x="1208" 
d="M1155 0h-479v66q80 9 92 12q55 17 55 90v1192q0 46 -35 74q-36 36 -112 36q-123 0 -196.5 -96t-73.5 -309v-84h243v-94h-243v-709q0 -69 55 -90q52 -17 100 -22v-66h-487v66q65 7 90 14q55 14 55 90v717h-194v94h194v25q0 254 152 413q49 53 133 92t180 39q142 0 229 -41
l82 39l15 -14v-1354q0 -69 55 -92q35 -16 90 -22v-66z" />
    <glyph glyph-name="ffi" unicode="ffi" horiz-adv-x="1810" 
d="M1761 0h-473v66q55 6 86 14q53 14 53 90v631q0 49 -28 90h-389v-713q0 -69 55 -90q52 -17 100 -22v-66h-487v66q65 7 90 14q55 14 55 90v717h-417v-709q0 -69 55 -90q27 -11 133 -22v-66h-520v66q76 8 90 12q55 17 55 90v719h-194v94h194v51q0 111 35 204.5t94 156.5
t136.5 98t162.5 35q86 0 133 -33.5t47 -85.5q0 -43 -23.5 -75t-74.5 -32q-20 0 -39 7t-31.5 15.5t-28 26.5t-22.5 28t-23 34t-20 31q-159 -10 -159 -371v-90h417v25q0 252 152 411q50 54 132.5 93.5t180.5 39.5q151 0 224 -47.5t73 -120.5q0 -40 -25 -74t-67 -34
q-29 0 -52.5 10t-37 21t-27 36.5t-18 39t-14.5 47t-13 42.5h-53q-116 0 -192 -97.5t-76 -307.5v-84h342l247 16l15 -14v-803q0 -70 57 -92q52 -18 90 -22v-66z" />
    <glyph glyph-name="ffl" unicode="ffl" horiz-adv-x="1810" 
d="M1759 0h-479v66q80 9 92 12q55 17 55 90v1192q0 42 -37.5 76t-109.5 34q-123 0 -196.5 -96t-73.5 -309v-84h243v-94h-243v-709q0 -69 55 -90q52 -17 100 -22v-66h-487v66q65 7 90 14q55 14 55 90v717h-417v-709q0 -69 55 -90q27 -11 133 -22v-66h-520v66q76 8 90 12
q55 17 55 90v719h-194v94h194v51q0 111 35 204.5t94 156.5t136.5 98t162.5 35q86 0 133 -33.5t47 -85.5q0 -43 -23.5 -75t-74.5 -32q-20 0 -39 7t-31.5 15.5t-28 26.5t-22.5 28t-23 34t-20 31q-159 -10 -159 -371v-90h417v25q0 254 152 413q49 53 133 92t180 39
q143 0 230 -41l81 39l15 -14v-1354q0 -69 55 -92q35 -16 90 -22v-66z" />
    <glyph glyph-name="fj" unicode="fj" horiz-adv-x="1165" 
d="M997 983v-924q0 -223 -115.5 -363t-287.5 -140q-85 0 -132.5 34t-47.5 84q0 43 23 76t71 33q18 0 33.5 -4t29.5 -13.5t23.5 -17t22 -25t18 -25.5t18.5 -30t17 -28q74 0 107.5 93t33.5 294v774q0 48 -29 90h-376v-713q0 -69 55 -90q52 -17 100 -22v-66h-487v66q65 7 90 14
q55 14 55 90v717h-194v94h194v25q0 252 152 411q50 54 132.5 93.5t180.5 39.5q151 0 224 -47.5t73 -120.5q0 -40 -25 -74t-67 -34q-29 0 -52.5 10t-37 21t-27 36.5t-18 39t-14.5 47t-13 42.5h-53q-116 0 -192 -97.5t-76 -307.5v-84h329l248 16z" />
    <glyph glyph-name=".notdef" horiz-adv-x="2048" 
d="M1792 0h-1536v1536h1536v-1536zM385 1409v-1280h1280v1280h-1280z" />
    <glyph glyph-name=".null" horiz-adv-x="0" 
 />
    <glyph glyph-name="nonmarkingreturn" horiz-adv-x="493" 
 />
    <glyph glyph-name="space" unicode=" " horiz-adv-x="493" 
 />
    <glyph glyph-name="space" unicode="&#xa0;" horiz-adv-x="493" 
 />
    <glyph glyph-name="exclam" unicode="!" horiz-adv-x="677" 
d="M471 1321q0 -36 -14 -168t-37.5 -349t-38.5 -372h-78q-13 162 -35.5 371.5t-37.5 345.5t-15 172q0 58 36.5 96.5t92.5 38.5t91.5 -38.5t35.5 -96.5zM481 115q0 -57 -40 -96t-97 -39t-97 39t-40 96t40 97t97 40t97 -40t40 -97z" />
    <glyph glyph-name="quotedbl" unicode="&#x22;" horiz-adv-x="843" 
d="M725 1417q0 -23 -12 -83.5t-34 -168.5t-38 -198h-61q-14 94 -35 199t-33 166t-12 85q0 48 29.5 80.5t82.5 32.5t83 -32.5t30 -80.5zM342 1417q0 -23 -11.5 -82.5t-34 -170t-38.5 -197.5h-59q-14 94 -35 199t-33 166t-12 85q0 48 29.5 80.5t82.5 32.5q52 0 81.5 -32.5
t29.5 -80.5z" />
    <glyph glyph-name="numbersign" unicode="#" horiz-adv-x="1316" 
d="M1163 745h-250l-71 -251h262v-123h-297l-107 -371h-110l106 371h-217l-106 -371h-113l109 371h-215v123h249l72 251h-262v123h297l104 363h111l-104 -363h217l104 363h113l-107 -363h215v-123zM807 748h-221l-74 -256h219z" />
    <glyph glyph-name="dollar" unicode="$" horiz-adv-x="1249" 
d="M1104 365q0 -157 -119 -263t-303 -118v-283h-84v281q-190 3 -316 91t-126 226q0 60 25.5 91.5t72.5 31.5q53 0 83 -25.5t30 -62.5q0 -26 -21 -90t-22 -68q28 -50 96 -83t178 -34v506q-89 33 -162 64q-119 48 -181 125t-62 196q0 145 118 243.5t287 100.5v230h84v-230
q95 -1 173 -27.5t125 -67.5t72 -88t25 -93t-23.5 -77.5t-66.5 -31.5q-49 0 -82 25t-33 57q0 22 4 47t11 55t8 35q-13 25 -69 55.5t-144 30.5v-462q43 -16 129 -52q67 -26 115 -53t91 -66t65 -93t22 -123zM598 774v440q-97 0 -162 -54t-65 -136q0 -85 38.5 -136t125.5 -87
q18 -9 63 -27zM915 285q0 170 -188 241q-2 1 -20 8t-25 11v-484q116 6 174.5 66t58.5 158z" />
    <glyph glyph-name="percent" unicode="%" horiz-adv-x="1673" 
d="M788 1083q0 -174 -92.5 -272t-246.5 -98q-163 0 -251.5 103.5t-88.5 266.5q0 157 89 263t251 106q112 0 190.5 -53t113.5 -134.5t35 -181.5zM1499 1423l-1180 -1423h-137l1176 1423h141zM1565 338q0 -174 -93 -272.5t-247 -98.5q-163 0 -250.5 103.5t-87.5 267.5
q0 102 36 184.5t115 134.5t189 52q84 0 150 -30.5t106 -83t61 -118t21 -139.5zM618 1083q0 132 -41.5 213.5t-127.5 81.5q-85 0 -127.5 -81.5t-42.5 -213.5q0 -84 16 -148t55 -106.5t99 -42.5q82 0 125.5 80.5t43.5 216.5zM1397 338q0 131 -42.5 214t-127.5 83
q-86 0 -129 -82t-43 -215q0 -129 41.5 -212t128.5 -83q84 0 128 79.5t44 215.5z" />
    <glyph glyph-name="ampersand" unicode="&#x26;" horiz-adv-x="1454" 
d="M1454 827q-160 -16 -211 -82q-22 -26 -56 -101t-81 -169t-98 -162q46 -54 102.5 -107.5t93.5 -76.5q41 -25 111.5 -40t124.5 -17v-72h-414l-147 170q-85 -93 -179.5 -149t-214.5 -56q-62 0 -120 13.5t-111 43.5t-92 73.5t-62.5 107.5t-23.5 141q0 136 72 235t237 203
q-103 142 -126 184q-46 83 -46 177q0 138 103 223.5t249 85.5q64 0 117 -17t88.5 -44.5t60 -64t35.5 -75t11 -77.5q0 -116 -70.5 -202t-210.5 -161q57 -76 113 -145t127.5 -153t115.5 -138q142 220 142 366q0 30 -43.5 50t-130.5 36v72h534v-72zM748 1153q0 102 -45.5 156.5
t-129.5 54.5q-35 0 -64.5 -13t-48 -33t-31 -45t-18 -48.5t-5.5 -44.5q0 -67 33.5 -136t113.5 -174q195 108 195 283zM825 227q-45 58 -193.5 240t-203.5 258q-147 -105 -147 -305q0 -137 77 -226.5t207 -89.5q165 0 260 123z" />
    <glyph glyph-name="quotesingle" unicode="'" horiz-adv-x="440" 
d="M334 1417q0 -23 -12 -83.5t-34 -168.5t-38 -198h-62q-14 93 -35 198.5t-32.5 166.5t-11.5 85q0 48 29.5 80.5t82.5 32.5t83 -32.5t30 -80.5z" />
    <glyph glyph-name="parenleft" unicode="(" horiz-adv-x="768" 
d="M700 -328q-271 33 -427 273.5t-156 650.5q0 413 153.5 656.5t429.5 279.5v-82q-391 -74 -391 -856q0 -770 391 -840v-82z" />
    <glyph glyph-name="parenright" unicode=")" horiz-adv-x="768" 
d="M651 596q0 -410 -156 -650.5t-427 -273.5v82q391 70 391 840q0 782 -391 856v82q276 -36 429.5 -279.5t153.5 -656.5z" />
    <glyph glyph-name="asterisk" unicode="*" horiz-adv-x="966" 
d="M883 1100q0 -36 -21 -54t-55 -18q-15 0 -114 23t-179 32q48 -65 105 -125t79.5 -89t22.5 -58q0 -27 -24 -46.5t-52 -19.5q-39 0 -61 39q-5 11 -36 109.5t-65 173.5q-33 -75 -62.5 -173t-35.5 -110q-25 -39 -61 -39q-28 0 -52 19.5t-24 46.5q0 29 22.5 58t79.5 89t105 125
q-81 -9 -179.5 -32t-113.5 -23q-34 0 -55 18t-21 54q0 33 21.5 51t54.5 18q15 0 113.5 -22t179.5 -31q-48 65 -105 125t-79.5 89.5t-22.5 58.5q0 27 24 46t52 19q36 0 61 -39q6 -12 35.5 -108.5t62.5 -171.5q34 75 64.5 172t36.5 108q22 39 61 39q28 0 52 -19t24 -46
q0 -29 -22.5 -58.5t-79.5 -89.5t-105 -125q80 9 179 31t114 22q33 0 54.5 -18t21.5 -51z" />
    <glyph glyph-name="plus" unicode="+" horiz-adv-x="1316" 
d="M1174 498h-451v-453h-127v453h-453v125h453v450h127v-450h451v-125z" />
    <glyph glyph-name="comma" unicode="," horiz-adv-x="552" 
d="M428 35q0 -66 -30 -131.5t-77.5 -115t-91.5 -84.5t-86 -58l-47 67q206 124 228 289h-52q-74 0 -108.5 37.5t-34.5 91.5q0 46 35.5 83.5t91.5 37.5q89 0 130.5 -57.5t41.5 -159.5z" />
    <glyph glyph-name="hyphen" unicode="-" horiz-adv-x="765" 
d="M682 465h-596v158h596v-158z" />
    <glyph glyph-name="hyphen" unicode="&#xad;" horiz-adv-x="765" 
d="M682 465h-596v158h596v-158z" />
    <glyph glyph-name="period" unicode="." horiz-adv-x="552" 
d="M416 115q0 -57 -40 -96t-97 -39t-97.5 39t-40.5 96t40.5 97t97.5 40t97 -40t40 -97z" />
    <glyph glyph-name="slash" unicode="/" horiz-adv-x="960" 
d="M870 1524l-692 -1948h-129l688 1948h133z" />
    <glyph glyph-name="zero" unicode="0" horiz-adv-x="1153" 
d="M1081 711q0 -355 -135 -549.5t-371 -194.5q-131 0 -229 57t-157 159.5t-88 235t-29 292.5q0 122 18 230t58 202t98 162t143 106.5t189 38.5q130 0 229 -59t157.5 -162.5t87.5 -233.5t29 -284zM860 711q0 321 -72 496t-210 175q-140 0 -212.5 -175t-72.5 -496
q0 -153 16.5 -275t50.5 -212t88.5 -138.5t126.5 -48.5q97 0 162 86.5t94 234.5t29 353z" />
    <glyph glyph-name="one" unicode="1" horiz-adv-x="1153" 
d="M207 0v72q102 5 121 8q84 12 125 42t41 83v1034h-291v84h96q99 0 187 38.5t128 88.5h84q-10 -264 -10 -309v-936q0 -53 35.5 -82t110.5 -41q46 -6 129 -10v-72h-756z" />
    <glyph glyph-name="two" unicode="2" horiz-adv-x="1153" 
d="M1055 0h-957v135q43 69 122.5 144t258.5 227q52 44 80 69t66 62t57 64.5t41.5 67t32.5 78.5t17 89.5t7 110.5q0 85 -22 149t-59.5 100.5t-82.5 54t-96 17.5q-66 0 -123 -25t-86 -69q2 -12 10.5 -45.5t13.5 -63.5t5 -55q0 -39 -33.5 -67.5t-93.5 -28.5q-49 0 -75.5 34.5
t-26.5 92.5q0 56 29 110.5t82 99t138 72t187 27.5q100 0 182 -24.5t144 -72.5t96.5 -125.5t34.5 -178.5q0 -77 -18 -141t-40 -108t-82.5 -103t-103 -93t-143.5 -112q-6 -5 -9 -7q-262 -199 -356 -309h803v-176z" />
    <glyph glyph-name="three" unicode="3" horiz-adv-x="1153" 
d="M500 -31q-183 0 -302.5 85.5t-119.5 201.5q0 53 25 90t75 37q58 0 90.5 -28t32.5 -68q0 -49 -27 -152q23 -32 85.5 -58t152.5 -26q61 0 114.5 21t97 63.5t68.5 113t25 161.5q0 60 -11.5 107.5t-40.5 90t-85 65.5t-137 23h-131v115h88q135 0 197.5 75.5t62.5 229.5
q0 125 -59 188.5t-169 63.5q-33 0 -62 -6t-48 -13t-37 -19.5t-26 -20t-19 -20t-12 -13.5q26 -112 26 -166q0 -39 -33 -67.5t-90 -28.5q-51 0 -76.5 35.5t-25.5 89.5q0 52 30 106t83.5 100t140 75.5t188.5 29.5q79 0 144 -16.5t108.5 -44.5t75.5 -61.5t49 -71.5t25 -71t8 -63
q0 -116 -71.5 -207.5t-225.5 -134.5v-14q50 -5 97 -18.5t95 -41.5t83 -67t57 -99t22 -134q0 -191 -154 -314t-384 -123z" />
    <glyph glyph-name="four" unicode="4" horiz-adv-x="1153" 
d="M1094 428h-203v-428h-193v428h-639v156l701 854h131v-879h203v-131zM698 559v655l-538 -655h538z" />
    <glyph glyph-name="five" unicode="5" horiz-adv-x="1153" 
d="M866 805q154 -123 154 -338t-147.5 -355.5t-372.5 -140.5q-172 0 -295 83t-123 194q0 55 26 91t76 36q57 0 90 -30.5t33 -70.5q0 -56 -28 -151q88 -70 221 -70q136 0 219.5 107t83.5 305q0 141 -80.5 233.5t-206.5 92.5q-171 0 -272 -129l-68 24l84 733h717v-178h-635
l-51 -434q131 94 278 94q176 0 297 -96z" />
    <glyph glyph-name="six" unicode="6" horiz-adv-x="1153" 
d="M1067 461q0 -136 -63 -249.5t-174 -179t-246 -65.5q-222 0 -356 158.5t-134 431.5q0 237 96 429t273.5 313.5t413.5 154.5l18 -90l-90 -16q-417 -134 -490 -578q86 73 169.5 105t179.5 32q108 0 200 -56.5t147.5 -159.5t55.5 -230zM850 434q0 163 -74.5 261t-200.5 98
q-153 0 -264 -123q0 -3 -2 -50.5t-2 -72.5q0 -233 76 -366.5t203 -133.5q120 0 192 104t72 283z" />
    <glyph glyph-name="seven" unicode="7" horiz-adv-x="1153" 
d="M1145 1354l-713 -1374h-125l670 1269h-494q-95 0 -144.5 -5.5t-82.5 -26.5q-37 -22 -58.5 -67t-33.5 -124h-62v391h1043v-63z" />
    <glyph glyph-name="eight" unicode="8" horiz-adv-x="1153" 
d="M1081 377q0 -83 -38 -158t-105 -131t-166 -89.5t-215 -33.5q-225 0 -356 111t-131 286q0 244 311 363q-254 142 -254 348q0 159 135.5 271t335.5 112q193 0 312.5 -102t119.5 -262q0 -105 -66 -193t-194 -147q165 -71 238 -158t73 -217zM840 1102q0 118 -70.5 196
t-187.5 78q-113 0 -184.5 -72.5t-71.5 -183.5q0 -108 83.5 -179.5t288.5 -154.5q142 89 142 316zM883 330q0 49 -18 90t-47.5 72.5t-88.5 66t-118.5 62t-159.5 69.5q-187 -103 -187 -315q0 -149 87.5 -239.5t230.5 -90.5q138 0 219.5 79.5t81.5 205.5z" />
    <glyph glyph-name="nine" unicode="9" horiz-adv-x="1153" 
d="M1057 862q0 -357 -213.5 -597t-573.5 -290l-16 91l88 16q216 67 337 208t157 359q-85 -73 -168.5 -104t-180.5 -31q-166 0 -284.5 127.5t-118.5 319.5q0 207 139 349t344 142q222 0 356 -158.5t134 -431.5zM844 872q0 233 -76 366.5t-203 133.5q-120 0 -192 -103.5
t-72 -281.5q0 -163 74 -260.5t200 -97.5q156 0 265 121q0 2 2 48.5t2 73.5z" />
    <glyph glyph-name="colon" unicode=":" horiz-adv-x="641" 
d="M457 854q0 -58 -40.5 -97.5t-97.5 -39.5t-97 39.5t-40 97.5q0 56 40 95.5t97 39.5t97.5 -39.5t40.5 -95.5zM457 115q0 -57 -40.5 -96t-97.5 -39t-97 39t-40 96t40 97t97 40t97.5 -40t40.5 -97z" />
    <glyph glyph-name="semicolon" unicode=";" horiz-adv-x="641" 
d="M457 854q0 -58 -40.5 -97.5t-97.5 -39.5t-97 39.5t-40 97.5q0 56 40 95.5t97 39.5t97.5 -39.5t40.5 -95.5zM473 35q0 -66 -30 -131.5t-77.5 -115t-91.5 -84.5t-86 -58l-47 67q206 124 228 289h-52q-74 0 -108.5 37.5t-34.5 91.5q0 46 35.5 83.5t91.5 37.5
q89 0 130.5 -57.5t41.5 -159.5z" />
    <glyph glyph-name="semicolon" unicode="&#x37e;" horiz-adv-x="641" 
d="M457 854q0 -58 -40.5 -97.5t-97.5 -39.5t-97 39.5t-40 97.5q0 56 40 95.5t97 39.5t97.5 -39.5t40.5 -95.5zM473 35q0 -66 -30 -131.5t-77.5 -115t-91.5 -84.5t-86 -58l-47 67q206 124 228 289h-52q-74 0 -108.5 37.5t-34.5 91.5q0 46 35.5 83.5t91.5 37.5
q89 0 130.5 -57.5t41.5 -159.5z" />
    <glyph glyph-name="less" unicode="&#x3c;" horiz-adv-x="1316" 
d="M1118 23l-925 481v112l925 482v-137l-770 -402l770 -399v-137z" />
    <glyph glyph-name="equal" unicode="=" horiz-adv-x="1316" 
d="M1163 682h-1009v127h1009v-127zM1163 311h-1009v125h1009v-125z" />
    <glyph glyph-name="greater" unicode="&#x3e;" horiz-adv-x="1316" 
d="M1124 504l-925 -481v137l770 399l-770 402v137l925 -482v-112z" />
    <glyph glyph-name="question" unicode="?" horiz-adv-x="980" 
d="M879 1040q0 -189 -121 -303.5t-322 -138.5v-221h-92v379q344 24 344 307q0 162 -68 235.5t-180 73.5q-82 0 -131 -39q23 -106 23 -137q0 -39 -34.5 -68.5t-90.5 -29.5q-52 0 -76.5 34.5t-24.5 88.5q0 84 96 157.5t247 73.5q204 0 317 -118.5t113 -293.5zM530 115
q0 -57 -40 -96t-97 -39t-97 39t-40 96t40 97t97 40t97 -40t40 -97z" />
    <glyph glyph-name="at" unicode="@" horiz-adv-x="1902" 
d="M1530 -119q-221 -194 -545 -194q-122 0 -239 30.5t-222 95.5t-184 156.5t-125.5 222.5t-46.5 285q0 138 41 269.5t120 244t187 197.5t251 133.5t302 48.5q135 0 247 -36t189.5 -98t131 -146t78 -177.5t24.5 -195.5q0 -158 -58.5 -290.5t-167.5 -212t-247 -79.5
q-86 0 -144.5 44.5t-64.5 119.5h-8q-48 -72 -110 -116t-124 -44q-46 0 -85 14t-73 44.5t-53.5 86.5t-19.5 132q0 54 20 123.5t60.5 142.5t95 134.5t131 100.5t160.5 39q59 0 101 -32t52 -93h6l43 113h150l-191 -538q-18 -52 -18 -109q0 -50 25 -74t67 -24q157 0 260 146.5
t103 381.5q0 118 -38.5 219t-110.5 178t-185 120.5t-254 43.5q-108 0 -213.5 -33.5t-198.5 -101.5t-164.5 -161.5t-113 -222t-41.5 -275.5q0 -181 50.5 -322t140.5 -229t209.5 -133.5t262.5 -45.5q298 0 506 168zM1182 741q-12 79 -44.5 117.5t-90.5 38.5q-61 0 -117 -49.5
t-93 -124.5t-59 -161.5t-22 -162.5q0 -176 88 -176q74 0 124 47.5t99 132.5z" />
    <glyph glyph-name="A" unicode="A" horiz-adv-x="1374" 
d="M1421 0h-592v72q67 4 125 18t58 39q0 23 -8 43l-119 320h-498q-56 -147 -76 -220q-22 -74 -22 -112q0 -23 22 -40.5t57 -27t65 -14t61 -6.5v-72h-535v72q80 5 129 37q35 24 59 53.5t46 83.5q84 206 251.5 639.5t214.5 554.5h80l473 -1225q24 -67 86 -111q51 -28 123 -32
v-72zM850 580l-215 550l-211 -550h426z" />
    <glyph glyph-name="B" unicode="B" horiz-adv-x="1339" 
d="M1247 385q0 -77 -28.5 -141.5t-75.5 -108.5t-109.5 -75t-129.5 -45.5t-136 -14.5h-674v72q92 5 137 22q58 27 58 99v1019q0 76 -58 103q-63 29 -129 33v71h656q75 0 144.5 -16.5t131 -51t98.5 -96.5t37 -145q0 -75 -27 -135t-76 -100t-105.5 -66.5t-126.5 -42.5v-8
q56 -8 108.5 -22.5t109.5 -43.5t99 -68.5t69 -101.5t27 -137zM930 1090q0 249 -266 249q-64 0 -162 -4v-544h127q301 0 301 299zM1001 422q0 130 -85.5 209.5t-239.5 79.5q-100 0 -174 -4v-500q0 -63 49.5 -95t142.5 -32q88 0 150.5 29t95 80t47 108t14.5 125z" />
    <glyph glyph-name="C" unicode="C" horiz-adv-x="1314" 
d="M1288 358q-84 -206 -224 -298.5t-341 -92.5q-128 0 -244.5 50.5t-205.5 142.5t-142 231t-53 305t52.5 308t143 239.5t215 152t265.5 54.5q194 0 352 -98l41 67h80l10 -506h-84q-15 70 -34.5 130.5t-52.5 121.5t-73.5 104t-99 70t-127.5 27q-204 0 -326.5 -173
t-122.5 -482q0 -178 60 -321.5t170 -226.5t250 -83q106 0 191 44t138 112t88 159z" />
    <glyph glyph-name="D" unicode="D" horiz-adv-x="1533" 
d="M1456 700q0 -140 -44 -257.5t-119 -198t-175 -136.5t-210 -82t-226 -26h-588v72q29 0 74 5t63 11q58 24 58 100v1024q0 78 -58 105q-60 27 -129 31v71h621q60 0 124.5 -9.5t137 -33.5t139 -60.5t128 -94t106 -129.5t71.5 -173t27 -219zM1212 702q0 284 -149 459.5
t-393 175.5q-82 0 -168 -4v-1089q0 -82 48 -122t167 -40q127 0 222.5 44t154.5 126.5t88.5 195t29.5 254.5z" />
    <glyph glyph-name="E" unicode="E" horiz-adv-x="1337" 
d="M1290 418l-26 -418h-1178v72q102 6 145 20q58 27 58 101v1019q0 75 -58 101q-25 11 -72 22t-73 13v71h1098v-342h-74q-21 76 -87 161.5t-126 92.5q-65 8 -172 8h-223v-563h160q57 0 94.5 11t50 21.5t29.5 31.5q41 50 59 168h74v-555h-74q-3 44 -21.5 100.5t-37.5 79.5
q-17 20 -29.5 30t-50 20.5t-94.5 10.5h-160v-426q0 -44 3 -72t14 -50.5t25.5 -34t44.5 -18.5t64 -9t90 -2q173 0 234 12q59 11 82 35q41 43 91.5 138t68.5 151h71z" />
    <glyph glyph-name="F" unicode="F" horiz-adv-x="1226" 
d="M1198 1065h-74q-20 77 -87 168t-128 98q-65 8 -170 8h-237v-569h162q58 0 98.5 11.5t55.5 22.5t32 30q44 48 57 167h76v-557h-76q-3 46 -20 101.5t-37 79.5q-16 19 -31 30t-55.5 22t-99.5 11h-162v-487q0 -73 57 -103q16 -7 65.5 -15.5t75.5 -10.5v-72h-614v72
q117 7 145 16q58 24 58 100v1024q0 75 -58 101q-25 11 -72 22t-73 13v71h1112v-354z" />
    <glyph glyph-name="G" unicode="G" horiz-adv-x="1484" 
d="M1470 567q-4 -1 -37 -6t-55 -10t-37 -12q-55 -29 -55 -107v-110q0 -183 4 -232q-267 -123 -522 -123q-139 0 -263.5 51.5t-219.5 143.5t-151 231.5t-56 304.5q0 162 54.5 302.5t149.5 239t227 154.5t282 56q202 0 366 -98l41 67h80l8 -495h-82q-18 73 -39.5 131.5
t-56.5 119t-78 100.5t-106.5 65.5t-139.5 25.5q-212 0 -337 -174t-125 -483q0 -137 32.5 -255.5t93.5 -207.5t155 -140t210 -51q165 0 264 84q8 50 8 197v78q0 97 -59 121q-55 25 -176 32v74h620v-74z" />
    <glyph glyph-name="H" unicode="H" horiz-adv-x="1669" 
d="M1567 0h-588v72q103 6 131 16q57 23 57 100v506h-665v-493q0 -71 55 -103q16 -8 58.5 -16t70.5 -10v-72h-588v72q103 6 131 16q60 24 60 100v1024q0 73 -60 101q-24 11 -65.5 22.5t-65.5 12.5v71h588v-71q-68 -4 -129 -25q-55 -20 -55 -100v-441h665v430q0 74 -57 101
q-24 11 -65.5 22.5t-65.5 12.5v71h588v-71q-72 -4 -129 -25q-58 -21 -58 -100v-1022q0 -69 58 -103q16 -8 58.5 -16t70.5 -10v-72z" />
    <glyph glyph-name="I" unicode="I" horiz-adv-x="798" 
d="M719 0h-639v72q116 6 149 16q64 24 64 98v1028q0 74 -64 99q-83 31 -149 35v71h639v-71q-87 -5 -150 -25t-63 -98v-1026q0 -70 63 -101q18 -7 69.5 -15.5t80.5 -10.5v-72z" />
    <glyph glyph-name="J" unicode="J" horiz-adv-x="1060" 
d="M1006 1348q-86 -5 -140 -25q-57 -19 -57 -100v-840q0 -53 -16 -109.5t-51 -112t-84 -99t-122 -70.5t-159 -27q-165 0 -266 92t-101 246q0 73 36 123.5t101 50.5q66 0 100 -36t34 -87q0 -39 -20 -78.5t-47 -80.5t-36 -70v-2q25 -35 72 -58.5t112 -23.5q58 0 100.5 22
t67.5 58t39.5 92.5t19.5 114.5t5 135v749q0 69 -59 101q-28 14 -75 23.5t-79 11.5v71h625v-71z" />
    <glyph glyph-name="K" unicode="K" horiz-adv-x="1421" 
d="M1475 0h-398q-220 343 -551 694h-24v-493q0 -73 57 -103q14 -7 59 -15.5t72 -10.5v-72h-588v72q97 6 129 16q58 24 58 100v1024q0 74 -58 101q-70 31 -129 35v71h588v-71q-75 -5 -131 -25q-57 -19 -57 -100v-490h18q195 162 341.5 328.5t146.5 236.5q0 42 -148 50v71h533
v-71q-21 0 -55.5 -4t-91.5 -24.5t-87 -53.5q-30 -34 -90 -102.5t-88 -100t-74.5 -82.5t-90 -94.5t-93.5 -91.5q56 -64 103 -118.5t99 -118t77 -94.5t93 -116.5t91 -114.5q64 -82 160 -135q43 -21 129 -26v-72z" />
    <glyph glyph-name="L" unicode="L" horiz-adv-x="1236" 
d="M1237 422l-31 -422h-1108v72q95 6 133 18q58 24 58 103v1015q0 73 -58 103q-25 12 -67 24t-66 13v71h598v-71q-63 -4 -137 -25q-57 -23 -57 -104v-953q0 -47 2 -74t11.5 -50.5t22.5 -34t42 -18.5t62 -9.5t91 -1.5q211 0 262 53q38 41 93 137t77 154h72z" />
    <glyph glyph-name="M" unicode="M" horiz-adv-x="1898" 
d="M1806 0h-626v72q130 8 159 22q62 39 62 107v1032h-17l-483 -1210h-49l-53 143l-410 1091h-12v-847q0 -123 15.5 -186.5t47.5 -92.5q21 -20 85.5 -38.5t95.5 -20.5v-72h-574v72q132 16 172 47q34 26 48 90t14 190v725q0 114 -60 168q-57 52 -164 56v71h484l405 -1065
l348 891q18 46 31.5 99t15.5 75h463v-71q-80 -5 -135 -25q-57 -19 -57 -100v-1022q0 -70 57 -103q14 -8 60.5 -16t76.5 -10v-72z" />
    <glyph glyph-name="N" unicode="N" horiz-adv-x="1570" 
d="M1554 1348q-30 -2 -89.5 -17t-80.5 -31q-35 -25 -48 -90t-13 -186v-1038h-86l-860 1161v-731q0 -123 15.5 -188.5t47.5 -96.5q21 -19 89.5 -38t101.5 -21v-72h-584v72q29 2 93.5 20t78.5 31q34 26 48 89t14 191v701q0 46 -17 91.5t-43 70.5q-35 32 -95.5 56t-100.5 26v71
h403l799 -1081v674q0 232 -62 278q-25 18 -89.5 37t-98.5 21v71h577v-71z" />
    <glyph glyph-name="O" unicode="O" horiz-adv-x="1523" 
d="M1444 709q0 -167 -55 -308.5t-148.5 -236t-217 -147t-261.5 -52.5q-146 0 -273 56t-216.5 154t-141 236.5t-51.5 297.5q0 166 54.5 306.5t148 235.5t217.5 148t262 53q141 0 265.5 -53t217 -148t146 -235.5t53.5 -306.5zM1202 709q0 301 -114.5 478t-325.5 177
q-94 0 -169 -36t-125 -97.5t-83.5 -146t-48 -178t-14.5 -197.5q0 -190 46.5 -334.5t147.5 -232t246 -87.5q89 0 162 33t124 91.5t86 141t51.5 179.5t16.5 209z" />
    <glyph glyph-name="P" unicode="P" horiz-adv-x="1249" 
d="M1184 1069q0 -89 -29.5 -164t-80 -126t-118 -87t-142.5 -52.5t-155 -16.5h-157v-430q0 -80 57 -103q41 -13 148 -18v-72h-609v72q95 6 133 18q58 24 58 103v1024q0 83 -58 106q-71 21 -141 25v71h649q195 0 320 -94.5t125 -255.5zM936 1020q0 50 -8 94t-29 86t-53.5 71.5
t-84.5 47.5t-120 18h-139v-626h100q84 0 147.5 23t98 56.5t55.5 78.5t27 80t6 71z" />
    <glyph glyph-name="Q" unicode="Q" horiz-adv-x="1523" 
d="M1444 709q0 -263 -129 -446t-338 -259q3 -113 79.5 -199t166.5 -86q42 0 76 2t49 4t39 6l30 5v-78q-137 -43 -299 -43q-70 0 -132 20t-114.5 61t-87.5 110.5t-45 160.5q-189 6 -339.5 102.5t-235 264t-84.5 375.5q0 166 54.5 306.5t148 235.5t217.5 148t262 53
q141 0 265.5 -53t217 -148t146 -235.5t53.5 -306.5zM1202 709q0 301 -114.5 478t-325.5 177q-94 0 -169 -36t-125 -97.5t-83.5 -146t-48 -178t-14.5 -197.5q0 -190 46.5 -334.5t147.5 -232t246 -87.5q89 0 162 33t124 91.5t86 141t51.5 179.5t16.5 209z" />
    <glyph glyph-name="R" unicode="R" horiz-adv-x="1437" 
d="M1481 0h-383q-219 343 -453 643h-143v-450q0 -80 57 -103q33 -12 139 -18v-72h-600v72q95 6 133 18q58 24 58 103v1026q0 81 -58 104q-70 21 -133 25v71h656q91 0 168.5 -19t141 -58t100 -106t36.5 -155q0 -82 -25.5 -146t-74.5 -108.5t-108 -74.5t-138 -54
q69 -90 120 -158.5t113 -153t113 -153.5q65 -88 150 -135q43 -21 131 -26v-72zM954 1059q0 140 -78.5 209t-203.5 69h-170v-608h131q141 0 231 89.5t90 240.5z" />
    <glyph glyph-name="S" unicode="S" horiz-adv-x="1148" 
d="M1069 403q0 -189 -137.5 -310.5t-345.5 -121.5q-95 0 -189 28.5t-166 72.5l-43 -72h-79l-15 485h80q120 -428 430 -428q136 0 202 66.5t66 183.5q0 87 -50 160.5t-140 110.5q-43 17 -99 37.5t-101 38t-95 40.5q-254 116 -254 371q0 162 126.5 273.5t303.5 111.5
q155 0 318 -98l41 67h79l9 -471h-82q-14 52 -27 91.5t-31.5 85t-39 78.5t-49 65t-61 52t-76 32t-93.5 12q-96 0 -162.5 -61t-66.5 -150q0 -91 41 -151t126 -101q53 -25 146 -61t133 -54q70 -30 118.5 -60t93 -74.5t67 -106.5t22.5 -142z" />
    <glyph glyph-name="T" unicode="T" horiz-adv-x="1267" 
d="M1251 1034h-69q-12 48 -46 114t-83 122.5t-90 62.5q-65 8 -164 8h-60v-1134q0 -74 64 -105q18 -7 77.5 -17.5t88.5 -12.5v-72h-670v72q119 6 164 22q63 23 63 103v1144h-57q-101 0 -166 -8q-41 -6 -89.5 -62.5t-82 -122t-45.5 -114.5h-72v385h1237v-385z" />
    <glyph glyph-name="U" unicode="U" horiz-adv-x="1548" 
d="M1534 1348q-35 -2 -89.5 -14.5t-80.5 -30.5q-61 -44 -61 -271v-616q0 -95 -33.5 -173t-86.5 -128.5t-121.5 -85t-136.5 -49.5t-134 -15q-126 0 -228.5 34t-167.5 91.5t-100 130.5t-35 154v837q0 70 -57 103q-23 12 -63 21.5t-66 11.5v71h592v-71q-78 -5 -134 -25
q-57 -19 -57 -100v-785q0 -49 7 -93.5t30 -95.5t60 -87t102.5 -60t152.5 -24t155 24t109 61.5t67.5 87t36 94.5t9.5 91v584q0 227 -63 272q-31 22 -90.5 38t-98.5 18v71h582v-71z" />
    <glyph glyph-name="V" unicode="V" horiz-adv-x="1366" 
d="M1407 1348q-28 -2 -64.5 -12.5t-60.5 -24.5q-32 -22 -52 -51t-42 -80q-199 -484 -477 -1198h-82l-461 1230q-23 59 -84 101q-55 31 -123 35v71h588v-71q-35 -2 -57 -4.5t-55 -8t-49.5 -16t-16.5 -25.5t12 -51q14 -36 133.5 -358t220.5 -590q166 399 310 782
q43 117 43 183q0 22 -20.5 38.5t-55 26.5t-67 15t-68.5 8v71h528v-71z" />
    <glyph glyph-name="W" unicode="W" horiz-adv-x="1998" 
d="M2028 1348q-66 -4 -119 -39q-36 -23 -58 -51.5t-36 -77.5q-77 -257 -367 -1198h-92l-359 1091l-372 -1091h-88l-349 1230q-17 62 -73 101q-48 31 -119 35v71h579v-71q-184 -11 -184 -52q0 -5 8 -53q26 -97 256 -897l355 1053h98l356 -1075q145 501 209 749q37 139 37 187
q0 74 -197 88v71h515v-71z" />
    <glyph glyph-name="X" unicode="X" horiz-adv-x="1454" 
d="M1456 0h-663v72q26 1 41 2t40 4t40 6.5t31.5 9.5t24 15t7.5 20q0 29 -82 166q-173 268 -205 315q-124 -164 -217.5 -302t-93.5 -169q0 -11 2.5 -19.5t9.5 -15t13 -11.5t18.5 -8t20.5 -5t24.5 -3.5t24 -2t26 -1.5t25.5 -1v-72h-531v72q89 5 133 24q48 25 78 54.5t70 82.5
q53 73 168 226t174 233q-28 42 -340 496q-44 65 -68.5 90t-64.5 45q-55 20 -135 25v71h657v-71q-182 -10 -182 -54q0 -37 84 -168q111 -176 182 -280q276 375 276 436q0 26 -27.5 41t-57 18.5t-78.5 6.5v71h528v-71q-89 -6 -131 -25q-34 -17 -59 -38t-39.5 -38.5
t-49.5 -62.5q-136 -176 -309 -414q67 -95 199 -290t168 -247q32 -45 71 -85.5t64 -55.5q26 -14 133 -20v-72z" />
    <glyph glyph-name="Y" unicode="Y" horiz-adv-x="1259" 
d="M1315 1348q-18 -2 -56.5 -14.5t-52.5 -22.5q-38 -25 -54.5 -41t-51.5 -66q-25 -35 -52 -75.5t-45.5 -70.5t-51 -85.5t-47 -80.5t-56.5 -98.5t-57 -99.5q-39 -70 -50.5 -107.5t-11.5 -107.5v-270q0 -75 66 -107q17 -7 74.5 -17.5t86.5 -12.5v-72h-663v72q123 7 162 20
q61 25 61 107v344q0 33 -65 153q-122 236 -261 482q-32 56 -57 85.5t-59 51.5q-48 29 -117 33v71h604v-71q-8 0 -30.5 -1.5t-35.5 -2t-34 -2.5t-34 -5.5t-26 -8t-19.5 -12t-6.5 -16.5q0 -17 62 -134t182 -336q44 -79 67 -121q324 520 324 565q0 15 -7.5 26.5t-24 19t-31 12
t-41 8t-41.5 5t-44 3.5v71h494v-71z" />
    <glyph glyph-name="Z" unicode="Z" horiz-adv-x="1232" 
d="M1214 442l-47 -442h-1140v35l893 1304h-326q-114 0 -168 -10q-74 -16 -154.5 -117t-117.5 -194h-70l43 401h1063v-35l-893 -1304h338q252 0 305 51q61 57 118.5 147t86.5 164h69z" />
    <glyph glyph-name="bracketleft" unicode="[" horiz-adv-x="768" 
d="M700 -309h-532v1829h532v-93h-354v-1644h354v-92z" />
    <glyph glyph-name="backslash" unicode="\" horiz-adv-x="960" 
d="M911 -424h-131l-690 1948h131z" />
    <glyph glyph-name="bracketright" unicode="]" horiz-adv-x="768" 
d="M600 -309h-532v92h354v1644h-354v93h532v-1829z" />
    <glyph glyph-name="asciicircum" unicode="^" horiz-adv-x="1316" 
d="M1126 797h-145l-322 524l-323 -524h-146l412 659h115z" />
    <glyph glyph-name="underscore" unicode="_" horiz-adv-x="1316" 
d="M1323 -283h-1327v103h1327v-103z" />
    <glyph glyph-name="grave" unicode="`" 
d="M739 1143l-39 -33q-84 67 -179 140t-124 98q-40 32 -54.5 54t-14.5 58q0 30 24 54t58 24q39 0 68 -19t59 -69q76 -122 202 -307z" />
    <glyph glyph-name="a" unicode="a" horiz-adv-x="1032" 
d="M1006 18q-101 -38 -162 -38q-78 0 -125.5 37t-59.5 106h-6q-132 -148 -319 -148q-113 0 -183.5 68t-70.5 178q0 112 56.5 175.5t150.5 99.5q40 16 178.5 62t189.5 73v98q0 17 -2.5 37.5t-14 53t-30 58t-55.5 44t-86 18.5q-48 0 -87 -14t-54 -33q0 -14 9 -58.5t9 -72.5
q0 -37 -33 -64.5t-86 -27.5q-49 0 -72.5 32.5t-23.5 81.5q0 61 54.5 115t135.5 84.5t160 30.5q67 0 118.5 -7.5t99.5 -29t79 -57t49.5 -94t18.5 -138.5q0 -97 -3 -252t-3 -241q0 -71 55 -103q19 -10 113 -10v-64zM657 547q-73 -21 -122 -39t-101 -44.5t-83 -55.5
t-50.5 -70.5t-19.5 -91.5q0 -80 42 -120t111 -40q51 0 96 20t66 39.5t55 55.5z" />
    <glyph glyph-name="b" unicode="b" horiz-adv-x="1146" 
d="M1073 494q0 -111 -38.5 -210t-103 -167.5t-149 -108t-174.5 -39.5q-152 0 -307 92l-74 -114l-61 14q8 164 8 379v977q0 36 -15.5 69t-39.5 48q-32 20 -135 26v66l362 22l14 -14v-651l7 -2q45 51 119 92t161 41q181 0 303.5 -143.5t122.5 -376.5zM864 487q0 81 -16 152.5
t-49 131.5t-89.5 95t-131.5 35q-129 0 -218 -100v-576q8 -29 25.5 -58t45 -57.5t70 -46.5t91.5 -18q121 0 196.5 117t75.5 325z" />
    <glyph glyph-name="c" unicode="c" horiz-adv-x="929" 
d="M926 229q-61 -111 -169 -183.5t-229 -72.5q-147 0 -251.5 69.5t-154.5 186.5t-50 269q0 101 33.5 194t93 164.5t149 114.5t193.5 43q156 0 241.5 -73.5t85.5 -184.5q0 -56 -25 -91.5t-77 -35.5q-57 0 -91 28.5t-34 67.5q0 36 13 95t14 67q-31 51 -131 51q-49 0 -92.5 -23
t-82 -71.5t-61 -135t-22.5 -202.5q0 -185 81.5 -303.5t217.5 -118.5q94 0 159 45.5t123 142.5z" />
    <glyph glyph-name="d" unicode="d" horiz-adv-x="1175" 
d="M1153 18l-344 -22l-16 14v92l-9 2q-122 -133 -284 -133q-177 0 -302.5 147.5t-125.5 377.5q0 221 138 369.5t331 148.5q136 0 250 -64v344q0 41 -14.5 76.5t-39.5 52.5q-43 30 -178 39v64l404 22l16 -14v-1331q0 -65 51 -101q22 -13 123 -18v-66zM791 190v578
q-22 66 -80 118t-150 52q-123 0 -201.5 -123t-78.5 -332q0 -80 17.5 -151t51.5 -128t90.5 -90.5t128.5 -33.5q74 0 124.5 28.5t97.5 81.5z" />
    <glyph glyph-name="e" unicode="e" horiz-adv-x="989" 
d="M948 231q-60 -118 -166 -188t-239 -70q-117 0 -208.5 41.5t-148 115t-85.5 168t-29 204.5q0 99 31.5 190.5t87.5 163.5t142.5 115t188.5 43q106 0 185.5 -34t126 -94t68.5 -134t22 -162v-66h-654q0 -200 81.5 -320t248.5 -120q53 0 93.5 12t73.5 38.5t58 58t54 81.5z
M727 608q0 330 -207 330q-104 0 -174 -88t-76 -242h457z" />
    <glyph glyph-name="f" unicode="f" horiz-adv-x="665" 
d="M807 1430q0 -43 -23.5 -75t-74.5 -32q-20 0 -39 7t-31.5 15t-28.5 26.5t-22.5 28t-22.5 34t-20 30.5q-139 -6 -139 -381v-102h253v-94h-253v-709q0 -69 55 -90q27 -11 133 -22v-66h-520v66q76 8 90 12q55 17 55 90v719h-194v94h194v63q0 225 115.5 364.5t292.5 139.5
q86 0 133 -33t47 -85z" />
    <glyph glyph-name="g" unicode="g" horiz-adv-x="1042" 
d="M1004 -102q0 -151 -132 -246.5t-385 -95.5q-444 0 -444 258q0 92 72 155t211 70v12q-36 12 -61 23t-54 31t-44 50.5t-15 69.5q0 113 149 174v17q-97 43 -149 114t-52 164q0 145 106.5 232.5t264.5 87.5q75 0 180 -33h344v-94h-231v-6q74 -86 74 -199q0 -133 -109 -221
t-244 -88h-120q-72 -28 -72 -86q0 -32 14.5 -52t49.5 -29t58 -11t72 -4q17 -1 25 -1q33 -1 124 -6t103 -6q101 -5 183 -81t82 -199zM647 686q0 111 -44.5 183.5t-135.5 72.5q-172 0 -172 -250q0 -110 48.5 -180t125.5 -70q86 0 132 69.5t46 174.5zM840 -139q0 107 -107 139
q-105 14 -315 14q-107 -21 -154 -69t-47 -127q0 -77 74.5 -132t230.5 -55q151 0 234.5 57.5t83.5 172.5z" />
    <glyph glyph-name="h" unicode="h" horiz-adv-x="1191" 
d="M1143 0h-484v66l33 3t36.5 3.5t27.5 5.5q55 17 55 90v508q0 101 -48.5 160t-121.5 59q-53 0 -99.5 -16.5t-77 -41.5t-50 -48t-29.5 -44v-567q0 -66 55 -90q34 -15 97 -22v-66h-484v66q76 8 90 12q56 17 56 90v1149q0 34 -16 68t-40 51q-28 18 -137 24v66l365 22l14 -14
v-688h4q75 73 107 96q99 72 229 72q138 0 206 -86.5t68 -239.5v-512q0 -67 54 -90q34 -14 90 -20v-66z" />
    <glyph glyph-name="i" unicode="i" horiz-adv-x="600" 
d="M426 1386q0 -58 -38 -99.5t-93 -41.5q-51 0 -88 39.5t-37 93.5q0 56 37 97t88 41q56 0 93.5 -38.5t37.5 -91.5zM551 0h-477v66q76 8 90 12q55 17 55 90v608q0 63 -55 105q-18 11 -54.5 19.5t-66.5 10.5v66l348 20l15 -14v-803q0 -71 55 -92q44 -17 90 -22v-66z" />
    <glyph glyph-name="j" unicode="j" horiz-adv-x="598" 
d="M446 1389q0 -58 -38 -101t-93 -43q-51 0 -88 40t-37 93q0 56 37 97t88 41q56 0 93.5 -37.5t37.5 -89.5zM430 59q0 -224 -114.5 -363.5t-286.5 -139.5q-85 0 -133 34t-48 84q0 43 23.5 76t71.5 33q21 0 39.5 -7t30.5 -14t28 -27t21.5 -27.5t22 -35l19.5 -32.5
q75 0 108.5 93t33.5 294v741q0 31 -16 61.5t-42 49.5q-16 11 -74.5 21.5t-93.5 12.5v64l398 20l12 -14v-924z" />
    <glyph glyph-name="k" unicode="k" horiz-adv-x="1097" 
d="M1116 0h-297q-15 22 -75 108t-96.5 139t-89.5 126t-91 121l-82 -78v-234q0 -73 55 -94q41 -16 97 -22v-66h-484v66q76 8 90 12q56 17 56 90v1147q0 36 -15.5 69t-40.5 50q-29 20 -137 26v66l365 22l14 -14v-1045q234 229 322 328q26 31 26 47q0 44 -127 58v63h434v-61
q-158 -48 -247 -129l-191 -185q54 -65 113 -142.5t134 -181.5t87 -120q43 -58 78 -76.5t102 -23.5v-66z" />
    <glyph glyph-name="l" unicode="l" horiz-adv-x="585" 
d="M535 0h-482v66q80 9 92 12q56 17 56 90v1143q0 35 -15.5 67t-40.5 49q-17 11 -64.5 21t-78.5 12v66l371 22l14 -14v-1354q0 -68 55 -92q35 -16 93 -22v-66z" />
    <glyph glyph-name="m" unicode="m" horiz-adv-x="1804" 
d="M1761 0h-481v66q73 8 88 12q55 17 55 90v510q0 101 -46.5 159t-119.5 58q-53 0 -98 -16t-75 -42.5t-46.5 -46.5t-29.5 -42v-570q0 -69 53 -92q34 -14 90 -20v-66h-471v66q67 7 84 12q55 17 55 90v510q0 101 -46.5 159t-119.5 58q-52 0 -97.5 -16.5t-75.5 -43.5t-47 -47.5
t-30 -42.5v-565q0 -68 56 -92q35 -16 92 -22v-66h-479v66q76 8 90 12q55 17 55 90v612q0 61 -55 103q-44 25 -105 28v66l330 20l14 -14v-139h7q6 6 29.5 29t31.5 31t31 27.5t37 27.5t39 21.5t47 19t52 10t62 4.5q93 0 162.5 -49t101.5 -127q6 5 31 29.5t33.5 32.5t33 28.5
t38.5 28.5t40.5 22t48.5 19.5t52.5 10.5t62.5 5q137 0 204 -90t67 -244v-502q0 -69 53 -92q31 -13 96 -20v-66z" />
    <glyph glyph-name="n" unicode="n" horiz-adv-x="1210" 
d="M1161 0h-483v66q86 9 96 12q55 17 55 90v508q0 101 -48.5 160t-121.5 59q-53 0 -99.5 -16.5t-77 -41.5t-50 -48t-29.5 -44v-567q0 -66 56 -90q33 -15 96 -22v-66h-483v66q76 8 90 12q55 17 55 90v608q0 69 -55 111q-37 21 -101 24v66l328 20l14 -14v-137h5l25.5 25.5
t28 27t27 24t32 25t33 20.5t39.5 19.5t42 13.5t49.5 10.5t54.5 2.5q139 0 209 -87t70 -239v-512q0 -67 53 -90q34 -14 90 -20v-66z" />
    <glyph glyph-name="o" unicode="o" horiz-adv-x="1103" 
d="M1032 504q0 -148 -55.5 -268t-168.5 -193.5t-265 -73.5q-94 0 -180 37t-151 103t-103.5 165t-38.5 215q0 233 134 379t353 146q143 0 252 -67t166 -182t57 -261zM825 502q0 86 -14 160.5t-44 138t-84.5 100.5t-127.5 37q-78 0 -134.5 -38.5t-87 -104t-44 -137
t-13.5 -152.5q0 -129 27.5 -230t92 -166t159.5 -65q90 0 152 63.5t90 164.5t28 229z" />
    <glyph glyph-name="p" unicode="p" horiz-adv-x="1169" 
d="M1098 496q0 -114 -39 -213t-103.5 -166t-148.5 -105.5t-174 -38.5q-154 0 -240 68h-8v-297q0 -72 57 -94q58 -22 142 -27v-67h-551v67q72 4 112 15q54 17 54 94v1048q0 64 -54 105q-39 22 -112 26v66l336 20l14 -12v-111l8 -2q48 54 122 98t161 44q178 0 301 -146
t123 -372zM889 487q0 81 -16.5 152.5t-49.5 131.5t-90.5 95t-132.5 35q-125 0 -215 -108v-584q21 -61 81 -111.5t148 -50.5q121 0 198 116t77 324z" />
    <glyph glyph-name="q" unicode="q" horiz-adv-x="1146" 
d="M1153 -444h-532v67q74 4 114 15q56 16 56 94v364l-7 2q-44 -47 -116.5 -86t-159.5 -39q-90 0 -169.5 38t-138.5 105.5t-93.5 168t-34.5 219.5q0 109 40 205.5t105.5 162.5t151.5 104t176 38q49 0 92.5 -7.5t80 -22.5t56.5 -25.5t49 -29.5t31 -20l84 131l57 -8
q-16 -344 -16 -370v-914q0 -75 53 -98q48 -19 121 -27v-67zM791 182v590q-21 65 -80 115.5t-154 50.5q-120 0 -198 -123t-78 -332q0 -81 17 -150.5t51.5 -127t93.5 -90.5t137 -33q115 0 211 100z" />
    <glyph glyph-name="r" unicode="r" horiz-adv-x="839" 
d="M827 858q0 -54 -26 -91.5t-76 -37.5q-54 0 -84.5 27t-30.5 65q0 13 11 76q-69 -1 -130.5 -50t-87.5 -95v-574q0 -69 56 -90q28 -11 133 -22v-66h-520v66q76 8 90 12q55 17 55 90v608q0 31 -15 61.5t-40 49.5q-37 21 -101 24v66l328 20l14 -14v-137h5q63 81 137 122.5
t139 41.5q64 0 103.5 -41t39.5 -111z" />
    <glyph glyph-name="s" unicode="s" horiz-adv-x="884" 
d="M809 285q0 -141 -105.5 -226.5t-263.5 -85.5q-78 0 -151.5 28t-110.5 60l-20 -63h-74l-10 342h67q8 -34 24.5 -71t44.5 -76.5t62.5 -70.5t82.5 -51t100 -20q96 0 148 44t52 124q0 79 -59 121.5t-195 83.5q-47 14 -85 29t-80.5 41t-71 56.5t-47.5 75.5t-19 99
q0 124 91.5 206.5t240.5 82.5q60 0 119.5 -14.5t97.5 -36.5l23 53h71l17 -318h-70q-21 101 -87.5 170.5t-172.5 69.5q-80 0 -128 -40.5t-48 -100.5q0 -25 5.5 -46t14 -36.5t27 -30t34 -24.5t47 -22.5t55 -21t67.5 -22.5q75 -24 126 -48.5t94.5 -60.5t65 -85.5t21.5 -114.5z
" />
    <glyph glyph-name="t" unicode="t" horiz-adv-x="706" 
d="M682 43q-145 -63 -266 -63q-119 0 -172.5 59.5t-53.5 177.5v670h-178v94h183v307h182v-307h282v-94h-280v-551q0 -53 2.5 -86t12 -64.5t26.5 -48.5t46.5 -27t72.5 -10q90 0 143 17v-74z" />
    <glyph glyph-name="u" unicode="u" horiz-adv-x="1177" 
d="M1128 18l-319 -22l-16 14v125h-7q-32 -34 -55 -55t-64 -49t-93.5 -42t-114.5 -14q-137 0 -203 88.5t-66 245.5v471q0 65 -53 105q-37 20 -102 24v66l330 22l14 -14v-684q0 -103 46.5 -159t117.5 -56q51 0 95.5 16t74.5 42t47.5 46t30.5 41v559q0 62 -54 103
q-23 14 -133 18v66l359 22l16 -14v-782q0 -63 51 -99q24 -14 98 -18v-66z" />
    <glyph glyph-name="v" unicode="v" horiz-adv-x="1017" 
d="M1047 926q-112 -24 -156 -119q-24 -56 -111.5 -256.5t-140.5 -329.5q-43 -97 -84 -229h-80q-152 377 -340 823q-19 43 -62 71t-91 34v65h454v-70q-119 -5 -119 -43q0 -2 2.5 -8.5t6.5 -17.5t6 -19l237 -579q115 269 209 500q29 75 29 98q0 16 -16.5 30.5t-40.5 23.5
t-44.5 14.5t-35.5 7.5v63h377v-59z" />
    <glyph glyph-name="w" unicode="w" horiz-adv-x="1509" 
d="M1540 922q-47 -5 -93.5 -37.5t-66.5 -89.5q-26 -79 -86.5 -257t-107.5 -319q-36 -105 -70 -225h-86l-264 725l-268 -725h-82l-273 819q-14 43 -58 72.5t-89 34.5v65h438v-70q-108 -5 -108 -43q0 -8 12 -45l176 -571l252 711h96l256 -701q116 347 162 496q18 65 18 90
q0 32 -49 51t-84 19v63h375v-63z" />
    <glyph glyph-name="x" unicode="x" horiz-adv-x="1034" 
d="M1022 0h-453v66q87 10 102 23q7 5 7 13q0 17 -31 64q-131 199 -174 260q-37 -45 -188 -256q-23 -37 -23 -49q0 -16 14 -27.5t36 -17.5t36.5 -9t28.5 -4v-63h-365v61q52 15 93.5 40t57 40t36.5 39q90 115 229 301l-246 355q-20 29 -40 47t-41 25.5t-36 9.5t-36 2v65h428
v-65q-95 0 -95 -23q0 -10 23 -43q53 -87 168 -256q80 110 168 236q10 15 10 36q0 33 -98 52v63h362v-61q-129 -34 -192 -111q-54 -67 -205 -268l262 -379q32 -48 67.5 -72t94.5 -28v-66z" />
    <glyph glyph-name="y" unicode="y" horiz-adv-x="1007" 
d="M1038 924q-36 -5 -83.5 -38t-67.5 -79q-88 -204 -207 -491.5t-145 -346.5q-47 -104 -92 -180.5t-81 -120.5t-73 -70t-65 -34t-60 -8q-76 0 -121 35.5t-45 86.5q0 45 24 79t70 34q17 0 33.5 -5t27.5 -9.5t25.5 -19t20 -19.5t19.5 -26t15 -23t15 -25q48 25 117 135t104 205
q-110 272 -334 811q-18 43 -61.5 70.5t-91.5 34.5v65h448v-70q-113 -5 -113 -43q0 -1 2 -6.5t6 -17t7 -21.5q23 -59 119.5 -294t117.5 -289q121 287 201 491q2 5 13.5 33t16.5 46t5 32q0 29 -47.5 50t-85.5 26v63h366v-61z" />
    <glyph glyph-name="z" unicode="z" horiz-adv-x="909" 
d="M854 0h-799v53l557 852h-137q-168 0 -225 -22q-30 -13 -55.5 -67.5t-40.5 -133.5h-62v303h756v-41l-567 -862q68 -2 172 -2q62 0 194 6q36 0 57 22.5t35 61.5q31 80 54 178h61v-348z" />
    <glyph glyph-name="braceleft" unicode="{" horiz-adv-x="880" 
d="M813 -334q-90 0 -156.5 9t-123.5 33t-92 64.5t-54.5 104t-19.5 150.5q0 43 8 129.5t8 124.5q0 71 -20.5 119.5t-63.5 76.5t-96 41t-131 19v129q63 5 108 14t85.5 27t65 45.5t38.5 69.5t14 100q0 38 -8 125.5t-8 130.5q0 85 19.5 147.5t55 102.5t92 64.5t123 34t156.5 9.5
v-82q-35 -2 -55 -3.5t-51.5 -7t-49.5 -13.5t-40 -24t-33.5 -38t-20 -55.5t-8.5 -75.5v-233q0 -83 -18 -146t-46 -102.5t-75 -68t-92.5 -43.5t-110.5 -28v-30q66 -13 111 -27.5t92 -43t75 -67.5t46 -102t18 -147v-234q0 -42 8.5 -75t19.5 -54.5t34.5 -38t40 -24.5t50 -14.5
t50.5 -8t55 -4.5v-80z" />
    <glyph glyph-name="bar" unicode="|" horiz-adv-x="768" 
d="M449 -424h-127v1948h127v-1948z" />
    <glyph glyph-name="braceright" unicode="}" horiz-adv-x="880" 
d="M809 537q-78 -6 -130.5 -19t-95.5 -41t-63 -76t-20 -120q0 -38 7 -124.5t7 -129.5q0 -87 -19.5 -150.5t-54.5 -104t-92 -64.5t-123.5 -33t-156.5 -9v80q38 3 55 4.5t50.5 8t50 14.5t40 24.5t34.5 38t19.5 54.5t8.5 75v234q0 84 18 147t46 102t75.5 67.5t93 43t111.5 27.5
v30q-66 13 -111.5 28t-93 43.5t-75.5 68t-46 102.5t-18 146v233q0 42 -8.5 75.5t-20 55.5t-33.5 38t-40 24t-49.5 13.5t-51.5 7t-55 3.5v82q90 0 156.5 -9.5t123 -34t92 -64.5t55 -102.5t19.5 -147.5q0 -43 -7 -130.5t-7 -125.5q0 -72 20 -120t62.5 -75.5t95 -41
t131.5 -19.5v-129z" />
    <glyph glyph-name="asciitilde" unicode="~" horiz-adv-x="1316" 
d="M1188 715q-17 -46 -47 -94t-72.5 -94.5t-101.5 -76.5t-121 -30q-66 0 -132 21t-110.5 46.5t-99.5 46.5t-101 21q-66 0 -106.5 -42t-87.5 -132l-80 31q17 45 47 92.5t72.5 94t101.5 76.5t121 30q67 0 133.5 -21.5t110.5 -46.5t98 -46.5t100 -21.5q66 0 107.5 42t89.5 134z
" />
    <glyph glyph-name="exclamdown" unicode="&#xa1;" horiz-adv-x="677" 
d="M481 1309q0 -57 -40 -96t-97 -39t-97 39t-40 96t40 97t97 40t97 -40t40 -97zM471 102q0 -58 -35.5 -96.5t-91.5 -38.5t-92.5 38.5t-36.5 96.5q0 36 15 172t37.5 345.5t35.5 371.5h78q15 -155 38.5 -372t37.5 -349t14 -168z" />
    <glyph glyph-name="cent" unicode="&#xa2;" horiz-adv-x="1136" 
d="M1040 233q-61 -104 -165 -174t-224 -77v-281h-82v281q-207 18 -317.5 159.5t-110.5 358.5q0 124 51 233.5t150 185t227 91.5v266h82v-260q160 -3 251 -77t91 -183q0 -127 -106 -127q-60 0 -90.5 28t-30.5 68q0 35 15 93.5t16 68.5q-36 50 -146 57v-856q8 -2 21 -2
q102 0 173.5 48.5t135.5 146.5zM569 100v838q-97 -24 -161 -130t-64 -300q0 -158 59 -265.5t166 -142.5z" />
    <glyph glyph-name="sterling" unicode="&#xa3;" horiz-adv-x="1273" 
d="M299 176h866v-176h-1048v147q219 73 219 474h-166v96h166q0 5 -7 111.5t-7 140.5q0 135 52.5 244.5t157.5 176t244 66.5q82 0 151 -26t113 -69t68.5 -95.5t24.5 -106.5t-25.5 -89.5t-79.5 -35.5q-59 0 -93 29t-34 70q0 19 4 44t7.5 39.5t11 43.5t8.5 32q-16 32 -59 58
t-101 26q-31 0 -60.5 -6t-64.5 -25.5t-60.5 -50t-43 -85.5t-17.5 -126q0 -37 5.5 -176.5t5.5 -189.5h395v-96h-395q0 -281 -238 -435v-10z" />
    <glyph glyph-name="currency" unicode="&#xa4;" horiz-adv-x="1169" 
d="M1006 227l-86 -86l-189 185q-68 -43 -145 -43q-81 0 -146 43l-188 -187l-84 90l182 187q-41 67 -41 143t41 143l-182 191l88 86l184 -186q65 43 146 43q76 0 143 -41l186 184l91 -86l-187 -191q43 -65 43 -143t-43 -143zM748 559q0 68 -47.5 117t-114.5 49
q-68 0 -115 -48t-47 -118q0 -68 47.5 -117t114.5 -49t114.5 48t47.5 118z" />
    <glyph glyph-name="yen" unicode="&#xa5;" horiz-adv-x="1259" 
d="M1282 1348q-18 -2 -55.5 -14.5t-50.5 -22.5q-3 -2 -14.5 -9t-14 -8.5t-11 -7.5t-11 -8.5t-9.5 -9t-11 -12t-10.5 -13.5t-13 -17.5t-14.5 -21.5q-93 -141 -150 -235t-162 -274q-19 -34 -30 -52v-84h393v-94h-393v-258q0 -73 59 -105q14 -7 67 -17.5t79 -12.5v-72h-611v72
q110 7 146 20q55 23 55 105v268h-391v94h391v66q-121 246 -297 553q-31 55 -57 84.5t-60 52.5q-51 29 -118 33v71h579v-71q-7 -1 -26.5 -1.5t-32 -1.5t-31 -3t-30.5 -5.5t-24 -8t-18 -12t-6 -16.5q0 -6 6 -20.5t20.5 -43t29.5 -57.5t43.5 -80.5t52 -93.5t65 -116.5
t72.5 -130.5q24 40 55 92t51.5 86t45.5 76t40.5 69t33.5 58t28.5 50.5t19.5 38t13 29.5t4 17q0 15 -6.5 26.5t-21 19t-27.5 12t-36.5 8t-37 5t-39.5 3.5v71h471v-71z" />
    <glyph glyph-name="brokenbar" unicode="&#xa6;" horiz-adv-x="768" 
d="M449 723h-127v801h127v-801zM449 -424h-127v809h127v-809z" />
    <glyph glyph-name="section" unicode="&#xa7;" 
d="M903 635q0 -102 -67 -188t-183 -130q207 -87 207 -266q0 -134 -110 -221.5t-293 -87.5q-84 0 -146 17.5t-93.5 45.5t-45.5 55t-14 54q0 41 23.5 70.5t74.5 29.5q21 0 39.5 -9t31 -21t26 -33.5t20.5 -37t19 -43t18 -40.5q30 -10 84 -10q90 0 152.5 54t62.5 126
q0 36 -15 67t-37.5 54t-61.5 46t-75.5 39.5t-89.5 37.5q-163 63 -236 148.5t-73 203.5q0 202 241 303q-108 53 -156 114.5t-48 147.5q0 126 107.5 209.5t293.5 83.5q86 0 148.5 -17.5t93 -46t44 -56t13.5 -54.5q0 -41 -23.5 -69.5t-74.5 -28.5q-21 0 -39.5 9t-31 21
t-26 33.5t-20.5 37t-19 43t-18 40.5q-30 10 -84 10q-91 0 -151 -51t-60 -127q0 -20 4.5 -37.5t17.5 -34.5t23.5 -29t36.5 -28t42 -25t54.5 -26t59 -26t69.5 -29q285 -119 285 -328zM748 588q0 169 -302 274q-172 -71 -172 -225q0 -95 72 -159t236 -132q92 51 129 109.5
t37 132.5z" />
    <glyph glyph-name="dieresis" unicode="&#xa8;" 
d="M846 1364q0 -51 -35 -87t-84 -36t-84 36t-35 87t35 87t84 36t84 -36t35 -87zM416 1364q0 -51 -35 -87t-84 -36t-84 36t-35 87t35 87t84 36t84 -36t35 -87z" />
    <glyph glyph-name="copyright" unicode="&#xa9;" horiz-adv-x="1929" 
d="M1849 604q0 -179 -70.5 -343t-189 -282.5t-281.5 -189t-341 -70.5q-240 0 -444 119t-323.5 323t-119.5 443q0 178 70.5 341t189.5 281t283.5 188.5t343.5 70.5q178 0 341 -70.5t281.5 -188.5t189 -281t70.5 -341zM1751 604q0 216 -103.5 398t-284 288.5t-396.5 106.5
q-130 0 -251 -40t-218 -113.5t-169.5 -171t-111.5 -218.5t-39 -250q0 -164 61.5 -312t166.5 -254.5t251.5 -169.5t309.5 -63q216 0 396.5 106.5t284 290t103.5 402.5zM1374 403q-22 -56 -55 -105t-80 -92.5t-113.5 -69t-144.5 -25.5q-220 0 -354.5 130.5t-134.5 350.5
q0 105 39 197.5t107 159t165 105t209 38.5q54 0 119 -19t100 -45l45 66h57l6 -363h-55q-17 52 -32 88.5t-41 77.5t-56.5 65.5t-77 41t-104.5 16.5q-114 0 -194.5 -106.5t-80.5 -311.5q0 -181 91.5 -288t234.5 -107q112 0 181 60.5t112 160.5z" />
    <glyph glyph-name="ordfeminine" unicode="&#xaa;" 
d="M934 647q-100 -31 -143 -31q-64 0 -103.5 32t-48.5 89h-6q-53 -58 -122.5 -91.5t-145.5 -33.5q-89 0 -149 57.5t-60 143.5q0 54 13.5 94t39.5 65t53 40t66 28q34 14 149 52.5t158 60.5v55q0 13 -2.5 30t-12 43.5t-25.5 47t-47 36t-71 15.5q-33 0 -64 -12t-44 -27
q1 -6 5 -26.5t6.5 -38t2.5 -33.5q0 -30 -31 -51t-78 -21q-41 0 -60 28.5t-19 68.5q0 50 45.5 93t112.5 67t134 24q70 0 122 -10.5t96.5 -38t68 -81t23.5 -132.5q0 -80 -3 -200.5t-3 -190.5q0 -58 47 -82q14 -8 96 -8v-62zM637 1075q-64 -19 -101 -31.5t-81.5 -33t-67.5 -41
t-39 -51t-16 -68.5q0 -127 117 -127q63 0 104.5 22.5t79.5 63.5z" />
    <glyph glyph-name="guillemotleft" unicode="&#xab;" horiz-adv-x="1189" 
d="M997 160l-49 -39l-354 332q-1 1 -5 4.5t-6 5t-6 5.5t-6.5 7t-6 8t-5.5 9.5t-4 10t-3 12t-1 13.5q0 41 45 80l352 330l49 -41l-260 -369zM616 160l-49 -39l-354 332q-1 1 -5 4.5t-6 5t-6 5.5t-6.5 7t-6 8t-5.5 9.5t-4 10t-3 12t-1 13.5q0 6 1 12t3 12t4 10.5t5.5 10t6 8.5
t7 8t6.5 7l6.5 6.5l5.5 5.5l352 330l49 -41l-260 -369z" />
    <glyph glyph-name="logicalnot" unicode="&#xac;" horiz-adv-x="1316" 
d="M1163 76h-133v450h-887v125h1020v-575z" />
    <glyph glyph-name="registered" unicode="&#xae;" horiz-adv-x="1929" 
d="M1849 604q0 -179 -70.5 -343t-189 -282.5t-281.5 -189t-341 -70.5q-240 0 -444 119t-323.5 323t-119.5 443q0 178 70.5 341t189.5 281t283.5 188.5t343.5 70.5q178 0 341 -70.5t281.5 -188.5t189 -281t70.5 -341zM1751 604q0 216 -103.5 398t-284 288.5t-396.5 106.5
q-130 0 -251 -40t-218 -113.5t-169.5 -171t-111.5 -218.5t-39 -250q0 -164 61.5 -312t166.5 -254.5t251.5 -169.5t309.5 -63q216 0 396.5 106.5t284 290t103.5 402.5zM1542 145h-287q-152 211 -309 404h-104v-262q0 -52 43 -68q22 -9 98 -16v-58h-438v58q62 5 94 16
q41 16 41 68v643q0 52 -41 67q-55 18 -94 21v57h491q58 0 110 -12t97 -37t71.5 -69.5t26.5 -102.5q0 -109 -58.5 -169.5t-176.5 -94.5q26 -31 235 -291q47 -57 109 -78q49 -15 92 -18v-58zM1155 834q0 170 -197 170h-116v-379h88q103 0 164 56.5t61 152.5z" />
    <glyph glyph-name="overscore" unicode="&#xaf;" horiz-adv-x="1316" 
d="M1323 1604h-1327v100h1327v-100z" />
    <glyph glyph-name="degree" unicode="&#xb0;" horiz-adv-x="858" 
d="M756 1128q0 -140 -91.5 -232.5t-236.5 -92.5q-143 0 -233.5 93t-90.5 232q0 141 92 232.5t232 91.5q145 0 236.5 -92t91.5 -232zM606 1120q0 124 -47.5 191t-130.5 67q-81 0 -128.5 -67.5t-47.5 -180.5q0 -118 47 -184.5t133 -66.5q72 0 123 63.5t51 177.5z" />
    <glyph glyph-name="plusminus" unicode="&#xb1;" horiz-adv-x="1316" 
d="M1167 0h-1017v125h446v401h-446v125h446v453h127v-453h444v-125h-444v-401h444v-125z" />
    <glyph glyph-name="twosuperior" unicode="&#xb2;" 
d="M899 489h-752v111q21 34 48.5 64.5t64 59.5t62 47t72.5 48.5t65 42.5q49 33 80.5 60t62.5 65.5t46.5 87t15.5 107.5q0 96 -48.5 146t-130.5 50q-62 0 -100.5 -20t-54.5 -45q1 -6 5.5 -24.5t7 -31t5 -31t2.5 -32.5q0 -31 -29 -53.5t-79 -22.5q-44 0 -66 29.5t-22 73.5
q0 84 99 157.5t247 73.5q156 0 255 -74t99 -202q0 -59 -15.5 -108t-38 -82.5t-61.5 -66t-71 -51.5t-82 -45q-6 -3 -50 -24.5t-56 -28t-48.5 -26.5t-55.5 -33.5t-46.5 -34t-50.5 -41.5h620v-146z" />
    <glyph glyph-name="threesuperior" unicode="&#xb3;" 
d="M881 752q0 -133 -120 -215t-302 -82q-144 0 -238 60.5t-94 139.5q0 40 21.5 70.5t62.5 30.5q50 0 78 -22t28 -52q0 -14 -3.5 -31.5t-9 -38.5t-7.5 -30q21 -18 65 -36t103 -18q98 0 160.5 56.5t62.5 171.5q0 84 -44.5 131t-160.5 47h-106v92h76q102 0 147 49t45 152
q0 69 -40 111t-122 42q-95 0 -141 -57q18 -87 18 -109q0 -28 -29.5 -48.5t-76.5 -20.5q-44 0 -66 26.5t-22 65.5q0 79 96.5 147t253.5 68q76 0 135.5 -16.5t93.5 -41.5t56 -56.5t29.5 -58t7.5 -50.5q0 -35 -10 -66.5t-33 -63t-67 -57.5t-105 -43v-10q48 -5 90.5 -19.5
t82 -41t62.5 -72t23 -104.5z" />
    <glyph glyph-name="acute" unicode="&#xb4;" 
d="M696 1460q0 -36 -14.5 -58t-54.5 -54q-29 -25 -124 -98t-179 -140l-39 33q126 185 202 307q30 50 58.5 69t68.5 19q34 0 58 -24t24 -54z" />
    <glyph glyph-name="mu1" unicode="&#xb5;" horiz-adv-x="1159" 
d="M1133 18q-106 -36 -164 -36q-79 0 -130.5 39t-64.5 114h-6q-32 -35 -46 -49t-46 -40t-58.5 -36.5t-69.5 -20t-93 -9.5q-59 0 -111.5 22.5t-79.5 56.5h-6v-57q0 -71 26.5 -186t26.5 -158q0 -47 -29.5 -74.5t-68.5 -27.5q-40 0 -66 27.5t-26 72.5q0 34 8 91t20 125l15 85
q10 85 10 178v850h191v-676q0 -103 45 -160t118 -57q163 0 244 139v754h191v-782q0 -81 55 -109q21 -10 115 -10v-66z" />
    <glyph glyph-name="paragraph" unicode="&#xb6;" 
d="M999 1419v-73h-110v-1561h-103v1561h-159v-1561h-105v922q-194 0 -309 93.5t-115 258.5q0 162 112.5 261t272.5 99h516z" />
    <glyph glyph-name="middot" unicode="&#xb7;" horiz-adv-x="571" 
d="M426 559q0 -57 -40 -96t-97 -39t-97 39t-40 96t40 97t97 40t97 -40t40 -97z" />
    <glyph glyph-name="cedilla" unicode="&#xb8;" 
d="M707 -248q0 -59 -32 -99.5t-91 -60.5t-125 -28t-152 -8v71h7q39 0 59.5 0.5t55 2.5t53.5 8t39.5 15.5t30 25.5t9.5 38q0 25 -14.5 41t-41.5 23t-51 9.5t-57 2.5v223h78v-114q43 0 81.5 -7t74 -23t56 -46.5t20.5 -73.5z" />
    <glyph glyph-name="onesuperior" unicode="&#xb9;" 
d="M788 489h-565v72q32 0 87.5 4.5t72.5 9.5q43 17 43 66v631h-207v78h64q83 0 147 29t100 67h72q-6 -222 -6 -238v-559q0 -48 43 -67q17 -8 68 -14.5t81 -6.5v-72z" />
    <glyph glyph-name="ordmasculine" unicode="&#xba;" 
d="M907 1038q0 -119 -45.5 -215.5t-138.5 -156.5t-219 -60q-160 0 -273.5 116.5t-113.5 303.5q0 190 110 308t289 118q177 0 284 -116.5t107 -297.5zM723 1036q0 68 -11 126t-34 108t-65 79t-99 29q-60 0 -104 -30.5t-67 -81.5t-33.5 -107t-10.5 -119q0 -101 21.5 -179.5
t71 -129.5t122.5 -51q103 0 156 100t53 256z" />
    <glyph glyph-name="guillemotright" unicode="&#xbb;" horiz-adv-x="1189" 
d="M1020 528q0 -12 -2.5 -22.5t-9 -19.5t-9.5 -13.5t-11 -12.5l-9 -7l-356 -332l-50 39l261 368l-261 369l50 41l352 -330l5.5 -5.5l6.5 -6.5t6.5 -7t7 -8t6 -8.5t5.5 -10t4 -10.5t3 -12t1 -12zM639 528q0 -12 -2.5 -22.5t-9 -19.5t-9.5 -13.5t-12 -12.5l-8 -7l-356 -332
l-49 39l260 368l-260 369l49 41l352 -330q45 -39 45 -80z" />
    <glyph glyph-name="onequarter" unicode="&#xbc;" horiz-adv-x="2150" 
d="M700 489h-565v72q32 0 87.5 4.5t72.5 9.5q43 17 43 66v631h-207v78h64q83 0 147 29t100 67h72q-6 -222 -6 -238v-559q0 -48 43 -67q17 -8 68 -14.5t81 -6.5v-72zM1311 1419h135l-737 -1419h-136zM1987 322v-109h-158v-233h-166v233h-496v125l543 623h119v-639h158z
M1270 322h393v452z" />
    <glyph glyph-name="onehalf" unicode="&#xbd;" horiz-adv-x="2150" 
d="M700 489h-565v72q32 0 87.5 4.5t72.5 9.5q43 17 43 66v631h-207v78h64q83 0 147 29t100 67h72q-6 -222 -6 -238v-559q0 -48 43 -67q17 -8 68 -14.5t81 -6.5v-72zM1300 1419h136l-738 -1419h-135zM2044 0h-752v111q21 34 48.5 64.5t64 59.5t62 47t72.5 48.5t65 42.5
q49 33 80 60t62.5 65.5t46.5 86.5t15 107q0 96 -48 146.5t-130 50.5q-61 0 -100 -20.5t-55 -45.5q1 -6 5.5 -24t7 -31t5 -31t2.5 -32q0 -31 -29.5 -53.5t-79.5 -22.5q-44 0 -66 29t-22 73q0 84 99.5 158t247.5 74q156 0 255 -74.5t99 -202.5q0 -59 -15.5 -108t-37.5 -82.5
t-61.5 -65.5t-71 -51t-82.5 -45q-9 -5 -43 -21.5t-47.5 -23.5t-43 -22.5t-47 -26.5t-42 -27t-45 -33t-40.5 -35h621v-145z" />
    <glyph glyph-name="threequarters" unicode="&#xbe;" horiz-adv-x="2150" 
d="M870 752q0 -133 -119.5 -215t-301.5 -82q-144 0 -238 60.5t-94 139.5q0 40 21.5 70.5t62.5 30.5q50 0 78 -22t28 -52q0 -14 -3.5 -31.5t-9 -38.5t-7.5 -30q21 -18 65 -36t103 -18q98 0 160.5 56.5t62.5 171.5q0 84 -44.5 131t-160.5 47h-106v92h75q102 0 147.5 49
t45.5 152q0 69 -40 111t-122 42q-95 0 -141 -57q18 -87 18 -109q0 -28 -29.5 -48.5t-76.5 -20.5q-44 0 -66 26.5t-22 65.5q0 79 96.5 147t253.5 68q76 0 135 -16.5t93 -41.5t56 -56.5t29.5 -58t7.5 -50.5q0 -35 -10 -66.5t-33 -63t-67 -57.5t-105 -43v-10q48 -5 90.5 -19.5
t82 -41t62.5 -72t23 -104.5zM1462 1419h135l-737 -1419h-135zM2077 322v-109h-158v-233h-166v233h-496v125l543 623h119v-639h158zM1360 322h393v452z" />
    <glyph glyph-name="questiondown" unicode="&#xbf;" horiz-adv-x="980" 
d="M723 1311q0 -57 -40 -97t-97 -40t-97 40t-40 97t40 96t97 39t97 -39t40 -96zM874 205q0 -83 -96.5 -157.5t-245.5 -74.5q-205 0 -318.5 119t-113.5 293q0 189 121.5 304.5t321.5 137.5v222h92v-379q-344 -24 -344 -308q0 -161 69 -235t181 -74q77 0 131 39
q-23 106 -23 137q0 39 34 69t91 30q51 0 75.5 -34.5t24.5 -88.5z" />
    <glyph glyph-name="Agrave" unicode="&#xc0;" horiz-adv-x="1374" 
d="M1421 0h-592v72q67 4 125 18t58 39q0 23 -8 43l-119 320h-498q-56 -147 -76 -220q-22 -74 -22 -112q0 -23 22 -40.5t57 -27t65 -14t61 -6.5v-72h-535v72q80 5 129 37q35 24 59 53.5t46 83.5q84 206 251.5 639.5t214.5 554.5h80l473 -1225q24 -67 86 -111q51 -28 123 -32
v-72zM850 580l-215 550l-211 -550h426zM938 1546l-31 -39q-59 29 -140.5 68t-131 62.5t-74.5 37.5q-52 26 -72 49.5t-20 63.5q0 36 25 58t67 22q31 0 55.5 -13.5t59.5 -50.5l104 -104q104 -104 158 -154z" />
    <glyph glyph-name="Aacute" unicode="&#xc1;" horiz-adv-x="1374" 
d="M1421 0h-592v72q67 4 125 18t58 39q0 23 -8 43l-119 320h-498q-56 -147 -76 -220q-22 -74 -22 -112q0 -23 22 -40.5t57 -27t65 -14t61 -6.5v-72h-535v72q80 5 129 37q35 24 59 53.5t46 83.5q84 206 251.5 639.5t214.5 554.5h80l473 -1225q24 -67 86 -111q51 -28 123 -32
v-72zM850 580l-215 550l-211 -550h426zM893 1675q-25 -14 -74.5 -37.5t-131 -62.5t-140.5 -68l-31 39q145 137 262 258q32 35 58 49.5t57 14.5q39 0 65.5 -22.5t26.5 -57.5q0 -40 -23 -65t-69 -48z" />
    <glyph glyph-name="Acircumflex" unicode="&#xc2;" horiz-adv-x="1374" 
d="M1421 0h-592v72q67 4 125 18t58 39q0 23 -8 43l-119 320h-498q-56 -147 -76 -220q-22 -74 -22 -112q0 -23 22 -40.5t57 -27t65 -14t61 -6.5v-72h-535v72q80 5 129 37q35 24 59 53.5t46 83.5q84 206 251.5 639.5t214.5 554.5h80l473 -1225q24 -67 86 -111q51 -28 123 -32
v-72zM850 580l-215 550l-211 -550h426zM1026 1538l-49 -31l-279 211l-274 -211l-49 31l235 285q19 26 36.5 35.5t55.5 9.5t54 -9.5t32 -31.5z" />
    <glyph glyph-name="Atilde" unicode="&#xc3;" horiz-adv-x="1374" 
d="M1421 0h-592v72q67 4 125 18t58 39q0 23 -8 43l-119 320h-498q-56 -147 -76 -220q-22 -74 -22 -112q0 -23 22 -40.5t57 -27t65 -14t61 -6.5v-72h-535v72q80 5 129 37q35 24 59 53.5t46 83.5q84 206 251.5 639.5t214.5 554.5h80l473 -1225q24 -67 86 -111q51 -28 123 -32
v-72zM850 580l-215 550l-211 -550h426zM1087 1825q-11 -38 -33 -78t-53.5 -78t-76 -62t-93.5 -24q-53 0 -100 16t-75 35.5t-64.5 35.5t-69.5 16q-12 0 -22.5 -1.5t-20 -6t-16 -8t-15 -13t-13 -14.5t-13 -19t-12.5 -21t-14 -25.5t-15 -27.5l-59 25q13 38 34 76.5t52 77.5
t74 63.5t89 24.5q49 0 95.5 -16t75.5 -35.5t64 -35.5t64 -16q20 0 36 3t27.5 5.5t22.5 12.5t17 14.5t15 20.5t12 22t13 28t13 29z" />
    <glyph glyph-name="Adieresis" unicode="&#xc4;" horiz-adv-x="1374" 
d="M1421 0h-592v72q67 4 125 18t58 39q0 23 -8 43l-119 320h-498q-56 -147 -76 -220q-22 -74 -22 -112q0 -23 22 -40.5t57 -27t65 -14t61 -6.5v-72h-535v72q80 5 129 37q35 24 59 53.5t46 83.5q84 206 251.5 639.5t214.5 554.5h80l473 -1225q24 -67 86 -111q51 -28 123 -32
v-72zM850 580l-215 550l-211 -550h426zM1036 1718q0 -51 -33.5 -87t-82.5 -36t-84 36t-35 87t35 87t84 36t82.5 -36t33.5 -87zM588 1718q0 -51 -35 -87t-84 -36t-83 36t-34 87t34 87t83 36t84 -36t35 -87z" />
    <glyph glyph-name="Aring" unicode="&#xc5;" horiz-adv-x="1374" 
d="M954 1645q0 -88 -57 -148t-152 -74l467 -1208q24 -67 86 -111q51 -28 123 -32v-72h-592v72q67 4 125 18t58 39q0 23 -8 43l-119 320h-498q-56 -147 -76 -220q-22 -74 -22 -112q0 -23 22 -40.5t57 -27t65 -14t61 -6.5v-72h-535v72q80 5 129 37q35 24 59 53.5t46 83.5
q84 208 259 659.5t201 517.5q-100 10 -157.5 70t-57.5 152q0 97 74 159t184 62q114 0 186 -60.5t72 -160.5zM850 580l-215 550l-211 -550h426zM827 1645q0 70 -34 113.5t-97 43.5q-62 0 -96.5 -42t-34.5 -115q0 -71 34 -115.5t97 -44.5t97 43.5t34 116.5z" />
    <glyph glyph-name="AE" unicode="&#xc6;" horiz-adv-x="1988" 
d="M1942 418l-27 -418h-1170v72q110 7 146 20q57 25 57 101v409h-479q-101 -169 -180 -332q-31 -61 -31 -100q0 -50 46 -71.5t122 -26.5v-72h-522v72q68 4 129 37q65 37 121 135q241 412 612 1081q-46 17 -170 23v71h1239v-342h-76q-19 76 -85.5 161.5t-127.5 92.5
q-65 8 -172 8h-213v-563h150q58 0 96 11t50.5 21.5t29.5 31.5q39 47 57 168h76v-555h-76q-3 43 -21 99.5t-36 80.5q-17 20 -30 30t-51 20.5t-95 10.5h-150v-426q0 -44 3 -72t14 -50.5t26 -34t45.5 -18.5t64.5 -9t91 -2h21q72 0 113 1.5t94.5 12.5t74.5 33q42 43 93 138.5
t69 150.5h72zM948 690v641h-78l-354 -641h432z" />
    <glyph glyph-name="Ccedilla" unicode="&#xc7;" horiz-adv-x="1314" 
d="M979 -248q0 -48 -22 -83.5t-57.5 -56.5t-89 -34t-108 -17.5t-122.5 -4.5v71h7q39 0 59.5 0.5t55 2.5t53.5 8t39.5 15.5t30 25.5t9.5 38q0 25 -14.5 41t-41.5 23t-51 9.5t-57 2.5v176q-120 10 -227 65t-188.5 146t-129 224.5t-47.5 291.5q0 166 52.5 308t143 239.5
t215 152t265.5 54.5q194 0 352 -98l41 67h80l10 -506h-84q-15 70 -34.5 130.5t-52.5 121.5t-73.5 104t-99 70t-127.5 27q-204 0 -326.5 -173t-122.5 -482q0 -178 60 -321.5t170 -226.5t250 -83q106 0 191 44t138 112t88 159l74 -37q-81 -199 -215 -292t-325 -99v-65
q43 0 81 -7t73.5 -23t56 -46.5t20.5 -73.5z" />
    <glyph glyph-name="Egrave" unicode="&#xc8;" horiz-adv-x="1337" 
d="M1290 418l-26 -418h-1178v72q102 6 145 20q58 27 58 101v1019q0 75 -58 101q-25 11 -72 22t-73 13v71h1098v-342h-74q-21 76 -87 161.5t-126 92.5q-65 8 -172 8h-223v-563h160q57 0 94.5 11t50 21.5t29.5 31.5q41 50 59 168h74v-555h-74q-3 44 -21.5 100.5t-37.5 79.5
q-17 20 -29.5 30t-50 20.5t-94.5 10.5h-160v-426q0 -44 3 -72t14 -50.5t25.5 -34t44.5 -18.5t64 -9t90 -2q173 0 234 12q59 11 82 35q41 43 91.5 138t68.5 151h71zM846 1546l-31 -39q-59 29 -140.5 68t-131 62.5t-74.5 37.5q-52 26 -72 49.5t-20 63.5q0 36 25 58t67 22
q31 0 55.5 -13.5t59.5 -50.5l104 -104q104 -104 158 -154z" />
    <glyph glyph-name="Eacute" unicode="&#xc9;" horiz-adv-x="1337" 
d="M1290 418l-26 -418h-1178v72q102 6 145 20q58 27 58 101v1019q0 75 -58 101q-25 11 -72 22t-73 13v71h1098v-342h-74q-21 76 -87 161.5t-126 92.5q-65 8 -172 8h-223v-563h160q57 0 94.5 11t50 21.5t29.5 31.5q41 50 59 168h74v-555h-74q-3 44 -21.5 100.5t-37.5 79.5
q-17 20 -29.5 30t-50 20.5t-94.5 10.5h-160v-426q0 -44 3 -72t14 -50.5t25.5 -34t44.5 -18.5t64 -9t90 -2q173 0 234 12q59 11 82 35q41 43 91.5 138t68.5 151h71zM870 1675q-25 -14 -74.5 -37.5t-131 -62.5t-140.5 -68l-30 39q145 137 262 258q32 35 57.5 49.5t56.5 14.5
q39 0 66 -22.5t27 -57.5q0 -40 -23.5 -65t-69.5 -48z" />
    <glyph glyph-name="Ecircumflex" unicode="&#xca;" horiz-adv-x="1337" 
d="M1290 418l-26 -418h-1178v72q102 6 145 20q58 27 58 101v1019q0 75 -58 101q-25 11 -72 22t-73 13v71h1098v-342h-74q-21 76 -87 161.5t-126 92.5q-65 8 -172 8h-223v-563h160q57 0 94.5 11t50 21.5t29.5 31.5q41 50 59 168h74v-555h-74q-3 44 -21.5 100.5t-37.5 79.5
q-17 20 -29.5 30t-50 20.5t-94.5 10.5h-160v-426q0 -44 3 -72t14 -50.5t25.5 -34t44.5 -18.5t64 -9t90 -2q173 0 234 12q59 11 82 35q41 43 91.5 138t68.5 151h71zM1006 1538l-50 -31l-278 211l-275 -211l-49 31l236 285q19 26 36.5 35.5t55.5 9.5t54 -9.5t32 -31.5z" />
    <glyph glyph-name="Edieresis" unicode="&#xcb;" horiz-adv-x="1337" 
d="M1290 418l-26 -418h-1178v72q102 6 145 20q58 27 58 101v1019q0 75 -58 101q-25 11 -72 22t-73 13v71h1098v-342h-74q-21 76 -87 161.5t-126 92.5q-65 8 -172 8h-223v-563h160q57 0 94.5 11t50 21.5t29.5 31.5q41 50 59 168h74v-555h-74q-3 44 -21.5 100.5t-37.5 79.5
q-17 20 -29.5 30t-50 20.5t-94.5 10.5h-160v-426q0 -44 3 -72t14 -50.5t25.5 -34t44.5 -18.5t64 -9t90 -2q173 0 234 12q59 11 82 35q41 43 91.5 138t68.5 151h71zM1030 1731q0 -51 -34 -87t-83 -36t-83.5 36t-34.5 87t34.5 86.5t83.5 35.5t83 -35.5t34 -86.5zM582 1731
q0 -51 -35 -87t-84 -36t-83 36t-34 87t34 86.5t83 35.5q50 0 84.5 -35.5t34.5 -86.5z" />
    <glyph glyph-name="Igrave" unicode="&#xcc;" horiz-adv-x="798" 
d="M719 0h-639v72q116 6 149 16q64 24 64 98v1028q0 74 -64 99q-83 31 -149 35v71h639v-71q-87 -5 -150 -25t-63 -98v-1026q0 -70 63 -101q18 -7 69.5 -15.5t80.5 -10.5v-72zM674 1546l-31 -39q-59 29 -140.5 68t-131 62.5t-74.5 37.5q-52 26 -72 49.5t-20 63.5q0 36 25 58
t67 22q31 0 55.5 -13.5t59.5 -50.5l104 -104q104 -104 158 -154z" />
    <glyph glyph-name="Iacute" unicode="&#xcd;" horiz-adv-x="798" 
d="M719 0h-639v72q116 6 149 16q64 24 64 98v1028q0 74 -64 99q-83 31 -149 35v71h639v-71q-87 -5 -150 -25t-63 -98v-1026q0 -70 63 -101q18 -7 69.5 -15.5t80.5 -10.5v-72zM545 1675q-25 -14 -74.5 -37.5t-131 -62.5t-140.5 -68l-31 39q145 137 262 258q32 35 58 49.5
t57 14.5q39 0 65.5 -22.5t26.5 -57.5q0 -40 -23 -65t-69 -48z" />
    <glyph glyph-name="Icircumflex" unicode="&#xce;" horiz-adv-x="798" 
d="M719 0h-639v72q116 6 149 16q64 24 64 98v1028q0 74 -64 99q-83 31 -149 35v71h639v-71q-87 -5 -150 -25t-63 -98v-1026q0 -70 63 -101q18 -7 69.5 -15.5t80.5 -10.5v-72zM725 1538l-49 -31l-279 211l-274 -211l-49 31l235 285q19 26 36.5 35.5t55.5 9.5t54 -9.5
t32 -31.5z" />
    <glyph glyph-name="Idieresis" unicode="&#xcf;" horiz-adv-x="798" 
d="M719 0h-639v72q116 6 149 16q64 24 64 98v1028q0 74 -64 99q-83 31 -149 35v71h639v-71q-87 -5 -150 -25t-63 -98v-1026q0 -70 63 -101q18 -7 69.5 -15.5t80.5 -10.5v-72zM733 1731q0 -51 -35 -87t-84 -36t-83.5 36t-34.5 87t34.5 86.5t83.5 35.5q50 0 84.5 -35.5
t34.5 -86.5zM303 1731q0 -51 -35 -87t-84 -36t-83.5 36t-34.5 87t34.5 86.5t83.5 35.5q50 0 84.5 -35.5t34.5 -86.5z" />
    <glyph glyph-name="Eth" unicode="&#xd0;" horiz-adv-x="1533" 
d="M1456 700q0 -141 -44 -258.5t-119 -198t-175 -136.5t-210 -81.5t-226 -25.5h-588v72q29 0 74 5t63 11q58 24 58 100v512h-187v99h187v413q0 78 -58 105q-60 27 -129 31v71h621q60 0 124.5 -9.5t137 -33.5t139 -60.5t128 -94t106 -129.5t71.5 -173t27 -219zM1212 702
q0 284 -149 459.5t-393 175.5q-82 0 -168 -4v-534h301v-99h-301v-456q0 -82 48 -122t167 -40q127 0 222.5 44t154.5 126.5t88.5 195t29.5 254.5z" />
    <glyph glyph-name="Ntilde" unicode="&#xd1;" horiz-adv-x="1570" 
d="M1554 1348q-30 -2 -89.5 -17t-80.5 -31q-35 -25 -48 -90t-13 -186v-1038h-86l-860 1161v-731q0 -123 15.5 -188.5t47.5 -96.5q21 -19 89.5 -38t101.5 -21v-72h-584v72q29 2 93.5 20t78.5 31q34 26 48 89t14 191v701q0 46 -17 91.5t-43 70.5q-35 32 -95.5 56t-100.5 26v71
h403l799 -1081v674q0 232 -62 278q-25 18 -89.5 37t-98.5 21v71h577v-71zM1194 1835q-11 -38 -33 -78t-53.5 -78t-76 -62t-93.5 -24q-53 0 -100 16t-75 35.5t-64.5 35.5t-69.5 16q-11 0 -21 -2l-17.5 -3.5t-16 -7.5t-13.5 -9t-12.5 -13t-11.5 -14t-12 -18t-11 -19.5
t-13 -23.5t-14 -25l-59 24q13 38 34.5 76.5t52.5 77.5t74 63.5t89 24.5q49 0 95.5 -16t75.5 -35.5t64 -35.5t64 -16q20 0 36 3t27.5 6t22.5 12.5t17 14.5t15 21t12 22t12.5 27.5t13.5 29.5z" />
    <glyph glyph-name="Ograve" unicode="&#xd2;" horiz-adv-x="1523" 
d="M1444 709q0 -167 -55 -308.5t-148.5 -236t-217 -147t-261.5 -52.5q-146 0 -273 56t-216.5 154t-141 236.5t-51.5 297.5q0 166 54.5 306.5t148 235.5t217.5 148t262 53q141 0 265.5 -53t217 -148t146 -235.5t53.5 -306.5zM1202 709q0 301 -114.5 478t-325.5 177
q-94 0 -169 -36t-125 -97.5t-83.5 -146t-48 -178t-14.5 -197.5q0 -190 46.5 -334.5t147.5 -232t246 -87.5q89 0 162 33t124 91.5t86 141t51.5 179.5t16.5 209zM1030 1546l-31 -39q-59 29 -140.5 68t-131 62.5t-74.5 37.5q-52 26 -72 49.5t-20 63.5q0 36 25 58t67 22
q31 0 55.5 -13.5t59.5 -50.5l104 -104q104 -104 158 -154z" />
    <glyph glyph-name="Oacute" unicode="&#xd3;" horiz-adv-x="1523" 
d="M1444 709q0 -167 -55 -308.5t-148.5 -236t-217 -147t-261.5 -52.5q-146 0 -273 56t-216.5 154t-141 236.5t-51.5 297.5q0 166 54.5 306.5t148 235.5t217.5 148t262 53q141 0 265.5 -53t217 -148t146 -235.5t53.5 -306.5zM1202 709q0 301 -114.5 478t-325.5 177
q-94 0 -169 -36t-125 -97.5t-83.5 -146t-48 -178t-14.5 -197.5q0 -190 46.5 -334.5t147.5 -232t246 -87.5q89 0 162 33t124 91.5t86 141t51.5 179.5t16.5 209zM913 1675q-25 -14 -74.5 -37.5t-131 -62.5t-140.5 -68l-30 39q145 137 262 258q32 35 57.5 49.5t56.5 14.5
q39 0 66 -22.5t27 -57.5q0 -40 -23.5 -65t-69.5 -48z" />
    <glyph glyph-name="Ocircumflex" unicode="&#xd4;" horiz-adv-x="1523" 
d="M1444 709q0 -167 -55 -308.5t-148.5 -236t-217 -147t-261.5 -52.5q-146 0 -273 56t-216.5 154t-141 236.5t-51.5 297.5q0 166 54.5 306.5t148 235.5t217.5 148t262 53q141 0 265.5 -53t217 -148t146 -235.5t53.5 -306.5zM1202 709q0 301 -114.5 478t-325.5 177
q-94 0 -169 -36t-125 -97.5t-83.5 -146t-48 -178t-14.5 -197.5q0 -190 46.5 -334.5t147.5 -232t246 -87.5q89 0 162 33t124 91.5t86 141t51.5 179.5t16.5 209zM1087 1538l-49 -31l-278 211l-275 -211l-49 31l236 285q19 26 36.5 35.5t55.5 9.5t54 -9.5t32 -31.5z" />
    <glyph glyph-name="Otilde" unicode="&#xd5;" horiz-adv-x="1523" 
d="M1444 709q0 -167 -55 -308.5t-148.5 -236t-217 -147t-261.5 -52.5q-146 0 -273 56t-216.5 154t-141 236.5t-51.5 297.5q0 166 54.5 306.5t148 235.5t217.5 148t262 53q141 0 265.5 -53t217 -148t146 -235.5t53.5 -306.5zM1202 709q0 301 -114.5 478t-325.5 177
q-94 0 -169 -36t-125 -97.5t-83.5 -146t-48 -178t-14.5 -197.5q0 -190 46.5 -334.5t147.5 -232t246 -87.5q89 0 162 33t124 91.5t86 141t51.5 179.5t16.5 209zM1145 1835q-11 -38 -33 -78t-53.5 -78t-76 -62t-93.5 -24q-53 0 -100 16t-75 35.5t-64.5 35.5t-69.5 16
q-11 0 -21 -2l-17.5 -3.5t-16 -7.5t-13.5 -9t-12.5 -13t-11.5 -14t-12 -18t-11 -19.5t-13 -23.5t-14 -25l-59 24q13 38 34.5 76.5t52.5 77.5t74 63.5t89 24.5q49 0 95.5 -16t75.5 -35.5t64 -35.5t64 -16q20 0 36 3t27.5 6t22 12.5t16.5 14.5t15 20.5t12.5 22.5t12.5 27.5
t13 29.5z" />
    <glyph glyph-name="Odieresis" unicode="&#xd6;" horiz-adv-x="1523" 
d="M1444 709q0 -167 -55 -308.5t-148.5 -236t-217 -147t-261.5 -52.5q-146 0 -273 56t-216.5 154t-141 236.5t-51.5 297.5q0 166 54.5 306.5t148 235.5t217.5 148t262 53q141 0 265.5 -53t217 -148t146 -235.5t53.5 -306.5zM1202 709q0 301 -114.5 478t-325.5 177
q-94 0 -169 -36t-125 -97.5t-83.5 -146t-48 -178t-14.5 -197.5q0 -190 46.5 -334.5t147.5 -232t246 -87.5q89 0 162 33t124 91.5t86 141t51.5 179.5t16.5 209zM1104 1731q0 -51 -34 -87t-83 -36t-84 36t-35 87t34.5 86.5t84.5 35.5q49 0 83 -35.5t34 -86.5zM655 1731
q0 -51 -34.5 -87t-83.5 -36t-83 36t-34 87t34 86.5t83 35.5t83.5 -35.5t34.5 -86.5z" />
    <glyph glyph-name="multiply" unicode="&#xd7;" horiz-adv-x="1316" 
d="M1108 199l-88 -88l-363 362l-360 -364l-88 90l362 360l-362 363l88 88l360 -363l363 363l88 -88l-365 -363z" />
    <glyph glyph-name="Oslash" unicode="&#xd8;" horiz-adv-x="1523" 
d="M1444 709q0 -167 -55 -308.5t-148.5 -236t-217 -147t-261.5 -52.5q-246 0 -432 162l-174 -211l-66 49l182 215q-92 101 -142 237t-50 292q0 166 54.5 306.5t148 235.5t217.5 148t262 53q248 0 432 -160l152 185l65 -54l-158 -186q191 -214 191 -528zM1098 1176
q-115 188 -336 188q-94 0 -170 -36t-126 -97.5t-84 -146t-48.5 -178t-14.5 -197.5q0 -234 66 -394zM1204 709q0 241 -63 393l-715 -858q120 -189 336 -189q111 0 197 50t139 139.5t79.5 207t26.5 257.5z" />
    <glyph glyph-name="Ugrave" unicode="&#xd9;" horiz-adv-x="1548" 
d="M1534 1348q-35 -2 -89.5 -14.5t-80.5 -30.5q-61 -44 -61 -271v-616q0 -95 -33.5 -173t-86.5 -128.5t-121.5 -85t-136.5 -49.5t-134 -15q-126 0 -228.5 34t-167.5 91.5t-100 130.5t-35 154v837q0 70 -57 103q-23 12 -63 21.5t-66 11.5v71h592v-71q-78 -5 -134 -25
q-57 -19 -57 -100v-785q0 -49 7 -93.5t30 -95.5t60 -87t102.5 -60t152.5 -24t155 24t109 61.5t67.5 87t36 94.5t9.5 91v584q0 227 -63 272q-31 22 -90.5 38t-98.5 18v71h582v-71zM1022 1546l-31 -39q-59 29 -140.5 68t-131 62.5t-74.5 37.5q-52 26 -72 49.5t-20 63.5
q0 36 25 58t67 22q31 0 55.5 -13.5t59.5 -50.5l104 -104q104 -104 158 -154z" />
    <glyph glyph-name="Uacute" unicode="&#xda;" horiz-adv-x="1548" 
d="M1534 1348q-35 -2 -89.5 -14.5t-80.5 -30.5q-61 -44 -61 -271v-616q0 -95 -33.5 -173t-86.5 -128.5t-121.5 -85t-136.5 -49.5t-134 -15q-126 0 -228.5 34t-167.5 91.5t-100 130.5t-35 154v837q0 70 -57 103q-23 12 -63 21.5t-66 11.5v71h592v-71q-78 -5 -134 -25
q-57 -19 -57 -100v-785q0 -49 7 -93.5t30 -95.5t60 -87t102.5 -60t152.5 -24t155 24t109 61.5t67.5 87t36 94.5t9.5 91v584q0 227 -63 272q-31 22 -90.5 38t-98.5 18v71h582v-71zM961 1675q-25 -14 -75 -38t-131 -62.5t-141 -67.5l-30 39q145 137 262 258q32 35 58 49.5
t57 14.5q39 0 65.5 -22.5t26.5 -57.5q0 -40 -23 -65t-69 -48z" />
    <glyph glyph-name="Ucircumflex" unicode="&#xdb;" horiz-adv-x="1548" 
d="M1534 1348q-35 -2 -89.5 -14.5t-80.5 -30.5q-61 -44 -61 -271v-616q0 -95 -33.5 -173t-86.5 -128.5t-121.5 -85t-136.5 -49.5t-134 -15q-126 0 -228.5 34t-167.5 91.5t-100 130.5t-35 154v837q0 70 -57 103q-23 12 -63 21.5t-66 11.5v71h592v-71q-78 -5 -134 -25
q-57 -19 -57 -100v-785q0 -49 7 -93.5t30 -95.5t60 -87t102.5 -60t152.5 -24t155 24t109 61.5t67.5 87t36 94.5t9.5 91v584q0 227 -63 272q-31 22 -90.5 38t-98.5 18v71h582v-71zM1137 1538l-50 -31l-278 211l-274 -211l-50 31l236 285q19 26 36.5 35.5t55.5 9.5t54 -9.5
t32 -31.5z" />
    <glyph glyph-name="Udieresis" unicode="&#xdc;" horiz-adv-x="1548" 
d="M1534 1348q-35 -2 -89.5 -14.5t-80.5 -30.5q-61 -44 -61 -271v-616q0 -95 -33.5 -173t-86.5 -128.5t-121.5 -85t-136.5 -49.5t-134 -15q-126 0 -228.5 34t-167.5 91.5t-100 130.5t-35 154v837q0 70 -57 103q-23 12 -63 21.5t-66 11.5v71h592v-71q-78 -5 -134 -25
q-57 -19 -57 -100v-785q0 -49 7 -93.5t30 -95.5t60 -87t102.5 -60t152.5 -24t155 24t109 61.5t67.5 87t36 94.5t9.5 91v584q0 227 -63 272q-31 22 -90.5 38t-98.5 18v71h582v-71zM1157 1731q0 -51 -34 -87t-83 -36t-83.5 36t-34.5 87t34.5 86.5t83.5 35.5t83 -35.5t34 -86.5
zM709 1731q0 -51 -35 -87t-84 -36t-83 36t-34 87t34 86.5t83 35.5q50 0 84.5 -35.5t34.5 -86.5z" />
    <glyph glyph-name="Yacute" unicode="&#xdd;" horiz-adv-x="1259" 
d="M1315 1348q-18 -2 -56.5 -14.5t-52.5 -22.5q-38 -25 -54.5 -41t-51.5 -66q-25 -35 -52 -75.5t-45.5 -70.5t-51 -85.5t-47 -80.5t-56.5 -98.5t-57 -99.5q-39 -70 -50.5 -107.5t-11.5 -107.5v-270q0 -75 66 -107q17 -7 74.5 -17.5t86.5 -12.5v-72h-663v72q123 7 162 20
q61 25 61 107v344q0 33 -65 153q-122 236 -261 482q-32 56 -57 85.5t-59 51.5q-48 29 -117 33v71h604v-71q-8 0 -30.5 -1.5t-35.5 -2t-34 -2.5t-34 -5.5t-26 -8t-19.5 -12t-6.5 -16.5q0 -17 62 -134t182 -336q44 -79 67 -121q324 520 324 565q0 15 -7.5 26.5t-24 19t-31 12
t-41 8t-41.5 5t-44 3.5v71h494v-71zM870 1675q-25 -14 -74.5 -37.5t-131 -62.5t-140.5 -68l-30 39q145 137 262 258q32 35 57.5 49.5t56.5 14.5q39 0 66 -22.5t27 -57.5q0 -40 -23.5 -65t-69.5 -48z" />
    <glyph glyph-name="Thorn" unicode="&#xde;" horiz-adv-x="1257" 
d="M1190 758q0 -111 -43.5 -196.5t-118 -136t-165.5 -76t-193 -25.5h-168v-131q0 -80 57 -103q39 -13 146 -18v-72h-607v72q95 6 133 18q58 24 58 103v1021q0 73 -58 99q-74 31 -135 35v71h596v-71q-77 -5 -133 -25q-57 -19 -57 -98v-92h252q187 0 311.5 -102.5
t124.5 -272.5zM940 725q0 65 -14.5 119.5t-47 102.5t-93 75t-144.5 27h-139v-637h108q84 0 147 23.5t97 56.5t54.5 79t26 81.5t5.5 72.5z" />
    <glyph glyph-name="germandbls" unicode="&#xdf;" horiz-adv-x="1122" 
d="M1044 498q0 -225 -123.5 -366.5t-310.5 -141.5q-66 0 -121 10v82q39 -10 89 -10q69 0 120 32.5t80.5 92.5t43.5 136t14 171q0 178 -75.5 282.5t-211.5 104.5h-21v86h37q41 0 80.5 15t74 45t56 82.5t21.5 119.5q0 113 -49.5 174.5t-135.5 61.5q-227 0 -227 -414v-1061
h-326v66q74 9 91 14q49 14 49 92v834q0 141 26 240t97 175q121 129 301 129q69 0 130 -18t110.5 -53.5t78.5 -95.5t29 -138q0 -58 -18.5 -107.5t-47 -83.5t-65 -59t-71.5 -38t-67 -17v-8q59 -13 115.5 -44t109 -81.5t85 -130.5t32.5 -178z" />
    <glyph glyph-name="agrave" unicode="&#xe0;" horiz-adv-x="1032" 
d="M1006 18q-101 -38 -162 -38q-78 0 -125.5 37t-59.5 106h-6q-132 -148 -319 -148q-113 0 -183.5 68t-70.5 178q0 112 56.5 175.5t150.5 99.5q40 16 178.5 62t189.5 73v98q0 17 -2.5 37.5t-14 53t-30 58t-55.5 44t-86 18.5q-48 0 -87 -14t-54 -33q0 -14 9 -58.5t9 -72.5
q0 -37 -33 -64.5t-86 -27.5q-49 0 -72.5 32.5t-23.5 81.5q0 61 54.5 115t135.5 84.5t160 30.5q67 0 118.5 -7.5t99.5 -29t79 -57t49.5 -94t18.5 -138.5q0 -97 -3 -252t-3 -241q0 -71 55 -103q19 -10 113 -10v-64zM657 547q-73 -21 -122 -39t-101 -44.5t-83 -55.5
t-50.5 -70.5t-19.5 -91.5q0 -80 42 -120t111 -40q51 0 96 20t66 39.5t55 55.5zM694 1143l-39 -33q-84 67 -179 140t-124 98q-40 32 -54.5 54t-14.5 58q0 30 24 54t58 24q39 0 68 -19t59 -69q76 -122 202 -307z" />
    <glyph glyph-name="aacute" unicode="&#xe1;" horiz-adv-x="1032" 
d="M1006 18q-101 -38 -162 -38q-78 0 -125.5 37t-59.5 106h-6q-132 -148 -319 -148q-113 0 -183.5 68t-70.5 178q0 112 56.5 175.5t150.5 99.5q40 16 178.5 62t189.5 73v98q0 17 -2.5 37.5t-14 53t-30 58t-55.5 44t-86 18.5q-48 0 -87 -14t-54 -33q0 -14 9 -58.5t9 -72.5
q0 -37 -33 -64.5t-86 -27.5q-49 0 -72.5 32.5t-23.5 81.5q0 61 54.5 115t135.5 84.5t160 30.5q67 0 118.5 -7.5t99.5 -29t79 -57t49.5 -94t18.5 -138.5q0 -97 -3 -252t-3 -241q0 -71 55 -103q19 -10 113 -10v-64zM657 547q-73 -21 -122 -39t-101 -44.5t-83 -55.5
t-50.5 -70.5t-19.5 -91.5q0 -80 42 -120t111 -40q51 0 96 20t66 39.5t55 55.5zM739 1460q0 -36 -14.5 -58t-54.5 -54q-29 -25 -124 -98t-179 -140l-39 33q126 185 202 307q30 50 59 69t68 19q34 0 58 -24t24 -54z" />
    <glyph glyph-name="acircumflex" unicode="&#xe2;" horiz-adv-x="1032" 
d="M1006 18q-101 -38 -162 -38q-78 0 -125.5 37t-59.5 106h-6q-132 -148 -319 -148q-113 0 -183.5 68t-70.5 178q0 112 56.5 175.5t150.5 99.5q40 16 178.5 62t189.5 73v98q0 17 -2.5 37.5t-14 53t-30 58t-55.5 44t-86 18.5q-48 0 -87 -14t-54 -33q0 -14 9 -58.5t9 -72.5
q0 -37 -33 -64.5t-86 -27.5q-49 0 -72.5 32.5t-23.5 81.5q0 61 54.5 115t135.5 84.5t160 30.5q67 0 118.5 -7.5t99.5 -29t79 -57t49.5 -94t18.5 -138.5q0 -97 -3 -252t-3 -241q0 -71 55 -103q19 -10 113 -10v-64zM657 547q-73 -21 -122 -39t-101 -44.5t-83 -55.5
t-50.5 -70.5t-19.5 -91.5q0 -80 42 -120t111 -40q51 0 96 20t66 39.5t55 55.5zM817 1157l-49 -33l-279 273l-274 -273l-49 33l237 346q19 27 35.5 36t55.5 9q38 0 53 -9t31 -32z" />
    <glyph glyph-name="atilde" unicode="&#xe3;" horiz-adv-x="1032" 
d="M1006 18q-101 -38 -162 -38q-78 0 -125.5 37t-59.5 106h-6q-132 -148 -319 -148q-113 0 -183.5 68t-70.5 178q0 112 56.5 175.5t150.5 99.5q40 16 178.5 62t189.5 73v98q0 17 -2.5 37.5t-14 53t-30 58t-55.5 44t-86 18.5q-48 0 -87 -14t-54 -33q0 -14 9 -58.5t9 -72.5
q0 -37 -33 -64.5t-86 -27.5q-49 0 -72.5 32.5t-23.5 81.5q0 61 54.5 115t135.5 84.5t160 30.5q67 0 118.5 -7.5t99.5 -29t79 -57t49.5 -94t18.5 -138.5q0 -97 -3 -252t-3 -241q0 -71 55 -103q19 -10 113 -10v-64zM657 547q-73 -21 -122 -39t-101 -44.5t-83 -55.5
t-50.5 -70.5t-19.5 -91.5q0 -80 42 -120t111 -40q51 0 96 20t66 39.5t55 55.5zM889 1466q-11 -38 -33 -78t-53.5 -77.5t-76 -61.5t-93.5 -24q-53 0 -100 16t-75 35t-64.5 35t-69.5 16q-11 0 -21 -2l-17.5 -3.5t-16 -7.5t-13.5 -9t-12.5 -13t-11.5 -14t-12 -18t-11 -19.5
t-13 -23.5t-14 -25l-59 25q13 38 34.5 76.5t52.5 77t74 63t89 24.5q49 0 95.5 -16t75.5 -35t64 -35t64 -16q20 0 36 3t27.5 6t22 12t16.5 14.5t15 20.5t12 22t12.5 28t13.5 29z" />
    <glyph glyph-name="adieresis" unicode="&#xe4;" horiz-adv-x="1032" 
d="M1006 18q-101 -38 -162 -38q-78 0 -125.5 37t-59.5 106h-6q-132 -148 -319 -148q-113 0 -183.5 68t-70.5 178q0 112 56.5 175.5t150.5 99.5q40 16 178.5 62t189.5 73v98q0 17 -2.5 37.5t-14 53t-30 58t-55.5 44t-86 18.5q-48 0 -87 -14t-54 -33q0 -14 9 -58.5t9 -72.5
q0 -37 -33 -64.5t-86 -27.5q-49 0 -72.5 32.5t-23.5 81.5q0 61 54.5 115t135.5 84.5t160 30.5q67 0 118.5 -7.5t99.5 -29t79 -57t49.5 -94t18.5 -138.5q0 -97 -3 -252t-3 -241q0 -71 55 -103q19 -10 113 -10v-64zM657 547q-73 -21 -122 -39t-101 -44.5t-83 -55.5
t-50.5 -70.5t-19.5 -91.5q0 -80 42 -120t111 -40q51 0 96 20t66 39.5t55 55.5zM827 1364q0 -51 -34.5 -87t-83.5 -36t-84 36t-35 87t35 87t84 36t83.5 -36t34.5 -87zM397 1364q0 -51 -34.5 -87t-83.5 -36t-84 36t-35 87t35 87t84 36t83.5 -36t34.5 -87z" />
    <glyph glyph-name="aring" unicode="&#xe5;" horiz-adv-x="1032" 
d="M1006 18q-101 -38 -162 -38q-78 0 -125.5 37t-59.5 106h-6q-132 -148 -319 -148q-113 0 -183.5 68t-70.5 178q0 112 56.5 175.5t150.5 99.5q40 16 178.5 62t189.5 73v98q0 17 -2.5 37.5t-14 53t-30 58t-55.5 44t-86 18.5q-48 0 -87 -14t-54 -33q0 -14 9 -58.5t9 -72.5
q0 -37 -33 -64.5t-86 -27.5q-49 0 -72.5 32.5t-23.5 81.5q0 61 54.5 115t135.5 84.5t160 30.5q67 0 118.5 -7.5t99.5 -29t79 -57t49.5 -94t18.5 -138.5q0 -97 -3 -252t-3 -241q0 -71 55 -103q19 -10 113 -10v-64zM657 547q-73 -21 -122 -39t-101 -44.5t-83 -55.5
t-50.5 -70.5t-19.5 -91.5q0 -80 42 -120t111 -40q51 0 96 20t66 39.5t55 55.5zM752 1337q0 -99 -71 -161t-187 -62q-118 0 -188 60.5t-70 162.5q0 97 74 159.5t184 62.5q114 0 186 -61t72 -161zM625 1337q0 70 -34 114t-97 44q-62 0 -97 -42.5t-35 -115.5q0 -71 34.5 -115
t97.5 -44t97 43.5t34 115.5z" />
    <glyph glyph-name="ae" unicode="&#xe6;" horiz-adv-x="1509" 
d="M1468 233q-54 -115 -155 -187.5t-230 -72.5q-117 0 -207.5 43t-162.5 146h-6q-84 -109 -173 -149t-194 -40q-115 0 -186.5 66.5t-71.5 179.5q0 61 16.5 109.5t46.5 81t63 54t75 38.5q151 60 358 121v106q0 16 -3 37.5t-13.5 53.5t-28 57.5t-51 44t-76.5 18.5
q-52 0 -91 -14t-54 -33q0 -14 9 -58.5t9 -72.5q0 -37 -32.5 -64.5t-86.5 -27.5q-49 0 -72.5 32.5t-23.5 81.5q0 90 111 160t233 70q110 0 187 -27t124 -94q55 55 128 88t153 33q99 0 174 -32.5t119 -90t66 -129t22 -156.5v-57h-619q0 -465 305 -465q99 0 159 47t110 145z
M1245 631q0 307 -194 307q-100 0 -163 -88.5t-63 -218.5h420zM643 195v342q-362 -71 -362 -289q0 -81 38.5 -121.5t106.5 -40.5q130 0 217 109z" />
    <glyph glyph-name="ccedilla" unicode="&#xe7;" horiz-adv-x="929" 
d="M768 -248q0 -48 -22 -83.5t-57.5 -56.5t-89 -34t-108 -17.5t-122.5 -4.5v71h7q39 0 59.5 0.5t55 2.5t53.5 8t39.5 15.5t30 25.5t9.5 38q0 25 -14.5 41t-41.5 23t-51 9.5t-57 2.5v184q-188 23 -287.5 164.5t-99.5 356.5q0 101 33.5 194t93 164.5t149 114.5t193.5 43
q156 0 241.5 -73.5t85.5 -184.5q0 -56 -25 -91.5t-77 -35.5q-57 0 -91 28.5t-34 67.5q0 36 13 95t14 67q-31 51 -131 51q-49 0 -92.5 -23t-82 -71.5t-61 -135t-22.5 -202.5q0 -185 81.5 -303.5t217.5 -118.5q94 0 159 45.5t123 142.5l66 -43q-61 -109 -165.5 -181
t-223.5 -75v-71q43 0 81 -7t73.5 -23t56 -46.5t20.5 -73.5z" />
    <glyph glyph-name="egrave" unicode="&#xe8;" horiz-adv-x="989" 
d="M948 231q-60 -118 -166 -188t-239 -70q-117 0 -208.5 41.5t-148 115t-85.5 168t-29 204.5q0 99 31.5 190.5t87.5 163.5t142.5 115t188.5 43q106 0 185.5 -34t126 -94t68.5 -134t22 -162v-66h-654q0 -200 81.5 -320t248.5 -120q53 0 93.5 12t73.5 38.5t58 58t54 81.5z
M727 608q0 330 -207 330q-104 0 -174 -88t-76 -242h457zM696 1143l-39 -33q-84 67 -179 140t-124 98q-40 32 -54.5 54t-14.5 58q0 30 24 54t58 24q39 0 68 -19t59 -69q76 -122 202 -307z" />
    <glyph glyph-name="eacute" unicode="&#xe9;" horiz-adv-x="989" 
d="M948 231q-60 -118 -166 -188t-239 -70q-117 0 -208.5 41.5t-148 115t-85.5 168t-29 204.5q0 99 31.5 190.5t87.5 163.5t142.5 115t188.5 43q106 0 185.5 -34t126 -94t68.5 -134t22 -162v-66h-654q0 -200 81.5 -320t248.5 -120q53 0 93.5 12t73.5 38.5t58 58t54 81.5z
M727 608q0 330 -207 330q-104 0 -174 -88t-76 -242h457zM764 1460q0 -36 -15 -58t-55 -54q-29 -25 -124 -98t-179 -140l-39 33q137 200 203 307q30 50 58.5 69t68.5 19q34 0 58 -24t24 -54z" />
    <glyph glyph-name="ecircumflex" unicode="&#xea;" horiz-adv-x="989" 
d="M948 231q-60 -118 -166 -188t-239 -70q-117 0 -208.5 41.5t-148 115t-85.5 168t-29 204.5q0 99 31.5 190.5t87.5 163.5t142.5 115t188.5 43q106 0 185.5 -34t126 -94t68.5 -134t22 -162v-66h-654q0 -200 81.5 -320t248.5 -120q53 0 93.5 12t73.5 38.5t58 58t54 81.5z
M727 608q0 330 -207 330q-104 0 -174 -88t-76 -242h457zM848 1151l-49 -33l-279 273l-274 -273l-49 33l237 346q19 27 35 36t55 9q38 0 53 -9t31 -32z" />
    <glyph glyph-name="edieresis" unicode="&#xeb;" horiz-adv-x="989" 
d="M948 231q-60 -118 -166 -188t-239 -70q-117 0 -208.5 41.5t-148 115t-85.5 168t-29 204.5q0 99 31.5 190.5t87.5 163.5t142.5 115t188.5 43q106 0 185.5 -34t126 -94t68.5 -134t22 -162v-66h-654q0 -200 81.5 -320t248.5 -120q53 0 93.5 12t73.5 38.5t58 58t54 81.5z
M727 608q0 330 -207 330q-104 0 -174 -88t-76 -242h457zM862 1364q0 -51 -35 -87t-84 -36t-83.5 36t-34.5 87t34.5 87t83.5 36t84 -36t35 -87zM432 1364q0 -51 -35 -87t-84 -36t-83.5 36t-34.5 87t34.5 87t83.5 36t84 -36t35 -87z" />
    <glyph glyph-name="igrave" unicode="&#xec;" horiz-adv-x="600" 
d="M551 0h-477v66q76 8 90 12q55 17 55 90v608q0 63 -55 105q-18 11 -54.5 19.5t-66.5 10.5v66l348 20l15 -14v-803q0 -71 55 -92q44 -17 90 -22v-66zM453 1143l-39 -33q-84 67 -179 140t-124 98q-40 32 -55 54t-15 58q0 30 24 54t58 24q39 0 68 -19t59 -69
q66 -107 203 -307z" />
    <glyph glyph-name="iacute" unicode="&#xed;" horiz-adv-x="600" 
d="M551 0h-477v66q76 8 90 12q55 17 55 90v608q0 63 -55 105q-18 11 -54.5 19.5t-66.5 10.5v66l348 20l15 -14v-803q0 -71 55 -92q44 -17 90 -22v-66zM512 1460q0 -36 -15 -58t-55 -54q-29 -25 -124 -98t-179 -140l-39 33q137 200 203 307q30 50 58.5 69t68.5 19
q34 0 58 -24t24 -54z" />
    <glyph glyph-name="icircumflex" unicode="&#xee;" horiz-adv-x="600" 
d="M551 0h-477v66q76 8 90 12q55 17 55 90v608q0 63 -55 105q-18 11 -54.5 19.5t-66.5 10.5v66l348 20l15 -14v-803q0 -71 55 -92q44 -17 90 -22v-66zM586 1151l-49 -33l-279 273l-274 -273l-50 33l238 346q19 27 35 36t55 9q38 0 53 -9t31 -32z" />
    <glyph glyph-name="idieresis" unicode="&#xef;" horiz-adv-x="600" 
d="M551 0h-477v66q76 8 90 12q55 17 55 90v608q0 63 -55 105q-18 11 -54.5 19.5t-66.5 10.5v66l348 20l15 -14v-803q0 -71 55 -92q44 -17 90 -22v-66zM602 1364q0 -51 -35 -87t-84 -36t-83.5 36t-34.5 87t34.5 87t83.5 36t84 -36t35 -87zM172 1364q0 -51 -35 -87t-84 -36
t-84 36t-35 87t35 87t84 36t84 -36t35 -87z" />
    <glyph glyph-name="eth" unicode="&#xf0;" horiz-adv-x="1089" 
d="M1014 610q0 -189 -54.5 -332.5t-164.5 -226t-263 -82.5q-90 0 -172.5 35t-147.5 98.5t-103.5 163t-38.5 219.5q0 222 126.5 361t327.5 139q89 0 162 -40.5t109 -98.5l8 2q-23 217 -174 434l-232 -137l-49 78l227 131q-60 77 -165 145l51 57q50 -25 113.5 -69.5
t99.5 -77.5l203 123l51 -80l-191 -109q135 -144 206 -322t71 -411zM805 512q0 109 -28 196.5t-88 142t-144 54.5q-75 0 -129.5 -34.5t-84 -94.5t-42.5 -128t-13 -148q0 -214 66.5 -334.5t200.5 -120.5q70 0 122 39t81.5 106t44 148t14.5 174z" />
    <glyph glyph-name="ntilde" unicode="&#xf1;" horiz-adv-x="1210" 
d="M1161 0h-483v66q86 9 96 12q55 17 55 90v508q0 101 -48.5 160t-121.5 59q-53 0 -99.5 -16.5t-77 -41.5t-50 -48t-29.5 -44v-567q0 -66 56 -90q33 -15 96 -22v-66h-483v66q76 8 90 12q55 17 55 90v608q0 69 -55 111q-37 21 -101 24v66l328 20l14 -14v-137h5l25.5 25.5
t28 27t27 24t32 25t33 20.5t39.5 19.5t42 13.5t49.5 10.5t54.5 2.5q139 0 209 -87t70 -239v-512q0 -67 53 -90q34 -14 90 -20v-66zM987 1466q-11 -38 -33 -78t-53.5 -77.5t-76 -61.5t-93.5 -24q-53 0 -100 16t-75 35t-64.5 35t-69.5 16q-12 0 -22.5 -1.5t-20 -6t-16 -7.5
t-15 -13t-12.5 -14.5t-13 -19t-12.5 -20.5t-14.5 -25.5t-15 -27.5l-60 25q13 38 34.5 76.5t52.5 77t74 63t89 24.5q49 0 95.5 -16t75.5 -35t64 -35t64 -16q20 0 36 3t27.5 5.5t22.5 12.5t17 14.5t15 20.5t12 22t13 28t13 29z" />
    <glyph glyph-name="ograve" unicode="&#xf2;" horiz-adv-x="1103" 
d="M1032 504q0 -148 -55.5 -268t-168.5 -193.5t-265 -73.5q-94 0 -180 37t-151 103t-103.5 165t-38.5 215q0 233 134 379t353 146q143 0 252 -67t166 -182t57 -261zM825 502q0 86 -14 160.5t-44 138t-84.5 100.5t-127.5 37q-78 0 -134.5 -38.5t-87 -104t-44 -137
t-13.5 -152.5q0 -129 27.5 -230t92 -166t159.5 -65q90 0 152 63.5t90 164.5t28 229zM786 1143l-38 -33q-86 68 -180.5 141t-123.5 97q-40 32 -54.5 54t-14.5 58q0 30 24 54t58 24q39 0 68 -19t59 -69q76 -122 202 -307z" />
    <glyph glyph-name="oacute" unicode="&#xf3;" horiz-adv-x="1103" 
d="M1032 504q0 -148 -55.5 -268t-168.5 -193.5t-265 -73.5q-94 0 -180 37t-151 103t-103.5 165t-38.5 215q0 233 134 379t353 146q143 0 252 -67t166 -182t57 -261zM825 502q0 86 -14 160.5t-44 138t-84.5 100.5t-127.5 37q-78 0 -134.5 -38.5t-87 -104t-44 -137
t-13.5 -152.5q0 -129 27.5 -230t92 -166t159.5 -65q90 0 152 63.5t90 164.5t28 229zM743 1460q0 -36 -14.5 -58t-54.5 -54q-29 -25 -124 -98t-179 -140l-39 33q137 200 203 307q30 50 58.5 69t68.5 19q34 0 57.5 -24t23.5 -54z" />
    <glyph glyph-name="ocircumflex" unicode="&#xf4;" horiz-adv-x="1103" 
d="M1032 504q0 -148 -55.5 -268t-168.5 -193.5t-265 -73.5q-94 0 -180 37t-151 103t-103.5 165t-38.5 215q0 233 134 379t353 146q143 0 252 -67t166 -182t57 -261zM825 502q0 86 -14 160.5t-44 138t-84.5 100.5t-127.5 37q-78 0 -134.5 -38.5t-87 -104t-44 -137
t-13.5 -152.5q0 -129 27.5 -230t92 -166t159.5 -65q90 0 152 63.5t90 164.5t28 229zM885 1151l-49 -33l-279 273l-274 -273l-50 33l238 346q19 27 35 36t55 9q38 0 53 -9t31 -32z" />
    <glyph glyph-name="otilde" unicode="&#xf5;" horiz-adv-x="1103" 
d="M1032 504q0 -148 -55.5 -268t-168.5 -193.5t-265 -73.5q-94 0 -180 37t-151 103t-103.5 165t-38.5 215q0 233 134 379t353 146q143 0 252 -67t166 -182t57 -261zM825 502q0 86 -14 160.5t-44 138t-84.5 100.5t-127.5 37q-78 0 -134.5 -38.5t-87 -104t-44 -137
t-13.5 -152.5q0 -129 27.5 -230t92 -166t159.5 -65q90 0 152 63.5t90 164.5t28 229zM942 1466q-11 -38 -33 -78t-53.5 -77.5t-76 -61.5t-93.5 -24q-53 0 -100 16t-75 35t-64.5 35t-69.5 16q-12 0 -22.5 -1.5t-20 -6t-16 -7.5t-15 -13t-12.5 -14.5t-13 -19t-12.5 -20.5
t-14.5 -25.5t-15 -27.5l-60 25q13 38 34.5 76.5t52.5 77t74 63t89 24.5q49 0 95.5 -16t75.5 -35t64 -35t64 -16q20 0 36 3t27.5 5.5t22.5 12.5t17 14.5t15 20.5t12 22t13 28t13 29z" />
    <glyph glyph-name="odieresis" unicode="&#xf6;" horiz-adv-x="1103" 
d="M1032 504q0 -148 -55.5 -268t-168.5 -193.5t-265 -73.5q-94 0 -180 37t-151 103t-103.5 165t-38.5 215q0 233 134 379t353 146q143 0 252 -67t166 -182t57 -261zM825 502q0 86 -14 160.5t-44 138t-84.5 100.5t-127.5 37q-78 0 -134.5 -38.5t-87 -104t-44 -137
t-13.5 -152.5q0 -129 27.5 -230t92 -166t159.5 -65q90 0 152 63.5t90 164.5t28 229zM893 1364q0 -51 -35 -87t-84 -36t-84 36t-35 87t35 87t84 36t84 -36t35 -87zM463 1364q0 -51 -35 -87t-84 -36t-84 36t-35 87t35 87t84 36t84 -36t35 -87z" />
    <glyph glyph-name="divide" unicode="&#xf7;" horiz-adv-x="1316" 
d="M788 967q0 -54 -38 -91.5t-91 -37.5q-54 0 -91.5 37.5t-37.5 91.5q0 53 37.5 90t91.5 37q53 0 91 -37.5t38 -89.5zM1174 498h-1031v125h1031v-125zM788 154q0 -53 -38 -90t-91 -37q-54 0 -91.5 36.5t-37.5 90.5q0 53 37.5 91t91.5 38q53 0 91 -38.5t38 -90.5z" />
    <glyph glyph-name="oslash" unicode="&#xf8;" horiz-adv-x="1103" 
d="M1032 504q0 -148 -55.5 -268t-168.5 -193.5t-265 -73.5q-158 0 -287 107l-127 -158l-57 43l133 164q-135 148 -135 364q0 233 134 379t353 146q166 0 289 -96l110 141l60 -45l-119 -146q135 -144 135 -364zM764 815q-70 123 -209 123q-63 0 -113 -26t-81.5 -68.5
t-52 -100t-28.5 -116t-8 -121.5q0 -145 35 -258zM829 502q0 146 -32 246l-457 -570q73 -133 215 -133q91 0 154 63.5t91.5 164.5t28.5 229z" />
    <glyph glyph-name="ugrave" unicode="&#xf9;" horiz-adv-x="1177" 
d="M1128 18l-319 -22l-16 14v125h-7q-32 -34 -55 -55t-64 -49t-93.5 -42t-114.5 -14q-137 0 -203 88.5t-66 245.5v471q0 65 -53 105q-37 20 -102 24v66l330 22l14 -14v-684q0 -103 46.5 -159t117.5 -56q51 0 95.5 16t74.5 42t47.5 46t30.5 41v559q0 62 -54 103
q-23 14 -133 18v66l359 22l16 -14v-782q0 -63 51 -99q24 -14 98 -18v-66zM770 1143l-39 -33q-84 67 -179 140t-124 98q-40 32 -55 54t-15 58q0 30 24 54t58 24q39 0 68 -19t59 -69q66 -107 203 -307z" />
    <glyph glyph-name="uacute" unicode="&#xfa;" horiz-adv-x="1177" 
d="M1128 18l-319 -22l-16 14v125h-7q-32 -34 -55 -55t-64 -49t-93.5 -42t-114.5 -14q-137 0 -203 88.5t-66 245.5v471q0 65 -53 105q-37 20 -102 24v66l330 22l14 -14v-684q0 -103 46.5 -159t117.5 -56q51 0 95.5 16t74.5 42t47.5 46t30.5 41v559q0 62 -54 103
q-23 14 -133 18v66l359 22l16 -14v-782q0 -63 51 -99q24 -14 98 -18v-66zM809 1460q0 -36 -15 -58t-55 -54q-29 -25 -124 -98t-179 -140l-39 33q137 200 203 307q30 50 59 69t68 19q34 0 58 -24t24 -54z" />
    <glyph glyph-name="ucircumflex" unicode="&#xfb;" horiz-adv-x="1177" 
d="M1128 18l-319 -22l-16 14v125h-7q-32 -34 -55 -55t-64 -49t-93.5 -42t-114.5 -14q-137 0 -203 88.5t-66 245.5v471q0 65 -53 105q-37 20 -102 24v66l330 22l14 -14v-684q0 -103 46.5 -159t117.5 -56q51 0 95.5 16t74.5 42t47.5 46t30.5 41v559q0 62 -54 103
q-23 14 -133 18v66l359 22l16 -14v-782q0 -63 51 -99q24 -14 98 -18v-66zM899 1151l-49 -33l-279 273l-274 -273l-49 33l237 346q19 27 35 36t55 9q38 0 53 -9t31 -32z" />
    <glyph glyph-name="udieresis" unicode="&#xfc;" horiz-adv-x="1177" 
d="M1128 18l-319 -22l-16 14v125h-7q-32 -34 -55 -55t-64 -49t-93.5 -42t-114.5 -14q-137 0 -203 88.5t-66 245.5v471q0 65 -53 105q-37 20 -102 24v66l330 22l14 -14v-684q0 -103 46.5 -159t117.5 -56q51 0 95.5 16t74.5 42t47.5 46t30.5 41v559q0 62 -54 103
q-23 14 -133 18v66l359 22l16 -14v-782q0 -63 51 -99q24 -14 98 -18v-66zM907 1364q0 -51 -35 -87t-84 -36t-83.5 36t-34.5 87t34.5 87t83.5 36t84 -36t35 -87zM477 1364q0 -51 -35 -87t-84 -36t-83.5 36t-34.5 87t34.5 87t83.5 36t84 -36t35 -87z" />
    <glyph glyph-name="yacute" unicode="&#xfd;" horiz-adv-x="1007" 
d="M1038 924q-36 -5 -83.5 -38t-67.5 -79q-88 -204 -207 -491.5t-145 -346.5q-47 -104 -92 -180.5t-81 -120.5t-73 -70t-65 -34t-60 -8q-76 0 -121 35.5t-45 86.5q0 45 24 79t70 34q17 0 33.5 -5t27.5 -9.5t25.5 -19t20 -19.5t19.5 -26t15 -23t15 -25q48 25 117 135t104 205
q-110 272 -334 811q-18 43 -61.5 70.5t-91.5 34.5v65h448v-70q-113 -5 -113 -43q0 -1 2 -6.5t6 -17t7 -21.5q23 -59 119.5 -294t117.5 -289q121 287 201 491q2 5 13.5 33t16.5 46t5 32q0 29 -47.5 50t-85.5 26v63h366v-61zM760 1460q0 -36 -15 -58t-55 -54q-29 -25 -124 -98
t-179 -140l-39 33q137 200 203 307q30 50 58.5 69t68.5 19q34 0 58 -24t24 -54z" />
    <glyph glyph-name="thorn" unicode="&#xfe;" horiz-adv-x="1144" 
d="M1071 485q0 -109 -38.5 -205.5t-103 -163t-149 -105t-174.5 -38.5q-151 0 -237 68h-9v-297q0 -72 58 -94q22 -9 67 -17t74 -10v-67h-551v67q73 4 113 15q53 16 53 94v1585q-8 86 -55 119q-28 18 -137 24v66l364 22l14 -14v-660l7 -2q48 54 120 98t158 44
q181 0 303.5 -147t122.5 -382zM862 487q0 81 -16 152.5t-49 131.5t-90 95t-132 35q-125 0 -215 -108v-584q13 -38 39 -72.5t77 -62t114 -27.5q121 0 196.5 116t75.5 324z" />
    <glyph glyph-name="ydieresis" unicode="&#xff;" horiz-adv-x="1007" 
d="M1038 924q-36 -5 -83.5 -38t-67.5 -79q-88 -204 -207 -491.5t-145 -346.5q-47 -104 -92 -180.5t-81 -120.5t-73 -70t-65 -34t-60 -8q-76 0 -121 35.5t-45 86.5q0 45 24 79t70 34q17 0 33.5 -5t27.5 -9.5t25.5 -19t20 -19.5t19.5 -26t15 -23t15 -25q48 25 117 135t104 205
q-110 272 -334 811q-18 43 -61.5 70.5t-91.5 34.5v65h448v-70q-113 -5 -113 -43q0 -1 2 -6.5t6 -17t7 -21.5q23 -59 119.5 -294t117.5 -289q121 287 201 491q2 5 13.5 33t16.5 46t5 32q0 29 -47.5 50t-85.5 26v63h366v-61zM877 1364q0 -51 -35 -87t-84 -36t-84 36t-35 87
t35 87t84 36t84 -36t35 -87zM446 1364q0 -51 -34.5 -87t-83.5 -36t-84 36t-35 87t35 87t84 36t83.5 -36t34.5 -87z" />
    <glyph glyph-name="Amacron" unicode="&#x100;" horiz-adv-x="1374" 
d="M1421 0h-592v72q67 4 125 18t58 39q0 23 -8 43l-119 320h-498q-56 -147 -76 -220q-22 -74 -22 -112q0 -23 22 -40.5t57 -27t65 -14t61 -6.5v-72h-535v72q80 5 129 37q35 24 59 53.5t46 83.5q84 206 251.5 639.5t214.5 554.5h80l473 -1225q24 -67 86 -111q51 -28 123 -32
v-72zM850 580l-215 550l-211 -550h426zM1042 1645h-684v129h684v-129z" />
    <glyph glyph-name="amacron" unicode="&#x101;" horiz-adv-x="1032" 
d="M1006 18q-101 -38 -162 -38q-78 0 -125.5 37t-59.5 106h-6q-132 -148 -319 -148q-113 0 -183.5 68t-70.5 178q0 112 56.5 175.5t150.5 99.5q40 16 178.5 62t189.5 73v98q0 17 -2.5 37.5t-14 53t-30 58t-55.5 44t-86 18.5q-48 0 -87 -14t-54 -33q0 -14 9 -58.5t9 -72.5
q0 -37 -33 -64.5t-86 -27.5q-49 0 -72.5 32.5t-23.5 81.5q0 61 54.5 115t135.5 84.5t160 30.5q67 0 118.5 -7.5t99.5 -29t79 -57t49.5 -94t18.5 -138.5q0 -97 -3 -252t-3 -241q0 -71 55 -103q19 -10 113 -10v-64zM657 547q-73 -21 -122 -39t-101 -44.5t-83 -55.5
t-50.5 -70.5t-19.5 -91.5q0 -80 42 -120t111 -40q51 0 96 20t66 39.5t55 55.5zM846 1290h-684v129h684v-129z" />
    <glyph glyph-name="Abreve" unicode="&#x102;" horiz-adv-x="1374" 
d="M1421 0h-592v72q67 4 125 18t58 39q0 23 -8 43l-119 320h-498q-56 -147 -76 -220q-22 -74 -22 -112q0 -23 22 -40.5t57 -27t65 -14t61 -6.5v-72h-535v72q80 5 129 37q35 24 59 53.5t46 83.5q84 206 251.5 639.5t214.5 554.5h80l473 -1225q24 -67 86 -111q51 -28 123 -32
v-72zM850 580l-215 550l-211 -550h426zM961 1868l55 -17q-26 -162 -104.5 -241.5t-213.5 -79.5q-131 0 -211.5 81.5t-105.5 239.5l55 17q31 -97 91 -144t171 -47t171.5 47t91.5 144z" />
    <glyph glyph-name="abreve" unicode="&#x103;" horiz-adv-x="1032" 
d="M1006 18q-101 -38 -162 -38q-78 0 -125.5 37t-59.5 106h-6q-132 -148 -319 -148q-113 0 -183.5 68t-70.5 178q0 112 56.5 175.5t150.5 99.5q40 16 178.5 62t189.5 73v98q0 17 -2.5 37.5t-14 53t-30 58t-55.5 44t-86 18.5q-48 0 -87 -14t-54 -33q0 -14 9 -58.5t9 -72.5
q0 -37 -33 -64.5t-86 -27.5q-49 0 -72.5 32.5t-23.5 81.5q0 61 54.5 115t135.5 84.5t160 30.5q67 0 118.5 -7.5t99.5 -29t79 -57t49.5 -94t18.5 -138.5q0 -97 -3 -252t-3 -241q0 -71 55 -103q19 -10 113 -10v-64zM657 547q-73 -21 -122 -39t-101 -44.5t-83 -55.5
t-50.5 -70.5t-19.5 -91.5q0 -80 42 -120t111 -40q51 0 96 20t66 39.5t55 55.5zM807 1495q-54 -369 -313 -369q-131 0 -210 94.5t-104 274.5l56 12q14 -44 26.5 -73.5t33.5 -61.5t46.5 -50.5t64 -31t87.5 -12.5q59 0 102.5 16t72.5 49.5t47 70.5t36 93z" />
    <glyph glyph-name="Aogonek" unicode="&#x104;" horiz-adv-x="1374" 
d="M1321 -444h-115q-128 0 -198 52t-70 142q0 129 174 250h-283v72q67 4 125 18t58 39q0 23 -8 43l-119 320h-498q-56 -147 -76 -220q-22 -74 -22 -112q0 -23 22 -40.5t57 -27t65 -14t61 -6.5v-72h-535v72q80 5 129 37q35 24 59 53.5t46 83.5q84 206 251.5 639.5
t214.5 554.5h80l473 -1225q24 -67 86 -111q51 -28 123 -32v-72h-231q-55 -54 -73.5 -106t-18.5 -111q0 -76 48.5 -116t174.5 -40v-71zM850 580l-215 550l-211 -550h426z" />
    <glyph glyph-name="aogonek" unicode="&#x105;" horiz-adv-x="1032" 
d="M930 -444h-115q-128 0 -198 52t-70 142q0 64 46.5 130.5t137.5 125.5q-60 39 -72 117h-6q-132 -148 -319 -148q-113 0 -183.5 68t-70.5 178q0 112 56.5 175.5t150.5 99.5q40 16 178.5 62t189.5 73v98q0 17 -2.5 37.5t-14 53t-30 58t-55.5 44t-86 18.5q-48 0 -87 -14
t-54 -33q0 -14 9 -58.5t9 -72.5q0 -37 -33 -64.5t-86 -27.5q-49 0 -72.5 32.5t-23.5 81.5q0 61 54.5 115t135.5 84.5t160 30.5q67 0 118.5 -7.5t99.5 -29t79 -57t49.5 -94t18.5 -138.5q0 -97 -3 -252t-3 -241q0 -71 55 -103q19 -10 113 -10v-64q-101 -38 -162 -38
q-33 0 -60 6q-47 -50 -62 -98.5t-15 -104.5q0 -76 48.5 -116t174.5 -40v-71zM657 547q-73 -21 -122 -39t-101 -44.5t-83 -55.5t-50.5 -70.5t-19.5 -91.5q0 -80 42 -120t111 -40q51 0 96 20t66 39.5t55 55.5z" />
    <glyph glyph-name="Cacute" unicode="&#x106;" horiz-adv-x="1314" 
d="M1288 358q-84 -206 -224 -298.5t-341 -92.5q-128 0 -244.5 50.5t-205.5 142.5t-142 231t-53 305t52.5 308t143 239.5t215 152t265.5 54.5q194 0 352 -98l41 67h80l10 -506h-84q-15 70 -34.5 130.5t-52.5 121.5t-73.5 104t-99 70t-127.5 27q-204 0 -326.5 -173
t-122.5 -482q0 -178 60 -321.5t170 -226.5t250 -83q106 0 191 44t138 112t88 159zM879 1675q-25 -14 -75 -38t-131 -62.5t-141 -67.5l-30 39q145 137 262 258q32 35 58 49.5t57 14.5q39 0 65.5 -22.5t26.5 -57.5q0 -40 -23 -65t-69 -48z" />
    <glyph glyph-name="cacute" unicode="&#x107;" horiz-adv-x="929" 
d="M926 229q-61 -111 -169 -183.5t-229 -72.5q-147 0 -251.5 69.5t-154.5 186.5t-50 269q0 101 33.5 194t93 164.5t149 114.5t193.5 43q156 0 241.5 -73.5t85.5 -184.5q0 -56 -25 -91.5t-77 -35.5q-57 0 -91 28.5t-34 67.5q0 36 13 95t14 67q-31 51 -131 51q-49 0 -92.5 -23
t-82 -71.5t-61 -135t-22.5 -202.5q0 -185 81.5 -303.5t217.5 -118.5q94 0 159 45.5t123 142.5zM721 1460q0 -36 -15 -58t-55 -54q-29 -25 -124 -98t-179 -140l-39 33q137 200 203 307q30 50 59 69t68 19q34 0 58 -24t24 -54z" />
    <glyph glyph-name="Ccircumflex" unicode="&#x108;" horiz-adv-x="1314" 
d="M1288 358q-84 -206 -224 -298.5t-341 -92.5q-128 0 -244.5 50.5t-205.5 142.5t-142 231t-53 305t52.5 308t143 239.5t215 152t265.5 54.5q194 0 352 -98l41 67h80l10 -506h-84q-15 70 -34.5 130.5t-52.5 121.5t-73.5 104t-99 70t-127.5 27q-204 0 -326.5 -173
t-122.5 -482q0 -178 60 -321.5t170 -226.5t250 -83q106 0 191 44t138 112t88 159zM1063 1538l-49 -31l-279 211l-274 -211l-49 31l235 285q19 26 36.5 35.5t55.5 9.5t54 -9.5t32 -31.5z" />
    <glyph glyph-name="ccircumflex" unicode="&#x109;" horiz-adv-x="929" 
d="M926 229q-61 -111 -169 -183.5t-229 -72.5q-147 0 -251.5 69.5t-154.5 186.5t-50 269q0 101 33.5 194t93 164.5t149 114.5t193.5 43q156 0 241.5 -73.5t85.5 -184.5q0 -56 -25 -91.5t-77 -35.5q-57 0 -91 28.5t-34 67.5q0 36 13 95t14 67q-31 51 -131 51q-49 0 -92.5 -23
t-82 -71.5t-61 -135t-22.5 -202.5q0 -185 81.5 -303.5t217.5 -118.5q94 0 159 45.5t123 142.5zM848 1151l-49 -33l-279 273l-274 -273l-49 33l237 346q19 27 35 36t55 9q38 0 53 -9t31 -32z" />
    <glyph glyph-name="Cdotaccent" unicode="&#x10a;" horiz-adv-x="1314" 
d="M1288 358q-84 -206 -224 -298.5t-341 -92.5q-128 0 -244.5 50.5t-205.5 142.5t-142 231t-53 305t52.5 308t143 239.5t215 152t265.5 54.5q194 0 352 -98l41 67h80l10 -506h-84q-15 70 -34.5 130.5t-52.5 121.5t-73.5 104t-99 70t-127.5 27q-204 0 -326.5 -173
t-122.5 -482q0 -178 60 -321.5t170 -226.5t250 -83q106 0 191 44t138 112t88 159zM879 1737q0 -58 -38 -99t-93 -41q-51 0 -88 39t-37 93q0 55 37 95t88 40q56 0 93.5 -37t37.5 -90z" />
    <glyph glyph-name="cdotaccent" unicode="&#x10b;" horiz-adv-x="929" 
d="M926 229q-61 -111 -169 -183.5t-229 -72.5q-147 0 -251.5 69.5t-154.5 186.5t-50 269q0 101 33.5 194t93 164.5t149 114.5t193.5 43q156 0 241.5 -73.5t85.5 -184.5q0 -56 -25 -91.5t-77 -35.5q-57 0 -91 28.5t-34 67.5q0 36 13 95t14 67q-31 51 -131 51q-49 0 -92.5 -23
t-82 -71.5t-61 -135t-22.5 -202.5q0 -185 81.5 -303.5t217.5 -118.5q94 0 159 45.5t123 142.5zM647 1386q0 -57 -38 -98t-93 -41q-51 0 -88 38.5t-37 92.5q0 55 37 95t88 40q56 0 93.5 -37t37.5 -90z" />
    <glyph glyph-name="Ccaron" unicode="&#x10c;" horiz-adv-x="1314" 
d="M1288 358q-84 -206 -224 -298.5t-341 -92.5q-128 0 -244.5 50.5t-205.5 142.5t-142 231t-53 305t52.5 308t143 239.5t215 152t265.5 54.5q194 0 352 -98l41 67h80l10 -506h-84q-15 70 -34.5 130.5t-52.5 121.5t-73.5 104t-99 70t-127.5 27q-204 0 -326.5 -173
t-122.5 -482q0 -178 60 -321.5t170 -226.5t250 -83q106 0 191 44t138 112t88 159zM1026 1868l49 -33l-235 -283q-2 -3 -9.5 -13t-9 -11.5t-8 -7.5t-10.5 -6.5t-12.5 -3t-18.5 -3t-24 -0.5q-38 0 -54 9.5t-32 31.5l-238 287l49 33l279 -213z" />
    <glyph glyph-name="ccaron" unicode="&#x10d;" horiz-adv-x="929" 
d="M926 229q-61 -111 -169 -183.5t-229 -72.5q-147 0 -251.5 69.5t-154.5 186.5t-50 269q0 101 33.5 194t93 164.5t149 114.5t193.5 43q156 0 241.5 -73.5t85.5 -184.5q0 -56 -25 -91.5t-77 -35.5q-57 0 -91 28.5t-34 67.5q0 36 13 95t14 67q-31 51 -131 51q-49 0 -92.5 -23
t-82 -71.5t-61 -135t-22.5 -202.5q0 -185 81.5 -303.5t217.5 -118.5q94 0 159 45.5t123 142.5zM848 1509l-240 -350q-11 -16 -18 -23t-23.5 -12.5t-42.5 -5.5q-40 0 -55.5 9t-34.5 36l-237 346l49 33l274 -272l279 272z" />
    <glyph glyph-name="Dcaron" unicode="&#x10e;" horiz-adv-x="1533" 
d="M1456 700q0 -140 -44 -257.5t-119 -198t-175 -136.5t-210 -82t-226 -26h-588v72q29 0 74 5t63 11q58 24 58 100v1024q0 78 -58 105q-60 27 -129 31v71h621q60 0 124.5 -9.5t137 -33.5t139 -60.5t128 -94t106 -129.5t71.5 -173t27 -219zM1212 702q0 284 -149 459.5
t-393 175.5q-82 0 -168 -4v-1089q0 -82 48 -122t167 -40q127 0 222.5 44t154.5 126.5t88.5 195t29.5 254.5zM987 1868l49 -33l-235 -283q-2 -3 -9.5 -13t-9 -11.5t-8 -7.5t-10.5 -6.5t-12.5 -3t-18.5 -3t-24 -0.5q-38 0 -54 9.5t-32 31.5l-238 287l49 33l279 -213z" />
    <glyph glyph-name="dcaron" unicode="&#x10f;" horiz-adv-x="1361" 
d="M1153 18l-344 -22l-16 14v92l-9 2q-122 -133 -284 -133q-177 0 -302.5 147.5t-125.5 377.5q0 221 138 369.5t331 148.5q136 0 250 -64v344q0 41 -14.5 76.5t-39.5 52.5q-43 30 -178 39v64l404 22l16 -14v-1331q0 -65 51 -101q22 -13 123 -18v-66zM791 190v578
q-22 66 -80 118t-150 52q-123 0 -201.5 -123t-78.5 -332q0 -80 17.5 -151t51.5 -128t90.5 -90.5t128.5 -33.5q74 0 124.5 28.5t97.5 81.5zM1382 1339q0 -187 -262 -335l-35 59q99 56 145.5 106t53.5 140h-47q-69 0 -101 35t-32 86q0 44 33 79t86 35q159 0 159 -205z" />
    <glyph glyph-name="Dcroat" unicode="&#x110;" horiz-adv-x="1533" 
d="M1456 700q0 -141 -44 -258.5t-119 -198t-175 -136.5t-210 -81.5t-226 -25.5h-588v72q29 0 74 5t63 11q58 24 58 100v512h-187v99h187v413q0 78 -58 105q-60 27 -129 31v71h621q60 0 124.5 -9.5t137 -33.5t139 -60.5t128 -94t106 -129.5t71.5 -173t27 -219zM1212 702
q0 284 -149 459.5t-393 175.5q-82 0 -168 -4v-534h301v-99h-301v-456q0 -82 48 -122t167 -40q127 0 222.5 44t154.5 126.5t88.5 195t29.5 254.5z" />
    <glyph glyph-name="dcroat" unicode="&#x111;" horiz-adv-x="1175" 
d="M791 190v578q-22 66 -80 118t-150 52q-123 0 -201.5 -123t-78.5 -332q0 -80 17.5 -151t51.5 -128t90.5 -90.5t128.5 -33.5q74 0 124.5 28.5t97.5 81.5zM791 1169h-361v86h363v50q0 81 -56 118q-40 30 -178 39v64l404 22l16 -14v-279h215v-86h-215v-966q0 -65 51 -101
q22 -13 123 -18v-66l-344 -22l-16 14v92l-9 2q-122 -133 -284 -133q-177 0 -302.5 147.5t-125.5 377.5q0 221 138 369.5t331 148.5q136 0 250 -64v219z" />
    <glyph glyph-name="Emacron" unicode="&#x112;" horiz-adv-x="1337" 
d="M1290 418l-26 -418h-1178v72q102 6 145 20q58 27 58 101v1019q0 75 -58 101q-25 11 -72 22t-73 13v71h1098v-342h-74q-21 76 -87 161.5t-126 92.5q-65 8 -172 8h-223v-563h160q57 0 94.5 11t50 21.5t29.5 31.5q41 50 59 168h74v-555h-74q-3 44 -21.5 100.5t-37.5 79.5
q-17 20 -29.5 30t-50 20.5t-94.5 10.5h-160v-426q0 -44 3 -72t14 -50.5t25.5 -34t44.5 -18.5t64 -9t90 -2q173 0 234 12q59 11 82 35q41 43 91.5 138t68.5 151h71zM1061 1657h-684v129h684v-129z" />
    <glyph glyph-name="emacron" unicode="&#x113;" horiz-adv-x="989" 
d="M948 231q-60 -118 -166 -188t-239 -70q-117 0 -208.5 41.5t-148 115t-85.5 168t-29 204.5q0 99 31.5 190.5t87.5 163.5t142.5 115t188.5 43q106 0 185.5 -34t126 -94t68.5 -134t22 -162v-66h-654q0 -200 81.5 -320t248.5 -120q53 0 93.5 12t73.5 38.5t58 58t54 81.5z
M727 608q0 330 -207 330q-104 0 -174 -88t-76 -242h457zM860 1290h-684v129h684v-129z" />
    <glyph glyph-name="Ebreve" unicode="&#x114;" horiz-adv-x="1337" 
d="M1290 418l-26 -418h-1178v72q102 6 145 20q58 27 58 101v1019q0 75 -58 101q-25 11 -72 22t-73 13v71h1098v-342h-74q-21 76 -87 161.5t-126 92.5q-65 8 -172 8h-223v-563h160q57 0 94.5 11t50 21.5t29.5 31.5q41 50 59 168h74v-555h-74q-3 44 -21.5 100.5t-37.5 79.5
q-17 20 -29.5 30t-50 20.5t-94.5 10.5h-160v-426q0 -44 3 -72t14 -50.5t25.5 -34t44.5 -18.5t64 -9t90 -2q173 0 234 12q59 11 82 35q41 43 91.5 138t68.5 151h71zM981 1868l55 -17q-26 -162 -104.5 -241.5t-212.5 -79.5q-131 0 -212 81.5t-106 239.5l56 17q31 -97 91 -144
t171 -47t171 47t91 144z" />
    <glyph glyph-name="ebreve" unicode="&#x115;" horiz-adv-x="989" 
d="M948 231q-60 -118 -166 -188t-239 -70q-117 0 -208.5 41.5t-148 115t-85.5 168t-29 204.5q0 99 31.5 190.5t87.5 163.5t142.5 115t188.5 43q106 0 185.5 -34t126 -94t68.5 -134t22 -162v-66h-654q0 -200 81.5 -320t248.5 -120q53 0 93.5 12t73.5 38.5t58 58t54 81.5z
M727 608q0 330 -207 330q-104 0 -174 -88t-76 -242h457zM831 1495q-54 -369 -313 -369q-131 0 -209.5 94.5t-103.5 274.5l55 12q14 -44 26.5 -73.5t33.5 -61.5t46.5 -50.5t64 -31t87.5 -12.5q59 0 102.5 16t72.5 49.5t47 70.5t36 93z" />
    <glyph glyph-name="Edotaccent" unicode="&#x116;" horiz-adv-x="1337" 
d="M1290 418l-26 -418h-1178v72q102 6 145 20q58 27 58 101v1019q0 75 -58 101q-25 11 -72 22t-73 13v71h1098v-342h-74q-21 76 -87 161.5t-126 92.5q-65 8 -172 8h-223v-563h160q57 0 94.5 11t50 21.5t29.5 31.5q41 50 59 168h74v-555h-74q-3 44 -21.5 100.5t-37.5 79.5
q-17 20 -29.5 30t-50 20.5t-94.5 10.5h-160v-426q0 -44 3 -72t14 -50.5t25.5 -34t44.5 -18.5t64 -9t90 -2q173 0 234 12q59 11 82 35q41 43 91.5 138t68.5 151h71zM805 1737q0 -58 -38 -99t-93 -41q-51 0 -88 39t-37 93q0 55 37 95t88 40q56 0 93.5 -37t37.5 -90z" />
    <glyph glyph-name="edotaccent" unicode="&#x117;" horiz-adv-x="989" 
d="M948 231q-60 -118 -166 -188t-239 -70q-117 0 -208.5 41.5t-148 115t-85.5 168t-29 204.5q0 99 31.5 190.5t87.5 163.5t142.5 115t188.5 43q106 0 185.5 -34t126 -94t68.5 -134t22 -162v-66h-654q0 -200 81.5 -320t248.5 -120q53 0 93.5 12t73.5 38.5t58 58t54 81.5z
M727 608q0 330 -207 330q-104 0 -174 -88t-76 -242h457zM647 1386q0 -57 -38 -98t-93 -41q-51 0 -88 38.5t-37 92.5q0 55 37 95t88 40q56 0 93.5 -37t37.5 -90z" />
    <glyph glyph-name="Eogonek" unicode="&#x118;" horiz-adv-x="1337" 
d="M1202 -444h-115q-128 0 -198 52t-70 142q0 129 174 250h-907v72q102 6 145 20q58 27 58 101v1019q0 75 -58 101q-25 11 -72 22t-73 13v71h1098v-342h-74q-21 76 -87 161.5t-126 92.5q-65 8 -172 8h-223v-563h160q57 0 94.5 11t50 21.5t29.5 31.5q41 50 59 168h74v-555
h-74q-3 44 -21.5 100.5t-37.5 79.5q-17 20 -29.5 30t-50 20.5t-94.5 10.5h-160v-426q0 -44 3 -72t14 -50.5t25.5 -34t44.5 -18.5t64 -9t90 -2q173 0 234 12q59 11 82 35q41 43 91.5 138t68.5 151h71l-26 -418h-193q-55 -54 -73.5 -106t-18.5 -111q0 -76 48.5 -116t174.5 -40
v-71z" />
    <glyph glyph-name="eogonek" unicode="&#x119;" horiz-adv-x="989" 
d="M852 -444h-115q-128 0 -198 52t-70 142q0 118 145 230q-40 -7 -71 -7q-117 0 -208.5 41.5t-148 115t-85.5 168t-29 204.5q0 99 31.5 190.5t87.5 163.5t142.5 115t188.5 43q106 0 185.5 -34t126 -94t68.5 -134t22 -162v-66h-654q0 -200 81.5 -320t248.5 -120q53 0 93.5 12
t73.5 38.5t58 58t54 81.5l69 -43q-73 -139 -200 -206q-72 -61 -95.5 -119t-23.5 -123q0 -76 48.5 -116t174.5 -40v-71zM727 608q0 330 -207 330q-104 0 -174 -88t-76 -242h457z" />
    <glyph glyph-name="Ecaron" unicode="&#x11a;" horiz-adv-x="1337" 
d="M1290 418l-26 -418h-1178v72q102 6 145 20q58 27 58 101v1019q0 75 -58 101q-25 11 -72 22t-73 13v71h1098v-342h-74q-21 76 -87 161.5t-126 92.5q-65 8 -172 8h-223v-563h160q57 0 94.5 11t50 21.5t29.5 31.5q41 50 59 168h74v-555h-74q-3 44 -21.5 100.5t-37.5 79.5
q-17 20 -29.5 30t-50 20.5t-94.5 10.5h-160v-426q0 -44 3 -72t14 -50.5t25.5 -34t44.5 -18.5t64 -9t90 -2q173 0 234 12q59 11 82 35q41 43 91.5 138t68.5 151h71zM969 1868l49 -33l-236 -283q-2 -3 -9.5 -13t-9 -11.5t-8 -7.5t-10.5 -6.5t-12.5 -3t-18.5 -3t-24 -0.5
q-38 0 -54 9.5t-32 31.5l-237 287l49 33l278 -213z" />
    <glyph glyph-name="ecaron" unicode="&#x11b;" horiz-adv-x="989" 
d="M948 231q-60 -118 -166 -188t-239 -70q-117 0 -208.5 41.5t-148 115t-85.5 168t-29 204.5q0 99 31.5 190.5t87.5 163.5t142.5 115t188.5 43q106 0 185.5 -34t126 -94t68.5 -134t22 -162v-66h-654q0 -200 81.5 -320t248.5 -120q53 0 93.5 12t73.5 38.5t58 58t54 81.5z
M727 608q0 330 -207 330q-104 0 -174 -88t-76 -242h457zM848 1509l-240 -350q-11 -16 -18 -23t-23.5 -12.5t-42.5 -5.5q-40 0 -55.5 9t-34.5 36l-237 346l49 33l274 -272l279 272z" />
    <glyph glyph-name="Gcircumflex" unicode="&#x11c;" horiz-adv-x="1484" 
d="M1470 567q-4 -1 -37 -6t-55 -10t-37 -12q-55 -29 -55 -107v-110q0 -183 4 -232q-267 -123 -522 -123q-139 0 -263.5 51.5t-219.5 143.5t-151 231.5t-56 304.5q0 162 54.5 302.5t149.5 239t227 154.5t282 56q202 0 366 -98l41 67h80l8 -495h-82q-18 73 -39.5 131.5
t-56.5 119t-78 100.5t-106.5 65.5t-139.5 25.5q-212 0 -337 -174t-125 -483q0 -137 32.5 -255.5t93.5 -207.5t155 -140t210 -51q165 0 264 84q8 50 8 197v78q0 97 -59 121q-55 25 -176 32v74h620v-74zM1104 1538l-49 -31l-279 211l-274 -211l-49 31l235 285q19 26 36.5 35.5
t55.5 9.5t54 -9.5t32 -31.5z" />
    <glyph glyph-name="gcircumflex" unicode="&#x11d;" horiz-adv-x="1042" 
d="M1004 -102q0 -151 -132 -246.5t-385 -95.5q-444 0 -444 258q0 92 72 155t211 70v12q-36 12 -61 23t-54 31t-44 50.5t-15 69.5q0 113 149 174v17q-97 43 -149 114t-52 164q0 145 106.5 232.5t264.5 87.5q75 0 180 -33h344v-94h-231v-6q74 -86 74 -199q0 -133 -109 -221
t-244 -88h-120q-72 -28 -72 -86q0 -32 14.5 -52t49.5 -29t58 -11t72 -4q17 -1 25 -1q33 -1 124 -6t103 -6q101 -5 183 -81t82 -199zM647 686q0 111 -44.5 183.5t-135.5 72.5q-172 0 -172 -250q0 -110 48.5 -180t125.5 -70q86 0 132 69.5t46 174.5zM840 -139q0 107 -107 139
q-105 14 -315 14q-107 -21 -154 -69t-47 -127q0 -77 74.5 -132t230.5 -55q151 0 234.5 57.5t83.5 172.5zM811 1151l-49 -33l-279 273l-274 -273l-49 33l237 346q19 27 35 36t55 9q38 0 53 -9t31 -32z" />
    <glyph glyph-name="Gbreve" unicode="&#x11e;" horiz-adv-x="1484" 
d="M1470 567q-4 -1 -37 -6t-55 -10t-37 -12q-55 -29 -55 -107v-110q0 -183 4 -232q-267 -123 -522 -123q-139 0 -263.5 51.5t-219.5 143.5t-151 231.5t-56 304.5q0 162 54.5 302.5t149.5 239t227 154.5t282 56q202 0 366 -98l41 67h80l8 -495h-82q-18 73 -39.5 131.5
t-56.5 119t-78 100.5t-106.5 65.5t-139.5 25.5q-212 0 -337 -174t-125 -483q0 -137 32.5 -255.5t93.5 -207.5t155 -140t210 -51q165 0 264 84q8 50 8 197v78q0 97 -59 121q-55 25 -176 32v74h620v-74zM1044 1868l56 -17q-26 -162 -104.5 -241.5t-213.5 -79.5
q-131 0 -211.5 81.5t-105.5 239.5l55 17q31 -97 91 -144t171 -47t171 47t91 144z" />
    <glyph glyph-name="gbreve" unicode="&#x11f;" horiz-adv-x="1042" 
d="M1004 -102q0 -151 -132 -246.5t-385 -95.5q-444 0 -444 258q0 92 72 155t211 70v12q-36 12 -61 23t-54 31t-44 50.5t-15 69.5q0 113 149 174v17q-97 43 -149 114t-52 164q0 145 106.5 232.5t264.5 87.5q75 0 180 -33h344v-94h-231v-6q74 -86 74 -199q0 -133 -109 -221
t-244 -88h-120q-72 -28 -72 -86q0 -32 14.5 -52t49.5 -29t58 -11t72 -4q17 -1 25 -1q33 -1 124 -6t103 -6q101 -5 183 -81t82 -199zM647 686q0 111 -44.5 183.5t-135.5 72.5q-172 0 -172 -250q0 -110 48.5 -180t125.5 -70q86 0 132 69.5t46 174.5zM840 -139q0 107 -107 139
q-105 14 -315 14q-107 -21 -154 -69t-47 -127q0 -77 74.5 -132t230.5 -55q151 0 234.5 57.5t83.5 172.5zM807 1495q-54 -369 -313 -369q-131 0 -210 94.5t-104 274.5l56 12q14 -44 26.5 -73.5t33.5 -61.5t46.5 -50.5t64 -31t87.5 -12.5q59 0 102.5 16t72.5 49.5t47 70.5
t36 93z" />
    <glyph glyph-name="Gdotaccent" unicode="&#x120;" horiz-adv-x="1484" 
d="M1470 567q-4 -1 -37 -6t-55 -10t-37 -12q-55 -29 -55 -107v-110q0 -183 4 -232q-267 -123 -522 -123q-139 0 -263.5 51.5t-219.5 143.5t-151 231.5t-56 304.5q0 162 54.5 302.5t149.5 239t227 154.5t282 56q202 0 366 -98l41 67h80l8 -495h-82q-18 73 -39.5 131.5
t-56.5 119t-78 100.5t-106.5 65.5t-139.5 25.5q-212 0 -337 -174t-125 -483q0 -137 32.5 -255.5t93.5 -207.5t155 -140t210 -51q165 0 264 84q8 50 8 197v78q0 97 -59 121q-55 25 -176 32v74h620v-74zM907 1737q0 -58 -38 -99t-93 -41q-51 0 -88 39t-37 93q0 55 37 95t88 40
q56 0 93.5 -37t37.5 -90z" />
    <glyph glyph-name="gdotaccent" unicode="&#x121;" horiz-adv-x="1042" 
d="M1004 -102q0 -151 -132 -246.5t-385 -95.5q-444 0 -444 258q0 92 72 155t211 70v12q-36 12 -61 23t-54 31t-44 50.5t-15 69.5q0 113 149 174v17q-97 43 -149 114t-52 164q0 145 106.5 232.5t264.5 87.5q75 0 180 -33h344v-94h-231v-6q74 -86 74 -199q0 -133 -109 -221
t-244 -88h-120q-72 -28 -72 -86q0 -32 14.5 -52t49.5 -29t58 -11t72 -4q17 -1 25 -1q33 -1 124 -6t103 -6q101 -5 183 -81t82 -199zM647 686q0 111 -44.5 183.5t-135.5 72.5q-172 0 -172 -250q0 -110 48.5 -180t125.5 -70q86 0 132 69.5t46 174.5zM840 -139q0 107 -107 139
q-105 14 -315 14q-107 -21 -154 -69t-47 -127q0 -77 74.5 -132t230.5 -55q151 0 234.5 57.5t83.5 172.5zM618 1386q0 -57 -38 -98t-93 -41q-51 0 -88 38.5t-37 92.5q0 55 37 95t88 40q56 0 93.5 -37t37.5 -90z" />
    <glyph glyph-name="Gcommaaccent" unicode="&#x122;" horiz-adv-x="1484" 
d="M1470 567q-4 -1 -37 -6t-55 -10t-37 -12q-55 -29 -55 -107v-110q0 -183 4 -232q-267 -123 -522 -123q-139 0 -263.5 51.5t-219.5 143.5t-151 231.5t-56 304.5q0 162 54.5 302.5t149.5 239t227 154.5t282 56q202 0 366 -98l41 67h80l8 -495h-82q-18 73 -39.5 131.5
t-56.5 119t-78 100.5t-106.5 65.5t-139.5 25.5q-212 0 -337 -174t-125 -483q0 -137 32.5 -255.5t93.5 -207.5t155 -140t210 -51q165 0 264 84q8 50 8 197v78q0 97 -59 121q-55 25 -176 32v74h620v-74zM926 -231q0 -103 -71 -158t-193 -55v57q95 6 133.5 36t40.5 93h-56
q-118 0 -118 94q0 38 31 68t85 30q66 0 107 -45.5t41 -119.5z" />
    <glyph glyph-name="gcommaaccent" unicode="&#x123;" horiz-adv-x="1042" 
d="M1004 -102q0 -151 -132 -246.5t-385 -95.5q-444 0 -444 258q0 92 72 155t211 70v12q-36 12 -61 23t-54 31t-44 50.5t-15 69.5q0 113 149 174v17q-97 43 -149 114t-52 164q0 145 106.5 232.5t264.5 87.5q75 0 180 -33h344v-94h-231v-6q74 -86 74 -199q0 -133 -109 -221
t-244 -88h-120q-72 -28 -72 -86q0 -32 14.5 -52t49.5 -29t58 -11t72 -4q17 -1 25 -1q33 -1 124 -6t103 -6q101 -5 183 -81t82 -199zM647 686q0 111 -44.5 183.5t-135.5 72.5q-172 0 -172 -250q0 -110 48.5 -180t125.5 -70q86 0 132 69.5t46 174.5zM840 -139q0 107 -107 139
q-105 14 -315 14q-107 -21 -154 -69t-47 -127q0 -77 74.5 -132t230.5 -55q151 0 234.5 57.5t83.5 172.5zM350 1282q0 103 71 158t193 55v-57q-95 -6 -133.5 -36t-40.5 -93h56q118 0 118 -95q0 -38 -31 -68t-85 -30q-66 0 -107 46t-41 120z" />
    <glyph glyph-name="Hcircumflex" unicode="&#x124;" horiz-adv-x="1669" 
d="M1567 0h-588v72q103 6 131 16q57 23 57 100v506h-665v-493q0 -71 55 -103q16 -8 58.5 -16t70.5 -10v-72h-588v72q103 6 131 16q60 24 60 100v1024q0 73 -60 101q-24 11 -65.5 22.5t-65.5 12.5v71h588v-71q-68 -4 -129 -25q-55 -20 -55 -100v-441h665v430q0 74 -57 101
q-24 11 -65.5 22.5t-65.5 12.5v71h588v-71q-72 -4 -129 -25q-58 -21 -58 -100v-1022q0 -69 58 -103q16 -8 58.5 -16t70.5 -10v-72zM1161 1538l-49 -31l-278 211l-275 -211l-49 31l235 285q19 26 36.5 35.5t56.5 9.5q38 0 54 -9.5t32 -31.5z" />
    <glyph glyph-name="hcircumflex" unicode="&#x125;" horiz-adv-x="1191" 
d="M1143 0h-484v66l33 3t36.5 3.5t27.5 5.5q55 17 55 90v508q0 101 -48.5 160t-121.5 59q-53 0 -99.5 -16.5t-77 -41.5t-50 -48t-29.5 -44v-567q0 -66 55 -90q34 -15 97 -22v-66h-484v66q76 8 90 12q56 17 56 90v1020q0 34 -16 68t-40 51q-28 18 -137 24v66l365 22l14 -14
v-559h4q75 73 107 96q99 72 229 72q138 0 206 -86.5t68 -239.5v-512q0 -67 54 -90q34 -14 90 -20v-66zM930 1538l-47 -31l-281 211l-274 -211l-47 31l233 285q21 27 37.5 36t54.5 9q26 0 43 -6t25 -12.5t20 -22.5z" />
    <glyph glyph-name="Hbar" unicode="&#x126;" horiz-adv-x="1669" 
d="M289 1012h-187v88h187v112q0 73 -60 101q-24 11 -65.5 22.5t-65.5 12.5v71h588v-71q-68 -4 -129 -25q-55 -20 -55 -100v-123h665v112q0 74 -57 101q-24 11 -65.5 22.5t-65.5 12.5v71h588v-71q-72 -4 -129 -25q-58 -21 -58 -100v-123h187v-88h-187v-811q0 -69 58 -103
q16 -8 58.5 -16t70.5 -10v-72h-588v72q103 6 131 16q57 23 57 100v506h-665v-493q0 -71 55 -103q16 -8 58.5 -16t70.5 -10v-72h-588v72q103 6 131 16q60 24 60 100v824zM1167 1012h-665v-230h665v230z" />
    <glyph glyph-name="hbar" unicode="&#x127;" horiz-adv-x="1191" 
d="M385 1169v-323h4q75 73 107 96q99 72 229 72q138 0 206 -86.5t68 -239.5v-512q0 -67 54 -90q34 -14 90 -20v-66h-484v66l33 3t36.5 3.5t27.5 5.5q55 17 55 90v508q0 101 -48.5 160t-121.5 59q-53 0 -99.5 -16.5t-77 -41.5t-50 -48t-29.5 -44v-567q0 -66 55 -90
q34 -15 97 -22v-66h-484v66q76 8 90 12q56 17 56 90v1001h-228v86h228v62q0 34 -16 68t-40 51q-28 18 -137 24v66l365 22l14 -14v-279h350v-86h-350z" />
    <glyph glyph-name="Itilde" unicode="&#x128;" horiz-adv-x="798" 
d="M719 0h-639v72q116 6 149 16q64 24 64 98v1028q0 74 -64 99q-83 31 -149 35v71h639v-71q-87 -5 -150 -25t-63 -98v-1026q0 -70 63 -101q18 -7 69.5 -15.5t80.5 -10.5v-72zM774 1835q-10 -38 -32 -78.5t-53.5 -78.5t-76.5 -62.5t-94 -24.5q-52 0 -95.5 16.5t-68.5 36
t-58.5 36t-66.5 16.5q-14 0 -25.5 -3t-20.5 -5.5t-18.5 -12t-15 -14.5t-15.5 -21t-13.5 -22t-15.5 -28.5t-17 -30.5l-57 24q12 38 33 77.5t52 78.5t74 63.5t89 24.5q50 0 93 -16t68.5 -35.5t56.5 -35.5t60 -16q20 0 36.5 3t28.5 6t23 12.5t17 14t14.5 20.5t11.5 22
t12.5 27.5t12.5 28.5z" />
    <glyph glyph-name="itilde" unicode="&#x129;" horiz-adv-x="600" 
d="M551 0h-477v66q76 8 90 12q55 17 55 90v608q0 63 -55 105q-18 11 -54.5 19.5t-66.5 10.5v66l348 20l15 -14v-803q0 -71 55 -92q44 -17 90 -22v-66zM621 1466q-9 -38 -28.5 -78t-48.5 -77.5t-69 -61.5t-84 -24q-47 0 -86 16t-61 35t-52 35t-61 16q-10 0 -18.5 -1.5
t-15.5 -3.5t-14 -7.5t-12 -9t-11.5 -13t-10 -14.5t-10.5 -18.5t-10 -19.5t-11 -23t-12 -25l-53 25q11 38 30 76.5t46.5 77t66 63t80.5 24.5q44 0 83 -16t61.5 -35t51 -35t54.5 -16q18 0 32.5 3t24.5 6t20 12.5t15 14t12.5 20.5t10.5 22t11 27.5t11 29.5z" />
    <glyph glyph-name="Imacron" unicode="&#x12a;" horiz-adv-x="798" 
d="M719 0h-639v72q116 6 149 16q64 24 64 98v1028q0 74 -64 99q-83 31 -149 35v71h639v-71q-87 -5 -150 -25t-63 -98v-1026q0 -70 63 -101q18 -7 69.5 -15.5t80.5 -10.5v-72zM741 1657h-684v129h684v-129z" />
    <glyph glyph-name="imacron" unicode="&#x12b;" horiz-adv-x="600" 
d="M551 0h-477v66q76 8 90 12q55 17 55 90v608q0 63 -55 105q-18 11 -54.5 19.5t-66.5 10.5v66l348 20l15 -14v-803q0 -71 55 -92q44 -17 90 -22v-66zM612 1290h-684v129h684v-129z" />
    <glyph glyph-name="Ibreve" unicode="&#x12c;" horiz-adv-x="798" 
d="M719 0h-639v72q116 6 149 16q64 24 64 98v1028q0 74 -64 99q-83 31 -149 35v71h639v-71q-87 -5 -150 -25t-63 -98v-1026q0 -70 63 -101q18 -7 69.5 -15.5t80.5 -10.5v-72zM659 1868l56 -17q-26 -162 -104.5 -241.5t-213.5 -79.5q-131 0 -211.5 81.5t-105.5 239.5l55 17
q31 -97 91 -144t171 -47t171 47t91 144z" />
    <glyph glyph-name="ibreve" unicode="&#x12d;" horiz-adv-x="600" 
d="M551 0h-477v66q76 8 90 12q55 17 55 90v608q0 63 -55 105q-18 11 -54.5 19.5t-66.5 10.5v66l348 20l15 -14v-803q0 -71 55 -92q44 -17 90 -22v-66zM551 1495q-21 -184 -86.5 -276.5t-185.5 -92.5q-238 0 -273 369l51 12q11 -40 18 -62t20 -53t28 -48t36.5 -34t51.5 -24.5
t68 -7.5q32 0 58.5 6.5t46 15t36 27t26.5 33.5t21.5 44t17.5 48t17 55z" />
    <glyph glyph-name="Iogonek" unicode="&#x12e;" horiz-adv-x="798" 
d="M606 -444h-114q-128 0 -198.5 52t-70.5 142q0 129 174 250h-317v72q116 6 149 16q64 24 64 98v1028q0 74 -64 99q-83 31 -149 35v71h639v-71q-87 -5 -150 -25t-63 -98v-1026q0 -70 63 -101q18 -7 69.5 -15.5t80.5 -10.5v-72h-244q-55 -54 -73.5 -106t-18.5 -111
q0 -76 48.5 -116t174.5 -40v-71z" />
    <glyph glyph-name="iogonek" unicode="&#x12f;" horiz-adv-x="600" 
d="M512 -444h-115q-128 0 -198 52t-70 142q0 129 174 250h-229v66q76 8 90 12q55 17 55 90v608q0 63 -55 105q-18 11 -54.5 19.5t-66.5 10.5v66l348 20l15 -14v-803q0 -71 55 -92q44 -17 90 -22v-66h-170q-55 -54 -73.5 -106t-18.5 -111q0 -76 48.5 -116t174.5 -40v-71z
M426 1386q0 -58 -38 -99.5t-93 -41.5q-51 0 -88 39.5t-37 93.5q0 56 37 97t88 41q56 0 93.5 -38.5t37.5 -91.5z" />
    <glyph glyph-name="Idotaccent" unicode="&#x130;" horiz-adv-x="798" 
d="M719 0h-639v72q116 6 149 16q64 24 64 98v1028q0 74 -64 99q-83 31 -149 35v71h639v-71q-87 -5 -150 -25t-63 -98v-1026q0 -70 63 -101q18 -7 69.5 -15.5t80.5 -10.5v-72zM528 1737q0 -58 -38 -99t-93 -41q-51 0 -88 39t-37 93q0 55 37 95t88 40q56 0 93.5 -37t37.5 -90z
" />
    <glyph glyph-name="dotlessi" unicode="&#x131;" horiz-adv-x="600" 
d="M551 0h-477v66q76 8 90 12q55 17 55 90v608q0 63 -55 105q-18 11 -54.5 19.5t-66.5 10.5v66l348 20l15 -14v-803q0 -71 55 -92q44 -17 90 -22v-66z" />
    <glyph glyph-name="IJ" unicode="&#x132;" horiz-adv-x="1818" 
d="M1763 1348q-84 -5 -139 -25q-57 -19 -57 -100v-840q0 -53 -16 -109.5t-51 -112t-84 -99t-122 -70.5t-159 -27q-165 0 -266 92t-101 246q0 73 36 123.5t101 50.5q66 0 99.5 -36t33.5 -87q0 -39 -19.5 -78.5t-46.5 -80.5t-36 -70v-2q25 -35 72 -58.5t112 -23.5
q58 0 100.5 22t67.5 58t39.5 92.5t19.5 114.5t5 135v749q0 69 -60 101q-62 30 -153 35v71h624v-71zM719 0h-639v72q116 6 149 16q64 24 64 98v1028q0 74 -64 99q-83 31 -149 35v71h639v-71q-87 -5 -150 -25t-63 -98v-1026q0 -70 63 -101q18 -7 69.5 -15.5t80.5 -10.5v-72z
" />
    <glyph glyph-name="ij" unicode="&#x133;" horiz-adv-x="1171" 
d="M426 1386q0 -58 -38 -99.5t-93 -41.5q-51 0 -88 39.5t-37 93.5q0 56 37 97t88 41q56 0 93.5 -38.5t37.5 -91.5zM551 0h-477v66q76 8 90 12q55 17 55 90v608q0 63 -55 105q-18 11 -54.5 19.5t-66.5 10.5v66l348 20l15 -14v-803q0 -71 55 -92q44 -17 90 -22v-66zM1020 1389
q0 -58 -38 -101t-93 -43q-51 0 -88 40t-37 93q0 56 37 97t88 41q56 0 93.5 -37.5t37.5 -89.5zM1004 59q0 -224 -115 -363.5t-287 -139.5q-85 0 -132.5 34t-47.5 84q0 43 23 76t71 33q18 0 33.5 -4t29.5 -13.5t23.5 -17t22 -25t18 -25.5t18.5 -30t17 -28q74 0 107.5 93
t33.5 294v741q0 32 -16 62t-41 49q-16 11 -74.5 21.5t-93.5 12.5v64l397 20l13 -14v-924z" />
    <glyph glyph-name="Jcircumflex" unicode="&#x134;" horiz-adv-x="1060" 
d="M1006 1348q-86 -5 -140 -25q-57 -19 -57 -100v-840q0 -53 -16 -109.5t-51 -112t-84 -99t-122 -70.5t-159 -27q-165 0 -266 92t-101 246q0 73 36 123.5t101 50.5q66 0 100 -36t34 -87q0 -39 -20 -78.5t-47 -80.5t-36 -70v-2q25 -35 72 -58.5t112 -23.5q58 0 100.5 22
t67.5 58t39.5 92.5t19.5 114.5t5 135v749q0 69 -59 101q-28 14 -75 23.5t-79 11.5v71h625v-71zM1008 1538l-50 -31l-278 211l-274 -211l-50 31l236 285q19 26 36.5 35.5t55.5 9.5t54 -9.5t32 -31.5z" />
    <glyph glyph-name="jcircumflex" unicode="&#x135;" horiz-adv-x="598" 
d="M430 59q0 -224 -114.5 -363.5t-286.5 -139.5q-85 0 -133 34t-48 84q0 43 23.5 76t71.5 33q21 0 39.5 -7t30.5 -14t28 -27t21.5 -27.5t22 -35l19.5 -32.5q75 0 108.5 93t33.5 294v741q0 31 -16 61.5t-42 49.5q-16 11 -74.5 21.5t-93.5 12.5v64l398 20l12 -14v-924z
M602 1151l-49 -33l-279 273l-274 -273l-49 33l237 346q19 27 35.5 36t55.5 9q38 0 52.5 -8.5t30.5 -32.5z" />
    <glyph glyph-name="Kcommaaccent" unicode="&#x136;" horiz-adv-x="1421" 
d="M1475 0h-398q-220 343 -551 694h-24v-493q0 -73 57 -103q14 -7 59 -15.5t72 -10.5v-72h-588v72q97 6 129 16q58 24 58 100v1024q0 74 -58 101q-70 31 -129 35v71h588v-71q-75 -5 -131 -25q-57 -19 -57 -100v-490h18q195 162 341.5 328.5t146.5 236.5q0 42 -148 50v71h533
v-71q-21 0 -55.5 -4t-91.5 -24.5t-87 -53.5q-30 -34 -90 -102.5t-88 -100t-74.5 -82.5t-90 -94.5t-93.5 -91.5q56 -64 103 -118.5t99 -118t77 -94.5t93 -116.5t91 -114.5q64 -82 160 -135q43 -21 129 -26v-72zM950 -231q0 -103 -71 -158t-193 -55v57q95 6 133.5 36t40.5 93
h-55q-119 0 -119 94q0 38 31.5 68t85.5 30q66 0 106.5 -45.5t40.5 -119.5z" />
    <glyph glyph-name="kcommaaccent" unicode="&#x137;" horiz-adv-x="1097" 
d="M1116 0h-297q-15 22 -75 108t-96.5 139t-89.5 126t-91 121l-82 -78v-234q0 -73 55 -94q41 -16 97 -22v-66h-484v66q76 8 90 12q56 17 56 90v1147q0 36 -15.5 69t-40.5 50q-29 20 -137 26v66l365 22l14 -14v-1045q234 229 322 328q26 31 26 47q0 44 -127 58v63h434v-61
q-158 -48 -247 -129l-191 -185q54 -65 113 -142.5t134 -181.5t87 -120q43 -58 78 -76.5t102 -23.5v-66zM764 -231q0 -103 -71 -158t-193 -55v57q95 6 133.5 36t40.5 93h-56q-118 0 -118 94q0 38 31 68t85 30q66 0 107 -45.5t41 -119.5z" />
    <glyph glyph-name="kgreenlandic" unicode="&#x138;" horiz-adv-x="1114" 
d="M217 776q0 69 -55 111q-37 21 -101 24v66l328 20l14 -14v-494q214 209 322 328q27 32 27 47q0 44 -127 58v63h434v-61q-79 -23 -144.5 -58.5t-103.5 -70.5l-190 -185q71 -87 201 -264t132 -180q43 -58 78.5 -76.5t102.5 -23.5v-66h-297q-277 397 -353 494l-82 -78v-234
q0 -73 56 -94q42 -16 96 -22v-66h-483v66q76 8 90 12q55 17 55 90v608z" />
    <glyph glyph-name="Lacute" unicode="&#x139;" horiz-adv-x="1236" 
d="M1237 422l-31 -422h-1108v72q95 6 133 18q58 24 58 103v1015q0 73 -58 103q-25 12 -67 24t-66 13v71h598v-71q-63 -4 -137 -25q-57 -23 -57 -104v-953q0 -47 2 -74t11.5 -50.5t22.5 -34t42 -18.5t62 -9.5t91 -1.5q211 0 262 53q38 41 93 137t77 154h72zM791 1675
q-25 -14 -75 -38t-131 -62.5t-141 -67.5l-30 39q145 137 262 258q32 35 58 49.5t57 14.5q39 0 65.5 -22.5t26.5 -57.5q0 -40 -23 -65t-69 -48z" />
    <glyph glyph-name="lacute" unicode="&#x13a;" horiz-adv-x="585" 
d="M535 0h-482v66q80 9 92 12q56 17 56 90v1014q0 35 -15.5 67t-40.5 49q-17 11 -64.5 21t-78.5 12v66l371 22l14 -14v-1225q0 -68 55 -92q35 -16 93 -22v-66zM475 1675q-20 -10 -128.5 -62t-217.5 -106l-31 39q136 130 262 260q59 64 115 64q39 0 65.5 -23.5t26.5 -56.5
q0 -41 -21.5 -64.5t-70.5 -50.5z" />
    <glyph glyph-name="Lcommaaccent" unicode="&#x13b;" horiz-adv-x="1236" 
d="M1237 422l-31 -422h-1108v72q95 6 133 18q58 24 58 103v1015q0 73 -58 103q-25 12 -67 24t-66 13v71h598v-71q-63 -4 -137 -25q-57 -23 -57 -104v-953q0 -47 2 -74t11.5 -50.5t22.5 -34t42 -18.5t62 -9.5t91 -1.5q211 0 262 53q38 41 93 137t77 154h72zM848 -231
q0 -103 -71 -158t-193 -55v57q95 6 133.5 36t40.5 93h-56q-118 0 -118 94q0 38 31 68t85 30q66 0 107 -45.5t41 -119.5z" />
    <glyph glyph-name="lcommaaccent" unicode="&#x13c;" horiz-adv-x="585" 
d="M535 0h-482v66q80 9 92 12q56 17 56 90v1143q0 35 -15.5 67t-40.5 49q-17 11 -64.5 21t-78.5 12v66l371 22l14 -14v-1354q0 -68 55 -92q35 -16 93 -22v-66zM451 -231q0 -103 -71.5 -158t-193.5 -55v57q95 6 133.5 36t40.5 93h-55q-119 0 -119 94q0 38 31.5 68t85.5 30
q66 0 107 -45.5t41 -119.5z" />
    <glyph glyph-name="Lcaron" unicode="&#x13d;" horiz-adv-x="1236" 
d="M1237 422l-31 -422h-1108v72q95 6 133 18q58 24 58 103v1015q0 73 -58 103q-25 12 -67 24t-66 13v71h598v-71q-63 -4 -137 -25q-57 -23 -57 -104v-953q0 -47 2 -74t11.5 -50.5t22.5 -34t42 -18.5t62 -9.5t91 -1.5q211 0 262 53q38 41 93 137t77 154h72zM1141 1229
q0 -188 -262 -336l-35 59q49 28 77.5 47.5t58 49t44 65.5t18.5 84h-47q-69 0 -101 35t-32 86q0 44 33 79.5t86 35.5q160 0 160 -205z" />
    <glyph glyph-name="lcaron" unicode="&#x13e;" horiz-adv-x="770" 
d="M535 0h-482v66q80 9 92 12q56 17 56 90v1143q0 35 -15.5 67t-40.5 49q-17 11 -64.5 21t-78.5 12v66l371 22l14 -14v-1354q0 -68 55 -92q35 -16 93 -22v-66zM793 1339q0 -186 -263 -335l-34 59q49 28 77.5 47.5t58 49t44 65.5t18.5 84h-47q-69 0 -101 35t-32 86
q0 44 33 79t86 35q160 0 160 -205z" />
    <glyph glyph-name="Ldot" unicode="&#x13f;" horiz-adv-x="1236" 
d="M1237 422l-31 -422h-1108v72q95 6 133 18q58 24 58 103v1015q0 73 -58 103q-25 12 -67 24t-66 13v71h598v-71q-63 -4 -137 -25q-57 -23 -57 -104v-953q0 -47 2 -74t11.5 -50.5t22.5 -34t42 -18.5t62 -9.5t91 -1.5q211 0 262 53q38 41 93 137t77 154h72zM1151 725
q0 -57 -40 -96t-97 -39t-97 39t-40 96t40 97t97 40t97 -40t40 -97z" />
    <glyph glyph-name="ldot" unicode="&#x140;" horiz-adv-x="860" 
d="M860 672q0 -57 -40 -96t-97 -39t-97 39t-40 96t40 97t97 40t97 -40t40 -97zM535 0h-482v66q80 9 92 12q56 17 56 90v1143q0 35 -15.5 67t-40.5 49q-17 11 -64.5 21t-78.5 12v66l371 22l14 -14v-1354q0 -68 55 -92q35 -16 93 -22v-66z" />
    <glyph glyph-name="Lslash" unicode="&#x141;" horiz-adv-x="1236" 
d="M502 707v-441q0 -47 2 -74t11.5 -50.5t22.5 -34t42 -18.5t62 -9.5t91 -1.5q211 0 262 53q38 41 93 137t77 154h72l-31 -422h-1108v72q95 6 133 18q58 24 58 103v432l-164 -68l-35 86l199 82v483q0 73 -58 103q-25 12 -67 24t-66 13v71h598v-71q-63 -4 -137 -25
q-57 -23 -57 -104v-412l270 113l35 -89z" />
    <glyph glyph-name="lslash" unicode="&#x142;" horiz-adv-x="585" 
d="M559 758l-172 -72v-506q0 -68 55 -92q35 -16 93 -22v-66h-482v66q80 9 92 12q56 17 56 90v448l-138 -59l-34 82l172 72v600q0 35 -15.5 67t-40.5 49q-17 11 -64.5 21t-78.5 12v66l371 22l14 -14v-754l137 60z" />
    <glyph glyph-name="Nacute" unicode="&#x143;" horiz-adv-x="1570" 
d="M1554 1348q-30 -2 -89.5 -17t-80.5 -31q-35 -25 -48 -90t-13 -186v-1038h-86l-860 1161v-731q0 -123 15.5 -188.5t47.5 -96.5q21 -19 89.5 -38t101.5 -21v-72h-584v72q29 2 93.5 20t78.5 31q34 26 48 89t14 191v701q0 46 -17 91.5t-43 70.5q-35 32 -95.5 56t-100.5 26v71
h403l799 -1081v674q0 232 -62 278q-25 18 -89.5 37t-98.5 21v71h577v-71zM1001 1675q-25 -14 -74.5 -37.5t-131 -62.5t-140.5 -68l-30 39q145 137 262 258q32 35 57.5 49.5t56.5 14.5q39 0 66 -22.5t27 -57.5q0 -40 -23.5 -65t-69.5 -48z" />
    <glyph glyph-name="nacute" unicode="&#x144;" horiz-adv-x="1210" 
d="M1161 0h-483v66q86 9 96 12q55 17 55 90v508q0 101 -48.5 160t-121.5 59q-53 0 -99.5 -16.5t-77 -41.5t-50 -48t-29.5 -44v-567q0 -66 56 -90q33 -15 96 -22v-66h-483v66q76 8 90 12q55 17 55 90v608q0 69 -55 111q-37 21 -101 24v66l328 20l14 -14v-137h5l25.5 25.5
t28 27t27 24t32 25t33 20.5t39.5 19.5t42 13.5t49.5 10.5t54.5 2.5q139 0 209 -87t70 -239v-512q0 -67 53 -90q34 -14 90 -20v-66zM840 1460q0 -36 -15 -58t-55 -54q-29 -25 -124 -98t-179 -140l-39 33q137 200 203 307q30 50 58.5 69t68.5 19q34 0 58 -24t24 -54z" />
    <glyph glyph-name="Ncommaaccent" unicode="&#x145;" horiz-adv-x="1570" 
d="M1554 1348q-30 -2 -89.5 -17t-80.5 -31q-35 -25 -48 -90t-13 -186v-1038h-86l-860 1161v-731q0 -123 15.5 -188.5t47.5 -96.5q21 -19 89.5 -38t101.5 -21v-72h-584v72q29 2 93.5 20t78.5 31q34 26 48 89t14 191v701q0 46 -17 91.5t-43 70.5q-35 32 -95.5 56t-100.5 26v71
h403l799 -1081v674q0 232 -62 278q-25 18 -89.5 37t-98.5 21v71h577v-71zM932 -231q0 -103 -71 -158t-193 -55v57q95 6 133.5 36t40.5 93h-56q-118 0 -118 94q0 38 31 68t85 30q66 0 107 -45.5t41 -119.5z" />
    <glyph glyph-name="ncommaaccent" unicode="&#x146;" horiz-adv-x="1210" 
d="M1161 0h-483v66q86 9 96 12q55 17 55 90v508q0 101 -48.5 160t-121.5 59q-53 0 -99.5 -16.5t-77 -41.5t-50 -48t-29.5 -44v-567q0 -66 56 -90q33 -15 96 -22v-66h-483v66q76 8 90 12q55 17 55 90v608q0 69 -55 111q-37 21 -101 24v66l328 20l14 -14v-137h5l25.5 25.5
t28 27t27 24t32 25t33 20.5t39.5 19.5t42 13.5t49.5 10.5t54.5 2.5q139 0 209 -87t70 -239v-512q0 -67 53 -90q34 -14 90 -20v-66zM774 -231q0 -103 -71 -158t-193 -55v57q95 6 133.5 36t40.5 93h-55q-119 0 -119 94q0 38 31.5 68t85.5 30q66 0 106.5 -45.5t40.5 -119.5z
" />
    <glyph glyph-name="Ncaron" unicode="&#x147;" horiz-adv-x="1570" 
d="M1554 1348q-30 -2 -89.5 -17t-80.5 -31q-35 -25 -48 -90t-13 -186v-1038h-86l-860 1161v-731q0 -123 15.5 -188.5t47.5 -96.5q21 -19 89.5 -38t101.5 -21v-72h-584v72q29 2 93.5 20t78.5 31q34 26 48 89t14 191v701q0 46 -17 91.5t-43 70.5q-35 32 -95.5 56t-100.5 26v71
h403l799 -1081v674q0 232 -62 278q-25 18 -89.5 37t-98.5 21v71h577v-71zM1057 1868l49 -33l-236 -283q-2 -3 -9.5 -13t-9 -11.5t-8 -7.5t-10.5 -6.5t-12.5 -3t-18.5 -3t-24 -0.5q-38 0 -54 9.5t-32 31.5l-237 287l49 33l278 -213z" />
    <glyph glyph-name="ncaron" unicode="&#x148;" horiz-adv-x="1210" 
d="M1161 0h-483v66q86 9 96 12q55 17 55 90v508q0 101 -48.5 160t-121.5 59q-53 0 -99.5 -16.5t-77 -41.5t-50 -48t-29.5 -44v-567q0 -66 56 -90q33 -15 96 -22v-66h-483v66q76 8 90 12q55 17 55 90v608q0 69 -55 111q-37 21 -101 24v66l328 20l14 -14v-137h5l25.5 25.5
t28 27t27 24t32 25t33 20.5t39.5 19.5t42 13.5t49.5 10.5t54.5 2.5q139 0 209 -87t70 -239v-512q0 -67 53 -90q34 -14 90 -20v-66zM934 1509l-240 -350q-11 -16 -18 -23t-23.5 -12.5t-42.5 -5.5q-40 0 -55.5 9t-34.5 36l-237 346l49 33l274 -272l279 272z" />
    <glyph glyph-name="napostrophe" unicode="&#x149;" horiz-adv-x="1320" 
d="M1272 0h-484v66l33 3t36.5 3.5t27.5 5.5q55 17 55 90v508q0 101 -48.5 160t-121.5 59q-53 0 -99.5 -16.5t-77 -41.5t-50 -48t-29.5 -44v-567q0 -66 55 -90q32 -15 97 -22v-66h-484v66q76 8 90 12q56 17 56 90v608q0 69 -56 111q-37 21 -100 24v66l328 20l14 -14v-137h4
q5 5 23.5 23t24.5 24t24.5 22.5t28 23l28.5 19.5t33 19t35 14.5t40.5 12.5t44 7t50.5 3q139 0 208.5 -86.5t69.5 -239.5v-512q0 -67 54 -90q34 -14 90 -20v-66zM274 1325q0 -188 -262 -336l-35 60q50 28 78 47.5t58 48.5t44.5 65.5t18.5 83.5h-47q-69 0 -101 35t-32 86
q0 44 33 79.5t86 35.5q159 0 159 -205z" />
    <glyph glyph-name="Eng" unicode="&#x14a;" horiz-adv-x="1570" 
d="M377 1147v-731q0 -123 15.5 -188.5t47.5 -96.5q21 -19 89.5 -38t101.5 -21v-72h-584v72q29 2 93.5 20t78.5 31q34 26 48 89t14 191v701q0 46 -17 91.5t-43 70.5q-35 32 -95.5 56t-100.5 26v71h403l799 -1081v674q0 232 -62 278q-25 18 -89.5 37t-98.5 21v71h577v-71
q-30 -2 -89.5 -17t-80.5 -31q-35 -25 -48 -90t-13 -186v-969q0 -239 -105 -369t-300 -130q-93 0 -147 38t-54 95q0 51 30 84.5t80 33.5q32 0 57.5 -14.5t38.5 -32t35.5 -50.5t38.5 -52q103 3 165.5 93t62.5 253z" />
    <glyph glyph-name="eng" unicode="&#x14b;" horiz-adv-x="1185" 
d="M403 178q0 -66 56 -90q33 -15 96 -22v-66h-483v66q76 8 90 12q55 17 55 90v608q0 69 -55 111q-37 21 -101 24v66l328 20l14 -14v-137h5q4 4 23.5 23t25 24t24.5 22.5t28 23t28.5 19.5t33 19.5t35 14.5t41 12.5t44 6.5t50.5 3q138 0 207.5 -87t69.5 -239q4 -192 4 -313
q0 -100 -4 -318q-3 -226 -118.5 -363.5t-287.5 -137.5q-85 0 -132.5 34t-47.5 84q0 43 23.5 76t70.5 33q18 0 33.5 -4t29.5 -13.5t23.5 -17t22 -25t18 -25.5t18.5 -30t17 -28q74 0 106.5 91.5t34.5 293.5q5 255 5 342q0 7 -5 309q-1 103 -49.5 161t-122.5 58
q-53 0 -99 -16.5t-76.5 -41.5t-49.5 -48t-29 -44v-567z" />
    <glyph glyph-name="Omacron" unicode="&#x14c;" horiz-adv-x="1523" 
d="M1444 709q0 -167 -55 -308.5t-148.5 -236t-217 -147t-261.5 -52.5q-146 0 -273 56t-216.5 154t-141 236.5t-51.5 297.5q0 166 54.5 306.5t148 235.5t217.5 148t262 53q141 0 265.5 -53t217 -148t146 -235.5t53.5 -306.5zM1202 709q0 301 -114.5 478t-325.5 177
q-94 0 -169 -36t-125 -97.5t-83.5 -146t-48 -178t-14.5 -197.5q0 -190 46.5 -334.5t147.5 -232t246 -87.5q89 0 162 33t124 91.5t86 141t51.5 179.5t16.5 209zM1106 1657h-684v129h684v-129z" />
    <glyph glyph-name="omacron" unicode="&#x14d;" horiz-adv-x="1103" 
d="M1032 504q0 -148 -55.5 -268t-168.5 -193.5t-265 -73.5q-94 0 -180 37t-151 103t-103.5 165t-38.5 215q0 233 134 379t353 146q143 0 252 -67t166 -182t57 -261zM825 502q0 86 -14 160.5t-44 138t-84.5 100.5t-127.5 37q-78 0 -134.5 -38.5t-87 -104t-44 -137
t-13.5 -152.5q0 -129 27.5 -230t92 -166t159.5 -65q90 0 152 63.5t90 164.5t28 229zM895 1290h-684v129h684v-129z" />
    <glyph glyph-name="Obreve" unicode="&#x14e;" horiz-adv-x="1523" 
d="M1444 709q0 -167 -55 -308.5t-148.5 -236t-217 -147t-261.5 -52.5q-146 0 -273 56t-216.5 154t-141 236.5t-51.5 297.5q0 166 54.5 306.5t148 235.5t217.5 148t262 53q141 0 265.5 -53t217 -148t146 -235.5t53.5 -306.5zM1202 709q0 301 -114.5 478t-325.5 177
q-94 0 -169 -36t-125 -97.5t-83.5 -146t-48 -178t-14.5 -197.5q0 -190 46.5 -334.5t147.5 -232t246 -87.5q89 0 162 33t124 91.5t86 141t51.5 179.5t16.5 209zM1024 1868l55 -17q-26 -162 -104.5 -241.5t-212.5 -79.5q-131 0 -212 81.5t-106 239.5l56 17q31 -97 91 -144
t171 -47t171 47t91 144z" />
    <glyph glyph-name="obreve" unicode="&#x14f;" horiz-adv-x="1103" 
d="M1032 504q0 -148 -55.5 -268t-168.5 -193.5t-265 -73.5q-94 0 -180 37t-151 103t-103.5 165t-38.5 215q0 233 134 379t353 146q143 0 252 -67t166 -182t57 -261zM825 502q0 86 -14 160.5t-44 138t-84.5 100.5t-127.5 37q-78 0 -134.5 -38.5t-87 -104t-44 -137
t-13.5 -152.5q0 -129 27.5 -230t92 -166t159.5 -65q90 0 152 63.5t90 164.5t28 229zM866 1495q-54 -369 -313 -369q-131 0 -209.5 94.5t-103.5 274.5l55 12q14 -44 26.5 -73.5t33.5 -61.5t46.5 -50.5t64 -31t87.5 -12.5q59 0 102.5 16t72.5 49.5t47 70.5t36 93z" />
    <glyph glyph-name="Ohungarumlaut" unicode="&#x150;" horiz-adv-x="1523" 
d="M1444 709q0 -167 -55 -308.5t-148.5 -236t-217 -147t-261.5 -52.5q-146 0 -273 56t-216.5 154t-141 236.5t-51.5 297.5q0 166 54.5 306.5t148 235.5t217.5 148t262 53q141 0 265.5 -53t217 -148t146 -235.5t53.5 -306.5zM1202 709q0 301 -114.5 478t-325.5 177
q-94 0 -169 -36t-125 -97.5t-83.5 -146t-48 -178t-14.5 -197.5q0 -190 46.5 -334.5t147.5 -232t246 -87.5q89 0 162 33t124 91.5t86 141t51.5 179.5t16.5 209zM836 1677l-109 -55q-17 -8 -192 -115l-29 35l119 135l94 115q63 76 110 76q39 0 64 -25.5t25 -58.5
q0 -36 -20.5 -60.5t-61.5 -46.5zM1225 1677q-48 -25 -113 -55q-21 -10 -194 -115l-29 35q174 196 219 250q63 76 111 76q39 0 63.5 -25.5t24.5 -58.5q0 -36 -20.5 -60.5t-61.5 -46.5z" />
    <glyph glyph-name="ohungarumlaut" unicode="&#x151;" horiz-adv-x="1103" 
d="M1032 504q0 -148 -55.5 -268t-168.5 -193.5t-265 -73.5q-94 0 -180 37t-151 103t-103.5 165t-38.5 215q0 233 134 379t353 146q143 0 252 -67t166 -182t57 -261zM825 502q0 86 -14 160.5t-44 138t-84.5 100.5t-127.5 37q-78 0 -134.5 -38.5t-87 -104t-44 -137
t-13.5 -152.5q0 -129 27.5 -230t92 -166t159.5 -65q90 0 152 63.5t90 164.5t28 229zM1028 1460q0 -36 -13.5 -58.5t-49.5 -53.5q-25 -23 -57 -50.5t-99 -84t-123 -103.5l-35 29q136 220 183 307q30 53 53 72.5t59 19.5q34 0 58 -24t24 -54zM657 1458q0 -35 -12.5 -56.5
t-46.5 -53.5q-15 -14 -56 -51t-92 -83t-118 -104l-37 29q95 157 170 307q27 52 50.5 72t59.5 20q33 0 57.5 -25t24.5 -55z" />
    <glyph glyph-name="OE" unicode="&#x152;" horiz-adv-x="2043" 
d="M1997 418l-29 -418h-1153q-61 0 -125.5 9.5t-137.5 33.5t-139 60.5t-127.5 94t-106.5 129.5t-72 173t-27 219q0 140 44 257.5t118 198t173.5 136.5t209 82t225.5 26h1038v-342h-73q-19 76 -85.5 161.5t-127.5 92.5q-65 8 -172 8h-213v-563h149q58 0 96 11t50.5 21.5
t27.5 31.5q41 46 59 168h74v-555h-74q-3 44 -21.5 100.5t-37.5 79.5q-15 19 -28 29.5t-51 21t-95 10.5h-149v-426q0 -44 3 -72t14 -50.5t25.5 -34t44.5 -18.5t64 -9t90 -2q166 0 223 11q59 12 82 36q42 43 93 139.5t67 149.5h74zM1004 86v1245q-90 4 -156 4q-115 0 -209 -36
t-166 -109t-111.5 -193.5t-39.5 -279.5q0 -284 149 -459.5t393 -175.5q21 0 69 2t71 2z" />
    <glyph glyph-name="oe" unicode="&#x153;" horiz-adv-x="1671" 
d="M1630 233q-52 -114 -153.5 -187t-229.5 -73q-114 0 -208.5 51.5t-151.5 145.5q-61 -93 -153 -147t-204 -54q-92 0 -175 36.5t-146.5 102t-101 165t-37.5 216.5q0 147 55 265t165.5 189t258.5 71q111 0 200 -55t146 -138q50 81 134.5 137t195.5 56q98 0 172.5 -32.5
t119 -90.5t67 -132t22.5 -163v-72h-625q6 -440 313 -440q67 0 117.5 24t83.5 63.5t66 104.5zM1409 608q0 51 -4 93t-16 88t-33 77t-57.5 51.5t-86.5 20.5q-101 0 -166 -95t-65 -235h428zM788 489q0 449 -249 449q-60 0 -106.5 -26.5t-75.5 -68.5t-48 -100t-26 -116t-7 -121
q0 -132 26 -233t86.5 -164.5t150.5 -63.5q129 0 189 118t60 326z" />
    <glyph glyph-name="Racute" unicode="&#x154;" horiz-adv-x="1437" 
d="M1481 0h-383q-219 343 -453 643h-143v-450q0 -80 57 -103q33 -12 139 -18v-72h-600v72q95 6 133 18q58 24 58 103v1026q0 81 -58 104q-70 21 -133 25v71h656q91 0 168.5 -19t141 -58t100 -106t36.5 -155q0 -82 -25.5 -146t-74.5 -108.5t-108 -74.5t-138 -54
q69 -90 120 -158.5t113 -153t113 -153.5q65 -88 150 -135q43 -21 131 -26v-72zM954 1059q0 140 -78.5 209t-203.5 69h-170v-608h131q141 0 231 89.5t90 240.5zM901 1675q-25 -14 -74.5 -37.5t-131 -62.5t-140.5 -68l-31 39q145 137 262 258q32 35 58 49.5t57 14.5
q39 0 65.5 -22.5t26.5 -57.5q0 -40 -23 -65t-69 -48z" />
    <glyph glyph-name="racute" unicode="&#x155;" horiz-adv-x="839" 
d="M827 858q0 -54 -26 -91.5t-76 -37.5q-54 0 -84.5 27t-30.5 65q0 13 11 76q-69 -1 -130.5 -50t-87.5 -95v-574q0 -69 56 -90q28 -11 133 -22v-66h-520v66q76 8 90 12q55 17 55 90v608q0 31 -15 61.5t-40 49.5q-37 21 -101 24v66l328 20l14 -14v-137h5q63 81 137 122.5
t139 41.5q64 0 103.5 -41t39.5 -111zM696 1460q0 -36 -14.5 -58t-54.5 -54q-29 -25 -124 -98t-179 -140l-39 33q126 185 202 307q30 50 58.5 69t68.5 19q34 0 58 -24t24 -54z" />
    <glyph glyph-name="Rcommaaccent" unicode="&#x156;" horiz-adv-x="1437" 
d="M1481 0h-383q-219 343 -453 643h-143v-450q0 -80 57 -103q33 -12 139 -18v-72h-600v72q95 6 133 18q58 24 58 103v1026q0 81 -58 104q-70 21 -133 25v71h656q91 0 168.5 -19t141 -58t100 -106t36.5 -155q0 -82 -25.5 -146t-74.5 -108.5t-108 -74.5t-138 -54
q69 -90 120 -158.5t113 -153t113 -153.5q65 -88 150 -135q43 -21 131 -26v-72zM954 1059q0 140 -78.5 209t-203.5 69h-170v-608h131q141 0 231 89.5t90 240.5zM936 -231q0 -103 -71 -158t-193 -55v57q95 6 133.5 36t40.5 93h-55q-119 0 -119 94q0 38 31 68t85 30
q66 0 107 -45.5t41 -119.5z" />
    <glyph glyph-name="rcommaaccent" unicode="&#x157;" horiz-adv-x="839" 
d="M827 858q0 -54 -26 -91.5t-76 -37.5q-54 0 -84.5 27t-30.5 65q0 13 11 76q-69 -1 -130.5 -50t-87.5 -95v-574q0 -69 56 -90q28 -11 133 -22v-66h-520v66q76 8 90 12q55 17 55 90v608q0 31 -15 61.5t-40 49.5q-37 21 -101 24v66l328 20l14 -14v-137h5q63 81 137 122.5
t139 41.5q64 0 103.5 -41t39.5 -111zM526 -231q0 -103 -71 -158t-193 -55v57q95 6 133.5 36t40.5 93h-55q-119 0 -119 94q0 38 31.5 68t85.5 30q66 0 106.5 -45.5t40.5 -119.5z" />
    <glyph glyph-name="Rcaron" unicode="&#x158;" horiz-adv-x="1437" 
d="M1481 0h-383q-219 343 -453 643h-143v-450q0 -80 57 -103q33 -12 139 -18v-72h-600v72q95 6 133 18q58 24 58 103v1026q0 81 -58 104q-70 21 -133 25v71h656q91 0 168.5 -19t141 -58t100 -106t36.5 -155q0 -82 -25.5 -146t-74.5 -108.5t-108 -74.5t-138 -54
q69 -90 120 -158.5t113 -153t113 -153.5q65 -88 150 -135q43 -21 131 -26v-72zM954 1059q0 140 -78.5 209t-203.5 69h-170v-608h131q141 0 231 89.5t90 240.5zM936 1868l49 -33l-235 -283q-2 -3 -8.5 -11.5t-8 -10.5t-7 -7.5t-8.5 -6.5t-9.5 -4t-13 -3.5t-16 -1t-22.5 -0.5
q-38 0 -54 9.5t-32 31.5l-237 287l49 33l279 -213z" />
    <glyph glyph-name="rcaron" unicode="&#x159;" horiz-adv-x="839" 
d="M827 858q0 -54 -26 -91.5t-76 -37.5q-54 0 -84.5 27t-30.5 65q0 13 11 76q-69 -1 -130.5 -50t-87.5 -95v-574q0 -69 56 -90q28 -11 133 -22v-66h-520v66q76 8 90 12q55 17 55 90v608q0 31 -15 61.5t-40 49.5q-37 21 -101 24v66l328 20l14 -14v-137h5q63 81 137 122.5
t139 41.5q64 0 103.5 -41t39.5 -111zM750 1509l-240 -350q-11 -16 -18 -23t-23.5 -12.5t-42.5 -5.5q-40 0 -55.5 9t-34.5 36l-238 346l49 33l275 -272l278 272z" />
    <glyph glyph-name="Sacute" unicode="&#x15a;" horiz-adv-x="1148" 
d="M1069 403q0 -189 -137.5 -310.5t-345.5 -121.5q-95 0 -189 28.5t-166 72.5l-43 -72h-79l-15 485h80q120 -428 430 -428q136 0 202 66.5t66 183.5q0 87 -50 160.5t-140 110.5q-43 17 -99 37.5t-101 38t-95 40.5q-254 116 -254 371q0 162 126.5 273.5t303.5 111.5
q155 0 318 -98l41 67h79l9 -471h-82q-14 52 -27 91.5t-31.5 85t-39 78.5t-49 65t-61 52t-76 32t-93.5 12q-96 0 -162.5 -61t-66.5 -150q0 -91 41 -151t126 -101q53 -25 146 -61t133 -54q70 -30 118.5 -60t93 -74.5t67 -106.5t22.5 -142zM758 1675q-25 -14 -74.5 -37.5
t-131 -62.5t-140.5 -68l-31 39q145 137 262 258q32 35 58 49.5t57 14.5q39 0 65.5 -22.5t26.5 -57.5q0 -40 -23 -65t-69 -48z" />
    <glyph glyph-name="sacute" unicode="&#x15b;" horiz-adv-x="884" 
d="M809 285q0 -141 -105.5 -226.5t-263.5 -85.5q-78 0 -151.5 28t-110.5 60l-20 -63h-74l-10 342h67q8 -34 24.5 -71t44.5 -76.5t62.5 -70.5t82.5 -51t100 -20q96 0 148 44t52 124q0 79 -59 121.5t-195 83.5q-47 14 -85 29t-80.5 41t-71 56.5t-47.5 75.5t-19 99
q0 124 91.5 206.5t240.5 82.5q60 0 119.5 -14.5t97.5 -36.5l23 53h71l17 -318h-70q-21 101 -87.5 170.5t-172.5 69.5q-80 0 -128 -40.5t-48 -100.5q0 -25 5.5 -46t14 -36.5t27 -30t34 -24.5t47 -22.5t55 -21t67.5 -22.5q75 -24 126 -48.5t94.5 -60.5t65 -85.5t21.5 -114.5z
M694 1460q0 -36 -14.5 -58t-54.5 -54q-29 -25 -124 -98t-179 -140l-39 33q126 185 202 307q30 50 58.5 69t68.5 19q34 0 58 -24t24 -54z" />
    <glyph glyph-name="Scircumflex" unicode="&#x15c;" horiz-adv-x="1148" 
d="M1069 403q0 -189 -137.5 -310.5t-345.5 -121.5q-95 0 -189 28.5t-166 72.5l-43 -72h-79l-15 485h80q120 -428 430 -428q136 0 202 66.5t66 183.5q0 87 -50 160.5t-140 110.5q-43 17 -99 37.5t-101 38t-95 40.5q-254 116 -254 371q0 162 126.5 273.5t303.5 111.5
q155 0 318 -98l41 67h79l9 -471h-82q-14 52 -27 91.5t-31.5 85t-39 78.5t-49 65t-61 52t-76 32t-93.5 12q-96 0 -162.5 -61t-66.5 -150q0 -91 41 -151t126 -101q53 -25 146 -61t133 -54q70 -30 118.5 -60t93 -74.5t67 -106.5t22.5 -142zM918 1538l-50 -31l-278 211
l-275 -211l-49 31l236 285q19 26 36.5 35.5t55.5 9.5t54 -9.5t32 -31.5z" />
    <glyph glyph-name="scircumflex" unicode="&#x15d;" horiz-adv-x="884" 
d="M809 285q0 -141 -105.5 -226.5t-263.5 -85.5q-78 0 -151.5 28t-110.5 60l-20 -63h-74l-10 342h67q8 -34 24.5 -71t44.5 -76.5t62.5 -70.5t82.5 -51t100 -20q96 0 148 44t52 124q0 79 -59 121.5t-195 83.5q-47 14 -85 29t-80.5 41t-71 56.5t-47.5 75.5t-19 99
q0 124 91.5 206.5t240.5 82.5q60 0 119.5 -14.5t97.5 -36.5l23 53h71l17 -318h-70q-21 101 -87.5 170.5t-172.5 69.5q-80 0 -128 -40.5t-48 -100.5q0 -25 5.5 -46t14 -36.5t27 -30t34 -24.5t47 -22.5t55 -21t67.5 -22.5q75 -24 126 -48.5t94.5 -60.5t65 -85.5t21.5 -114.5z
M780 1151l-49 -33l-278 273l-275 -273l-49 33l238 346q19 27 35 36t55 9q38 0 53 -9t31 -32z" />
    <glyph glyph-name="Scedilla" unicode="&#x15e;" horiz-adv-x="1148" 
d="M819 -248q0 -48 -22 -83.5t-57.5 -56.5t-89 -34t-108 -17.5t-122.5 -4.5v71h7q39 0 59.5 0.5t55 2.5t53.5 8t39.5 15.5t30 25.5t9.5 38q0 25 -14.5 41t-41.5 23t-51 9.5t-57 2.5v184q-147 16 -279 95l-43 -72h-79l-15 485h80q120 -428 430 -428q136 0 202 66.5t66 183.5
q0 87 -50 160.5t-140 110.5q-43 17 -99 37.5t-101 38t-95 40.5q-254 116 -254 371q0 162 126.5 273.5t303.5 111.5q155 0 318 -98l41 67h79l9 -471h-82q-14 52 -27 91.5t-31.5 85t-39 78.5t-49 65t-61 52t-76 32t-93.5 12q-96 0 -162.5 -61t-66.5 -150q0 -91 41 -151
t126 -101q53 -25 146 -61t133 -54q70 -30 118.5 -60t93 -74.5t67 -106.5t22.5 -142q0 -189 -137 -309.5t-344 -122.5v-69q43 0 81 -7t73.5 -23t56 -46.5t20.5 -73.5z" />
    <glyph glyph-name="scedilla" unicode="&#x15f;" horiz-adv-x="884" 
d="M670 -248q0 -59 -32 -99.5t-91 -60.5t-125 -28t-152 -8v71h7q39 0 59.5 0.5t55 2.5t53.5 8t39.5 15.5t30 25.5t9.5 38q0 25 -14.5 41t-41.5 23t-51 9.5t-57 2.5v189q-57 11 -106.5 33.5t-75.5 45.5l-20 -63h-74l-10 342h67q8 -34 24.5 -71t44.5 -76.5t62.5 -70.5
t82.5 -51t100 -20q96 0 148 44t52 124q0 79 -59 121.5t-195 83.5q-47 14 -85 29t-80.5 41t-71 56.5t-47.5 75.5t-19 99q0 124 91.5 206.5t240.5 82.5q60 0 119.5 -14.5t97.5 -36.5l23 53h71l17 -318h-70q-21 101 -87.5 170.5t-172.5 69.5q-80 0 -128 -40.5t-48 -100.5
q0 -25 5.5 -46t14 -36.5t27 -30t34 -24.5t47 -22.5t55 -21t67.5 -22.5q75 -24 126 -48.5t94.5 -60.5t65 -85.5t21.5 -114.5q0 -141 -105.5 -226.5t-263.5 -85.5h-2v-71q43 0 81.5 -7t74 -23t56 -46.5t20.5 -73.5z" />
    <glyph glyph-name="Scaron" unicode="&#x160;" horiz-adv-x="1148" 
d="M1069 403q0 -189 -137.5 -310.5t-345.5 -121.5q-95 0 -189 28.5t-166 72.5l-43 -72h-79l-15 485h80q120 -428 430 -428q136 0 202 66.5t66 183.5q0 87 -50 160.5t-140 110.5q-43 17 -99 37.5t-101 38t-95 40.5q-254 116 -254 371q0 162 126.5 273.5t303.5 111.5
q155 0 318 -98l41 67h79l9 -471h-82q-14 52 -27 91.5t-31.5 85t-39 78.5t-49 65t-61 52t-76 32t-93.5 12q-96 0 -162.5 -61t-66.5 -150q0 -91 41 -151t126 -101q53 -25 146 -61t133 -54q70 -30 118.5 -60t93 -74.5t67 -106.5t22.5 -142zM860 1868l49 -33l-235 -283
q-2 -3 -9.5 -13t-9 -11.5t-8 -7.5t-10.5 -6.5t-12.5 -3t-18.5 -3t-24 -0.5q-38 0 -54 9.5t-32 31.5l-238 287l49 33l279 -213z" />
    <glyph glyph-name="scaron" unicode="&#x161;" horiz-adv-x="884" 
d="M809 285q0 -141 -105.5 -226.5t-263.5 -85.5q-78 0 -151.5 28t-110.5 60l-20 -63h-74l-10 342h67q8 -34 24.5 -71t44.5 -76.5t62.5 -70.5t82.5 -51t100 -20q96 0 148 44t52 124q0 79 -59 121.5t-195 83.5q-47 14 -85 29t-80.5 41t-71 56.5t-47.5 75.5t-19 99
q0 124 91.5 206.5t240.5 82.5q60 0 119.5 -14.5t97.5 -36.5l23 53h71l17 -318h-70q-21 101 -87.5 170.5t-172.5 69.5q-80 0 -128 -40.5t-48 -100.5q0 -25 5.5 -46t14 -36.5t27 -30t34 -24.5t47 -22.5t55 -21t67.5 -22.5q75 -24 126 -48.5t94.5 -60.5t65 -85.5t21.5 -114.5z
M776 1509l-239 -350q-11 -16 -18 -23t-23.5 -12.5t-42.5 -5.5q-40 0 -56 9t-35 36l-237 346l49 33l275 -272l278 272z" />
    <glyph glyph-name="Tcedilla" unicode="&#x162;" horiz-adv-x="1267" 
d="M831 -248q0 -48 -22 -83.5t-57.5 -56.5t-89 -34t-108 -17.5t-122.5 -4.5v71h7q39 0 59.5 0.5t55 2.5t53.5 8t39.5 15.5t30 25.5t9.5 38q0 25 -14.5 41t-41.5 23t-51 9.5t-57 2.5v207h-223v72q119 6 164 22q63 23 63 103v1144h-57q-101 0 -166 -8q-41 -6 -89.5 -62.5
t-82 -122t-45.5 -114.5h-72v385h1237v-385h-69q-12 48 -46 114t-83 122.5t-90 62.5q-65 8 -164 8h-60v-1134q0 -74 64 -105q18 -7 77.5 -17.5t88.5 -12.5v-72h-369v-98q43 0 81 -7t73.5 -23t56 -46.5t20.5 -73.5z" />
    <glyph glyph-name="tcedilla" unicode="&#x163;" horiz-adv-x="706" 
d="M608 -248q0 -48 -22 -83.5t-57.5 -56.5t-89 -34t-108 -17.5t-122.5 -4.5v71h7q39 0 59.5 0.5t55 2.5t53.5 8t39.5 15.5t30 25.5t9.5 38q0 25 -14.5 41t-41.5 23t-51 9.5t-57 2.5v207q-109 46 -109 217v670h-178v94h183v307h182v-307h282v-94h-280v-551q0 -53 2.5 -86
t12 -64.5t26.5 -48.5t46.5 -27t72.5 -10q90 0 143 17v-74q-145 -63 -266 -63q-7 0 -20 1t-19 1v-80q43 0 81 -7t73.5 -23t56 -46.5t20.5 -73.5z" />
    <glyph glyph-name="Tcaron" unicode="&#x164;" horiz-adv-x="1267" 
d="M1251 1034h-69q-12 48 -46 114t-83 122.5t-90 62.5q-65 8 -164 8h-60v-1134q0 -74 64 -105q18 -7 77.5 -17.5t88.5 -12.5v-72h-670v72q119 6 164 22q63 23 63 103v1144h-57q-101 0 -166 -8q-41 -6 -89.5 -62.5t-82 -122t-45.5 -114.5h-72v385h1237v-385zM911 1868l50 -33
l-236 -283q-2 -3 -9.5 -13t-9 -11.5t-8 -7.5t-10.5 -6.5t-12.5 -3t-18.5 -3t-24 -0.5q-38 0 -54 9.5t-32 31.5l-238 287l49 33l279 -213z" />
    <glyph glyph-name="tcaron" unicode="&#x165;" horiz-adv-x="706" 
d="M682 43q-145 -63 -266 -63q-119 0 -172.5 59.5t-53.5 177.5v670h-178v94h183v307h182v-307h282v-94h-280v-551q0 -53 2.5 -86t12 -64.5t26.5 -48.5t46.5 -27t72.5 -10q90 0 143 17v-74zM795 1368q0 -55 -27 -105.5t-70.5 -87.5t-83.5 -61.5t-82 -42.5l-34 59
q97 51 127 76q58 50 69 131h-45q-69 0 -101 32.5t-32 78.5q0 40 33.5 75.5t85.5 35.5q82 0 121 -51.5t39 -139.5z" />
    <glyph glyph-name="Tbar" unicode="&#x166;" horiz-adv-x="1267" 
d="M739 784h312v-92h-312v-485q0 -74 64 -105q18 -7 77.5 -17.5t88.5 -12.5v-72h-670v72q119 6 164 22q63 23 63 103v495h-311v92h311v557h-57q-101 0 -166 -8q-41 -6 -89.5 -62.5t-82 -122t-45.5 -114.5h-72v385h1237v-385h-69q-12 48 -46 114t-83 122.5t-90 62.5
q-65 8 -164 8h-60v-557z" />
    <glyph glyph-name="tbar" unicode="&#x167;" horiz-adv-x="706" 
d="M379 483v-147q0 -53 2.5 -86t12 -64.5t26.5 -48.5t46.5 -27t72.5 -10q90 0 143 17v-74q-145 -63 -266 -63q-119 0 -172.5 59.5t-53.5 177.5v266h-170v84h170v320h-178v94h183v307h182v-307h282v-94h-280v-320h233v-84h-233z" />
    <glyph glyph-name="Utilde" unicode="&#x168;" horiz-adv-x="1548" 
d="M1534 1348q-35 -2 -89.5 -14.5t-80.5 -30.5q-61 -44 -61 -271v-616q0 -95 -33.5 -173t-86.5 -128.5t-121.5 -85t-136.5 -49.5t-134 -15q-126 0 -228.5 34t-167.5 91.5t-100 130.5t-35 154v837q0 70 -57 103q-23 12 -63 21.5t-66 11.5v71h592v-71q-78 -5 -134 -25
q-57 -19 -57 -100v-785q0 -49 7 -93.5t30 -95.5t60 -87t102.5 -60t152.5 -24t155 24t109 61.5t67.5 87t36 94.5t9.5 91v584q0 227 -63 272q-31 22 -90.5 38t-98.5 18v71h582v-71zM1198 1835q-11 -38 -33 -78t-53.5 -78t-76 -62t-93.5 -24q-53 0 -100 16t-75 35.5t-64.5 35.5
t-69.5 16q-12 0 -22.5 -1.5t-20 -6t-16 -7.5t-15 -13t-12.5 -14.5t-13 -19t-12.5 -20.5t-14.5 -25.5t-15 -27.5l-60 24q13 38 34.5 76.5t52.5 77.5t74 63.5t89 24.5q49 0 95.5 -16t75.5 -35.5t64 -35.5t64 -16q20 0 36 3t27.5 6t22.5 12.5t17 14.5t15 21t12 22t12.5 27.5
t13.5 29.5z" />
    <glyph glyph-name="utilde" unicode="&#x169;" horiz-adv-x="1177" 
d="M1128 18l-319 -22l-16 14v125h-7q-32 -34 -55 -55t-64 -49t-93.5 -42t-114.5 -14q-137 0 -203 88.5t-66 245.5v471q0 65 -53 105q-37 20 -102 24v66l330 22l14 -14v-684q0 -103 46.5 -159t117.5 -56q51 0 95.5 16t74.5 42t47.5 46t30.5 41v559q0 62 -54 103
q-23 14 -133 18v66l359 22l16 -14v-782q0 -63 51 -99q24 -14 98 -18v-66zM958 1466q-11 -38 -33 -78t-53.5 -77.5t-76 -61.5t-93.5 -24q-53 0 -100 16t-75 35t-64.5 35t-69.5 16q-12 0 -22.5 -1.5t-20 -6t-16 -7.5t-15 -13t-12.5 -14.5t-13 -19t-12.5 -20.5t-14.5 -25.5
t-15 -27.5l-59 25q13 38 34 76.5t52 77t74 63t89 24.5q49 0 95.5 -16t75.5 -35t64 -35t64 -16q20 0 36 3t27.5 5.5t22.5 12.5t17 14.5t15 20.5t12 22t13 28t13 29z" />
    <glyph glyph-name="Umacron" unicode="&#x16a;" horiz-adv-x="1548" 
d="M1534 1348q-35 -2 -89.5 -14.5t-80.5 -30.5q-61 -44 -61 -271v-616q0 -95 -33.5 -173t-86.5 -128.5t-121.5 -85t-136.5 -49.5t-134 -15q-126 0 -228.5 34t-167.5 91.5t-100 130.5t-35 154v837q0 70 -57 103q-23 12 -63 21.5t-66 11.5v71h592v-71q-78 -5 -134 -25
q-57 -19 -57 -100v-785q0 -49 7 -93.5t30 -95.5t60 -87t102.5 -60t152.5 -24t155 24t109 61.5t67.5 87t36 94.5t9.5 91v584q0 227 -63 272q-31 22 -90.5 38t-98.5 18v71h582v-71zM1153 1657h-684v129h684v-129z" />
    <glyph glyph-name="umacron" unicode="&#x16b;" horiz-adv-x="1177" 
d="M1128 18l-319 -22l-16 14v125h-7q-32 -34 -55 -55t-64 -49t-93.5 -42t-114.5 -14q-137 0 -203 88.5t-66 245.5v471q0 65 -53 105q-37 20 -102 24v66l330 22l14 -14v-684q0 -103 46.5 -159t117.5 -56q51 0 95.5 16t74.5 42t47.5 46t30.5 41v559q0 62 -54 103
q-23 14 -133 18v66l359 22l16 -14v-782q0 -63 51 -99q24 -14 98 -18v-66zM911 1290h-684v129h684v-129z" />
    <glyph glyph-name="Ubreve" unicode="&#x16c;" horiz-adv-x="1548" 
d="M1534 1348q-35 -2 -89.5 -14.5t-80.5 -30.5q-61 -44 -61 -271v-616q0 -95 -33.5 -173t-86.5 -128.5t-121.5 -85t-136.5 -49.5t-134 -15q-126 0 -228.5 34t-167.5 91.5t-100 130.5t-35 154v837q0 70 -57 103q-23 12 -63 21.5t-66 11.5v71h592v-71q-78 -5 -134 -25
q-57 -19 -57 -100v-785q0 -49 7 -93.5t30 -95.5t60 -87t102.5 -60t152.5 -24t155 24t109 61.5t67.5 87t36 94.5t9.5 91v584q0 227 -63 272q-31 22 -90.5 38t-98.5 18v71h582v-71zM1079 1868l56 -17q-26 -162 -104.5 -241.5t-213.5 -79.5q-131 0 -211.5 81.5t-105.5 239.5
l55 17q31 -97 91 -144t171 -47t171 47t91 144z" />
    <glyph glyph-name="ubreve" unicode="&#x16d;" horiz-adv-x="1177" 
d="M1128 18l-319 -22l-16 14v125h-7q-32 -34 -55 -55t-64 -49t-93.5 -42t-114.5 -14q-137 0 -203 88.5t-66 245.5v471q0 65 -53 105q-37 20 -102 24v66l330 22l14 -14v-684q0 -103 46.5 -159t117.5 -56q51 0 95.5 16t74.5 42t47.5 46t30.5 41v559q0 62 -54 103
q-23 14 -133 18v66l359 22l16 -14v-782q0 -63 51 -99q24 -14 98 -18v-66zM862 1495q-54 -369 -313 -369q-131 0 -209.5 94.5t-103.5 274.5l55 12q14 -44 26.5 -73.5t33.5 -61.5t46.5 -50.5t64 -31t87.5 -12.5q59 0 102.5 16t72.5 49.5t47 70.5t36 93z" />
    <glyph glyph-name="Uring" unicode="&#x16e;" horiz-adv-x="1548" 
d="M1534 1348q-35 -2 -89.5 -14.5t-80.5 -30.5q-61 -44 -61 -271v-616q0 -95 -33.5 -173t-86.5 -128.5t-121.5 -85t-136.5 -49.5t-134 -15q-126 0 -228.5 34t-167.5 91.5t-100 130.5t-35 154v837q0 70 -57 103q-23 12 -63 21.5t-66 11.5v71h592v-71q-78 -5 -134 -25
q-57 -19 -57 -100v-785q0 -49 7 -93.5t30 -95.5t60 -87t102.5 -60t152.5 -24t155 24t109 61.5t67.5 87t36 94.5t9.5 91v584q0 227 -63 272q-31 22 -90.5 38t-98.5 18v71h582v-71zM1067 1642q0 -99 -71 -161t-187 -62q-118 0 -188 60.5t-70 162.5q0 97 74 159.5t184 62.5
q114 0 186 -61t72 -161zM940 1642q0 70 -34 114t-97 44q-62 0 -96.5 -42.5t-34.5 -115.5q0 -71 34 -115t97 -44t97 43.5t34 115.5z" />
    <glyph glyph-name="uring" unicode="&#x16f;" horiz-adv-x="1177" 
d="M1128 18l-319 -22l-16 14v125h-7q-32 -34 -55 -55t-64 -49t-93.5 -42t-114.5 -14q-137 0 -203 88.5t-66 245.5v471q0 65 -53 105q-37 20 -102 24v66l330 22l14 -14v-684q0 -103 46.5 -159t117.5 -56q51 0 95.5 16t74.5 42t47.5 46t30.5 41v559q0 62 -54 103
q-23 14 -133 18v66l359 22l16 -14v-782q0 -63 51 -99q24 -14 98 -18v-66zM823 1337q0 -99 -71 -161t-187 -62q-118 0 -188 60.5t-70 162.5q0 97 74 159.5t184 62.5q114 0 186 -61t72 -161zM696 1337q0 70 -34 114t-97 44q-62 0 -96.5 -42.5t-34.5 -115.5q0 -71 34 -115
t97 -44t97 43.5t34 115.5z" />
    <glyph glyph-name="Uhungarumlaut" unicode="&#x170;" horiz-adv-x="1548" 
d="M1534 1348q-35 -2 -89.5 -14.5t-80.5 -30.5q-61 -44 -61 -271v-616q0 -95 -33.5 -173t-86.5 -128.5t-121.5 -85t-136.5 -49.5t-134 -15q-126 0 -228.5 34t-167.5 91.5t-100 130.5t-35 154v837q0 70 -57 103q-23 12 -63 21.5t-66 11.5v71h592v-71q-78 -5 -134 -25
q-57 -19 -57 -100v-785q0 -49 7 -93.5t30 -95.5t60 -87t102.5 -60t152.5 -24t155 24t109 61.5t67.5 87t36 94.5t9.5 91v584q0 227 -63 272q-31 22 -90.5 38t-98.5 18v71h582v-71zM819 1677l-108 -55q-21 -10 -193 -115l-29 35l119 135l94 115q63 76 111 76q39 0 63.5 -25.5
t24.5 -58.5q0 -36 -20.5 -60.5t-61.5 -46.5zM1208 1677q-53 -28 -112 -55q-25 -11 -195 -115l-29 35q189 213 220 250q63 76 110 76q39 0 63.5 -25.5t24.5 -58.5q0 -36 -20.5 -60.5t-61.5 -46.5z" />
    <glyph glyph-name="uhungarumlaut" unicode="&#x171;" horiz-adv-x="1177" 
d="M1128 18l-319 -22l-16 14v125h-7q-32 -34 -55 -55t-64 -49t-93.5 -42t-114.5 -14q-137 0 -203 88.5t-66 245.5v471q0 65 -53 105q-37 20 -102 24v66l330 22l14 -14v-684q0 -103 46.5 -159t117.5 -56q51 0 95.5 16t74.5 42t47.5 46t30.5 41v559q0 62 -54 103
q-23 14 -133 18v66l359 22l16 -14v-782q0 -63 51 -99q24 -14 98 -18v-66zM1026 1460q0 -36 -13.5 -58.5t-49.5 -53.5q-25 -23 -57 -50.5t-99 -84t-123 -103.5l-35 29q128 207 182 307q30 52 53.5 72t59.5 20q34 0 58 -24t24 -54zM655 1458q0 -35 -12.5 -56.5t-46.5 -53.5
q-15 -14 -56 -51t-92 -83t-118 -104l-37 29q95 157 170 307q27 52 50.5 72t59.5 20q33 0 57.5 -25t24.5 -55z" />
    <glyph glyph-name="Uogonek" unicode="&#x172;" horiz-adv-x="1548" 
d="M1165 -444h-114q-128 0 -198.5 52t-70.5 142q0 118 150 234q-78 -19 -141 -19q-126 0 -228.5 34t-167.5 91.5t-100 130.5t-35 154v837q0 70 -57 103q-23 12 -63 21.5t-66 11.5v71h592v-71q-78 -5 -134 -25q-57 -19 -57 -100v-785q0 -49 7 -93.5t30 -95.5t60 -87
t102.5 -60t152.5 -24t155 24t109 61.5t67.5 87t36 94.5t9.5 91v584q0 227 -63 272q-31 22 -90.5 38t-98.5 18v71h582v-71q-35 -2 -89.5 -14.5t-80.5 -30.5q-61 -44 -61 -271v-616q0 -133 -61.5 -227t-162.5 -150q-83 -65 -110 -126t-27 -130q0 -76 48.5 -116t174.5 -40v-71z
" />
    <glyph glyph-name="uogonek" unicode="&#x173;" horiz-adv-x="1177" 
d="M1077 -444h-114q-128 0 -198.5 52t-70.5 142q0 129 174 250l-59 -4l-16 14v125h-7q-32 -34 -55 -55t-64 -49t-93.5 -42t-114.5 -14q-137 0 -203 88.5t-66 245.5v471q0 65 -53 105q-37 20 -102 24v66l330 22l14 -14v-684q0 -103 46.5 -159t117.5 -56q51 0 95.5 16t74.5 42
t47.5 46t30.5 41v559q0 62 -54 103q-23 14 -133 18v66l359 22l16 -14v-782q0 -63 51 -99q24 -14 98 -18v-66l-176 -12q-60 -55 -79 -108.5t-19 -114.5q0 -76 48.5 -116t174.5 -40v-71z" />
    <glyph glyph-name="Wcircumflex" unicode="&#x174;" horiz-adv-x="1998" 
d="M2028 1348q-66 -4 -119 -39q-36 -23 -58 -51.5t-36 -77.5q-77 -257 -367 -1198h-92l-359 1091l-372 -1091h-88l-349 1230q-17 62 -73 101q-48 31 -119 35v71h579v-71q-184 -11 -184 -52q0 -5 8 -53q26 -97 256 -897l355 1053h98l356 -1075q145 501 209 749q37 139 37 187
q0 74 -197 88v71h515v-71zM1384 1538l-49 -31l-278 211l-275 -211l-49 31l236 285q19 26 36.5 35.5t55.5 9.5t54 -9.5t32 -31.5z" />
    <glyph glyph-name="wcircumflex" unicode="&#x175;" horiz-adv-x="1509" 
d="M1540 922q-47 -5 -93.5 -37.5t-66.5 -89.5q-26 -79 -86.5 -257t-107.5 -319q-36 -105 -70 -225h-86l-264 725l-268 -725h-82l-273 819q-14 43 -58 72.5t-89 34.5v65h438v-70q-108 -5 -108 -43q0 -8 12 -45l176 -571l252 711h96l256 -701q116 347 162 496q18 65 18 90
q0 32 -49 51t-84 19v63h375v-63zM1141 1151l-49 -33l-279 273l-274 -273l-50 33l238 346q19 27 35 36t55 9q38 0 53 -9t31 -32z" />
    <glyph glyph-name="Ycircumflex" unicode="&#x176;" horiz-adv-x="1259" 
d="M1315 1348q-18 -2 -56.5 -14.5t-52.5 -22.5q-38 -25 -54.5 -41t-51.5 -66q-25 -35 -52 -75.5t-45.5 -70.5t-51 -85.5t-47 -80.5t-56.5 -98.5t-57 -99.5q-39 -70 -50.5 -107.5t-11.5 -107.5v-270q0 -75 66 -107q17 -7 74.5 -17.5t86.5 -12.5v-72h-663v72q123 7 162 20
q61 25 61 107v344q0 33 -65 153q-122 236 -261 482q-32 56 -57 85.5t-59 51.5q-48 29 -117 33v71h604v-71q-8 0 -30.5 -1.5t-35.5 -2t-34 -2.5t-34 -5.5t-26 -8t-19.5 -12t-6.5 -16.5q0 -17 62 -134t182 -336q44 -79 67 -121q324 520 324 565q0 15 -7.5 26.5t-24 19t-31 12
t-41 8t-41.5 5t-44 3.5v71h494v-71zM1004 1538l-50 -31l-278 211l-275 -211l-49 31l236 285q19 26 36.5 35.5t55.5 9.5t54 -9.5t32 -31.5z" />
    <glyph glyph-name="ycircumflex" unicode="&#x177;" horiz-adv-x="1007" 
d="M1038 924q-36 -5 -83.5 -38t-67.5 -79q-88 -204 -207 -491.5t-145 -346.5q-47 -104 -92 -180.5t-81 -120.5t-73 -70t-65 -34t-60 -8q-76 0 -121 35.5t-45 86.5q0 45 24 79t70 34q17 0 33.5 -5t27.5 -9.5t25.5 -19t20 -19.5t19.5 -26t15 -23t15 -25q48 25 117 135t104 205
q-110 272 -334 811q-18 43 -61.5 70.5t-91.5 34.5v65h448v-70q-113 -5 -113 -43q0 -1 2 -6.5t6 -17t7 -21.5q23 -59 119.5 -294t117.5 -289q121 287 201 491q2 5 13.5 33t16.5 46t5 32q0 29 -47.5 50t-85.5 26v63h366v-61zM854 1151l-49 -33l-279 273l-274 -273l-49 33
l237 346q19 27 35 36t55 9q38 0 53 -9t31 -32z" />
    <glyph glyph-name="Ydieresis" unicode="&#x178;" horiz-adv-x="1259" 
d="M1315 1348q-18 -2 -56.5 -14.5t-52.5 -22.5q-38 -25 -54.5 -41t-51.5 -66q-25 -35 -52 -75.5t-45.5 -70.5t-51 -85.5t-47 -80.5t-56.5 -98.5t-57 -99.5q-39 -70 -50.5 -107.5t-11.5 -107.5v-270q0 -75 66 -107q17 -7 74.5 -17.5t86.5 -12.5v-72h-663v72q123 7 162 20
q61 25 61 107v344q0 33 -65 153q-122 236 -261 482q-32 56 -57 85.5t-59 51.5q-48 29 -117 33v71h604v-71q-8 0 -30.5 -1.5t-35.5 -2t-34 -2.5t-34 -5.5t-26 -8t-19.5 -12t-6.5 -16.5q0 -17 62 -134t182 -336q44 -79 67 -121q324 520 324 565q0 15 -7.5 26.5t-24 19t-31 12
t-41 8t-41.5 5t-44 3.5v71h494v-71zM1012 1731q0 -51 -34 -87t-83 -36t-84 36t-35 87t34.5 86.5t84.5 35.5q49 0 83 -35.5t34 -86.5zM563 1731q0 -51 -35 -87t-84 -36t-82.5 36t-33.5 87t33.5 86.5t82.5 35.5q50 0 84.5 -35.5t34.5 -86.5z" />
    <glyph glyph-name="Zacute" unicode="&#x179;" horiz-adv-x="1232" 
d="M1214 442l-47 -442h-1140v35l893 1304h-326q-114 0 -168 -10q-74 -16 -154.5 -117t-117.5 -194h-70l43 401h1063v-35l-893 -1304h338q252 0 305 51q61 57 118.5 147t86.5 164h69zM846 1675q-25 -14 -74.5 -37.5t-131 -62.5t-140.5 -68l-31 39q145 137 262 258
q32 35 58 49.5t57 14.5q39 0 65.5 -22.5t26.5 -57.5q0 -40 -23 -65t-69 -48z" />
    <glyph glyph-name="zacute" unicode="&#x17a;" horiz-adv-x="909" 
d="M854 0h-799v53l557 852h-137q-168 0 -225 -22q-30 -13 -55.5 -67.5t-40.5 -133.5h-62v303h756v-41l-567 -862q68 -2 172 -2q62 0 194 6q36 0 57 22.5t35 61.5q31 80 54 178h61v-348zM731 1460q0 -36 -14.5 -58t-54.5 -54q-29 -24 -123.5 -97t-180.5 -141l-39 33
q137 200 203 307q30 50 59 69t68 19q34 0 58 -24t24 -54z" />
    <glyph glyph-name="Zdotaccent" unicode="&#x17b;" horiz-adv-x="1232" 
d="M1214 442l-47 -442h-1140v35l893 1304h-326q-114 0 -168 -10q-74 -16 -154.5 -117t-117.5 -194h-70l43 401h1063v-35l-893 -1304h338q252 0 305 51q61 57 118.5 147t86.5 164h69zM766 1737q0 -58 -38 -99t-93 -41q-51 0 -88 39t-37 93q0 55 37 95t88 40q56 0 93.5 -37
t37.5 -90z" />
    <glyph glyph-name="zdotaccent" unicode="&#x17c;" horiz-adv-x="909" 
d="M854 0h-799v53l557 852h-137q-168 0 -225 -22q-30 -13 -55.5 -67.5t-40.5 -133.5h-62v303h756v-41l-567 -862q68 -2 172 -2q62 0 194 6q36 0 57 22.5t35 61.5q31 80 54 178h61v-348zM596 1386q0 -57 -38 -98t-93 -41q-51 0 -88 38.5t-37 92.5q0 55 37 95t88 40
q56 0 93.5 -37t37.5 -90z" />
    <glyph glyph-name="Zcaron" unicode="&#x17d;" horiz-adv-x="1232" 
d="M1214 442l-47 -442h-1140v35l893 1304h-326q-114 0 -168 -10q-74 -16 -154.5 -117t-117.5 -194h-70l43 401h1063v-35l-893 -1304h338q252 0 305 51q61 57 118.5 147t86.5 164h69zM905 1868l49 -33l-235 -283q-2 -3 -9.5 -13t-9 -11.5t-8 -7.5t-10.5 -6.5t-12.5 -3
t-18.5 -3t-24 -0.5q-38 0 -54 9.5t-32 31.5l-238 287l49 33l279 -213z" />
    <glyph glyph-name="zcaron" unicode="&#x17e;" horiz-adv-x="909" 
d="M854 0h-799v53l557 852h-137q-168 0 -225 -22q-30 -13 -55.5 -67.5t-40.5 -133.5h-62v303h756v-41l-567 -862q68 -2 172 -2q62 0 194 6q36 0 57 22.5t35 61.5q31 80 54 178h61v-348zM782 1509l-239 -350q-11 -16 -18 -23t-23.5 -12.5t-42.5 -5.5q-40 0 -55.5 9t-34.5 36
l-238 346l49 33l275 -272l278 272z" />
    <glyph glyph-name="longs" unicode="&#x17f;" horiz-adv-x="612" 
d="M199 1051q0 218 115.5 357.5t291.5 139.5q86 0 132 -33t46 -85q0 -44 -22.5 -75.5t-73.5 -31.5q-21 0 -39.5 7t-31.5 15.5t-28.5 26t-22.5 28t-22 33.5t-20 31q-139 -6 -139 -391v-895q0 -69 55 -90q23 -10 125 -22v-66h-512v66q76 8 90 12q56 17 56 90v883z" />
    <glyph glyph-name="florin" unicode="&#x192;" horiz-adv-x="1062" 
d="M1055 1163q0 -41 -24 -72.5t-75 -31.5q-95 0 -172 176q-83 -14 -134.5 -108.5t-74.5 -286.5l-14 -121h258v-96h-266q-19 -220 -47 -404q-48 -319 -191 -467q-56 -58 -132.5 -89.5t-155.5 -31.5q-101 0 -152 42.5t-51 97.5q0 43 23 73.5t73 30.5q31 0 57.5 -14.5
t48.5 -42.5t36.5 -53.5t31.5 -61.5q151 17 205 395q25 158 63 525h-204v96h213q19 165 62.5 274.5t125.5 194.5q122 119 293 119q101 0 152 -44.5t51 -99.5z" />
    <glyph glyph-name="Aringacute" unicode="&#x1fa;" horiz-adv-x="1374" 
d="M1421 0h-592v72q81 5 132 20t51 37q0 30 -8 43l-134 320h-469q-77 -182 -90 -224q-22 -76 -22 -108q0 -39 58.5 -61t146.5 -27v-72h-535v72q83 5 129 37q40 25 62.5 54t46.5 83l413 979q-75 19 -123.5 71.5t-48.5 135.5q0 56 30.5 102t82.5 76q104 80 248 205
q62 53 106 53q43 0 71 -23.5t28 -56.5q0 -42 -25.5 -67.5t-79.5 -45.5l-117 -43q78 -20 125 -74t47 -126q0 -80 -47.5 -133t-120.5 -72l424 -1012q18 -40 36.5 -63t51.5 -48q23 -13 60 -22.5t63 -9.5v-72zM834 580l-197 467l-199 -467h396zM829 1432q0 64 -34.5 105.5
t-98.5 41.5q-60 0 -95.5 -41.5t-35.5 -105.5q0 -65 35 -108.5t96 -43.5q63 0 98 43t35 109z" />
    <glyph glyph-name="aringacute" unicode="&#x1fb;" horiz-adv-x="1032" 
d="M389 1004q-72 23 -112.5 77.5t-40.5 130.5q0 97 73.5 159.5t184.5 62.5q114 0 186 -61t72 -161q0 -73 -40.5 -127t-111.5 -79q118 -19 181 -91.5t63 -226.5q0 -97 -3 -252t-3 -241q0 -71 55 -103q19 -10 113 -10v-64q-101 -38 -162 -38q-78 0 -125.5 37t-59.5 106h-6
q-132 -148 -319 -148q-113 0 -183.5 68t-70.5 178q0 112 56.5 175.5t150.5 99.5q40 16 178.5 62t189.5 73v98q0 17 -2.5 37.5t-14 53t-30 58t-55.5 44t-86 18.5q-48 0 -87 -14t-54 -33q0 -14 9 -58.5t9 -72.5q0 -37 -33 -64.5t-86 -27.5q-49 0 -72.5 32.5t-23.5 81.5
q0 75 77 136t183 84zM657 547q-73 -21 -122 -39t-101 -44.5t-83 -55.5t-50.5 -70.5t-19.5 -91.5q0 -80 42 -120t111 -40q51 0 96 20t66 39.5t55 55.5zM625 1212q0 70 -34 114t-97 44t-98.5 -42.5t-35.5 -115.5q0 -71 35.5 -115t98.5 -44t97 43.5t34 115.5zM768 1763
q0 -40 -22 -64t-70 -48q-34 -17 -141.5 -68.5t-204.5 -99.5l-31 39q135 129 260 258q60 63 117 63q38 0 65 -23t27 -57z" />
    <glyph glyph-name="AEacute" unicode="&#x1fc;" horiz-adv-x="1988" 
d="M1942 418l-27 -418h-1170v72q110 7 146 20q57 25 57 101v409h-479q-101 -169 -180 -332q-31 -61 -31 -100q0 -50 46 -71.5t122 -26.5v-72h-522v72q68 4 129 37q65 37 121 135q241 412 612 1081q-46 17 -170 23v71h1239v-342h-76q-19 76 -85.5 161.5t-127.5 92.5
q-65 8 -172 8h-213v-563h150q58 0 96 11t50.5 21.5t29.5 31.5q39 47 57 168h76v-555h-76q-3 43 -21 99.5t-36 80.5q-17 20 -30 30t-51 20.5t-95 10.5h-150v-426q0 -44 3 -72t14 -50.5t26 -34t45.5 -18.5t64.5 -9t91 -2h21q72 0 113 1.5t94.5 12.5t74.5 33q42 43 93 138.5
t69 150.5h72zM948 690v641h-78l-354 -641h432zM1423 1675q-25 -14 -74.5 -37.5t-131 -62.5t-140.5 -68l-30 39q145 137 262 258q32 35 57.5 49.5t56.5 14.5q39 0 66 -22.5t27 -57.5q0 -40 -23.5 -65t-69.5 -48z" />
    <glyph glyph-name="aeacute" unicode="&#x1fd;" horiz-adv-x="1509" 
d="M1468 233q-54 -115 -155 -187.5t-230 -72.5q-117 0 -207.5 43t-162.5 146h-6q-84 -109 -173 -149t-194 -40q-115 0 -186.5 66.5t-71.5 179.5q0 61 16.5 109.5t46.5 81t63 54t75 38.5q151 60 358 121v106q0 16 -3 37.5t-13.5 53.5t-28 57.5t-51 44t-76.5 18.5
q-52 0 -91 -14t-54 -33q0 -14 9 -58.5t9 -72.5q0 -37 -32.5 -64.5t-86.5 -27.5q-49 0 -72.5 32.5t-23.5 81.5q0 90 111 160t233 70q110 0 187 -27t124 -94q55 55 128 88t153 33q99 0 174 -32.5t119 -90t66 -129t22 -156.5v-57h-619q0 -465 305 -465q99 0 159 47t110 145z
M1245 631q0 307 -194 307q-100 0 -163 -88.5t-63 -218.5h420zM643 195v342q-362 -71 -362 -289q0 -81 38.5 -121.5t106.5 -40.5q130 0 217 109zM1081 1460q0 -36 -14.5 -58t-54.5 -54q-29 -25 -124 -98t-179 -140l-39 33q126 185 202 307q30 50 59 69t68 19q34 0 58 -24
t24 -54z" />
    <glyph glyph-name="Oslashacute" unicode="&#x1fe;" horiz-adv-x="1523" 
d="M1444 709q0 -167 -55 -308.5t-148.5 -236t-217 -147t-261.5 -52.5q-246 0 -432 162l-174 -211l-66 49l182 215q-92 101 -142 237t-50 292q0 166 54.5 306.5t148 235.5t217.5 148t262 53q248 0 432 -160l152 185l65 -54l-158 -186q191 -214 191 -528zM1098 1176
q-115 188 -336 188q-94 0 -170 -36t-126 -97.5t-84 -146t-48.5 -178t-14.5 -197.5q0 -234 66 -394zM1204 709q0 241 -63 393l-715 -858q120 -189 336 -189q111 0 197 50t139 139.5t79.5 207t26.5 257.5zM913 1675q-25 -14 -74.5 -37.5t-131 -62.5t-140.5 -68l-30 39
q145 137 262 258q32 35 57.5 49.5t56.5 14.5q39 0 66 -22.5t27 -57.5q0 -40 -23.5 -65t-69.5 -48z" />
    <glyph glyph-name="oslashacute" unicode="&#x1ff;" horiz-adv-x="1103" 
d="M1032 504q0 -148 -55.5 -268t-168.5 -193.5t-265 -73.5q-158 0 -287 107l-127 -158l-57 43l133 164q-135 148 -135 364q0 233 134 379t353 146q166 0 289 -96l110 141l60 -45l-119 -146q135 -144 135 -364zM764 815q-70 123 -209 123q-63 0 -113 -26t-81.5 -68.5
t-52 -100t-28.5 -116t-8 -121.5q0 -145 35 -258zM829 502q0 146 -32 246l-457 -570q73 -133 215 -133q91 0 154 63.5t91.5 164.5t28.5 229zM743 1460q0 -36 -14.5 -58t-54.5 -54q-29 -25 -124 -98t-179 -140l-39 33q137 200 203 307q30 50 58.5 69t68.5 19q34 0 57.5 -24
t23.5 -54z" />
    <glyph glyph-name="Scommaaccent" unicode="&#x218;" horiz-adv-x="1148" 
d="M1069 403q0 -189 -137.5 -310.5t-345.5 -121.5q-95 0 -189 28.5t-166 72.5l-43 -72h-79l-15 485h80q120 -428 430 -428q136 0 202 66.5t66 183.5q0 87 -50 160.5t-140 110.5q-43 17 -99 37.5t-101 38t-95 40.5q-254 116 -254 371q0 162 126.5 273.5t303.5 111.5
q155 0 318 -98l41 67h79l9 -471h-82q-14 52 -27 91.5t-31.5 85t-39 78.5t-49 65t-61 52t-76 32t-93.5 12q-96 0 -162.5 -61t-66.5 -150q0 -91 41 -151t126 -101q53 -25 146 -61t133 -54q70 -30 118.5 -60t93 -74.5t67 -106.5t22.5 -142zM737 -231q0 -103 -71 -158t-193 -55
v57q95 6 133.5 36t40.5 93h-55q-119 0 -119 94q0 38 31.5 68t85.5 30q66 0 106.5 -45.5t40.5 -119.5z" />
    <glyph glyph-name="scommaaccent" unicode="&#x219;" horiz-adv-x="884" 
d="M809 285q0 -141 -105.5 -226.5t-263.5 -85.5q-78 0 -151.5 28t-110.5 60l-20 -63h-74l-10 342h67q8 -34 24.5 -71t44.5 -76.5t62.5 -70.5t82.5 -51t100 -20q96 0 148 44t52 124q0 79 -59 121.5t-195 83.5q-47 14 -85 29t-80.5 41t-71 56.5t-47.5 75.5t-19 99
q0 124 91.5 206.5t240.5 82.5q60 0 119.5 -14.5t97.5 -36.5l23 53h71l17 -318h-70q-21 101 -87.5 170.5t-172.5 69.5q-80 0 -128 -40.5t-48 -100.5q0 -25 5.5 -46t14 -36.5t27 -30t34 -24.5t47 -22.5t55 -21t67.5 -22.5q75 -24 126 -48.5t94.5 -60.5t65 -85.5t21.5 -114.5z
M588 -231q0 -103 -71 -158t-193 -55v57q95 6 133.5 36t40.5 93h-56q-118 0 -118 94q0 38 31 68t85 30q66 0 107 -45.5t41 -119.5z" />
    <glyph glyph-name="Tcommaaccent" unicode="&#x21a;" horiz-adv-x="1267" 
d="M1251 1034h-69q-12 48 -46 114t-83 122.5t-90 62.5q-65 8 -164 8h-60v-1134q0 -74 64 -105q18 -7 77.5 -17.5t88.5 -12.5v-72h-670v72q119 6 164 22q63 23 63 103v1144h-57q-101 0 -166 -8q-41 -6 -89.5 -62.5t-82 -122t-45.5 -114.5h-72v385h1237v-385zM797 -231
q0 -103 -71.5 -158t-193.5 -55v57q95 6 134 36t41 93h-56q-119 0 -119 94q0 38 31.5 68t85.5 30q66 0 107 -45.5t41 -119.5z" />
    <glyph glyph-name="tcommaaccent" unicode="&#x21b;" horiz-adv-x="706" 
d="M682 43q-145 -63 -266 -63q-119 0 -172.5 59.5t-53.5 177.5v670h-178v94h183v307h182v-307h282v-94h-280v-551q0 -53 2.5 -86t12 -64.5t26.5 -48.5t46.5 -27t72.5 -10q90 0 143 17v-74zM578 -231q0 -103 -71.5 -158t-193.5 -55v57q95 6 133.5 36t40.5 93h-55
q-119 0 -119 94q0 38 31.5 68t85.5 30q66 0 107 -45.5t41 -119.5z" />
    <glyph glyph-name="dotlessj" unicode="&#x237;" horiz-adv-x="598" 
d="M430 59q0 -224 -114.5 -363.5t-286.5 -139.5q-85 0 -133 34t-48 84q0 43 23.5 76t71.5 33q21 0 39.5 -7t30.5 -14t28 -27t21.5 -27.5t22 -35l19.5 -32.5q75 0 108.5 93t33.5 294v741q0 31 -16 61.5t-42 49.5q-16 11 -74.5 21.5t-93.5 12.5v64l398 20l12 -14v-924z" />
    <glyph glyph-name="circumflex" unicode="&#x2c6;" 
d="M838 1151l-50 -33l-278 273l-274 -273l-50 33l238 346q19 27 35 36t55 9q38 0 53 -9t31 -32z" />
    <glyph glyph-name="caron" unicode="&#x2c7;" 
d="M838 1509l-240 -350q-11 -16 -18 -23t-23.5 -12.5t-42.5 -5.5q-40 0 -55.5 9t-34.5 36l-238 346l50 33l274 -272l278 272z" />
    <glyph glyph-name="macron" unicode="&#x2c9;" 
d="M854 1290h-684v129h684v-129z" />
    <glyph glyph-name="breve" unicode="&#x2d8;" 
d="M825 1495q-54 -369 -313 -369q-131 0 -209.5 94.5t-103.5 274.5l55 12q14 -44 26.5 -73.5t33.5 -61.5t46.5 -50.5t64 -31t87.5 -12.5q59 0 102.5 16t72.5 49.5t47 70.5t36 93z" />
    <glyph glyph-name="dotaccent" unicode="&#x2d9;" 
d="M641 1386q0 -57 -38 -98t-93 -41q-51 0 -88 38.5t-37 92.5q0 55 37 95t88 40q56 0 93.5 -37t37.5 -90z" />
    <glyph glyph-name="ring" unicode="&#x2da;" 
d="M770 1337q0 -99 -71 -161t-187 -62q-118 0 -188 60.5t-70 162.5q0 97 74 159.5t184 62.5q114 0 186 -61t72 -161zM643 1337q0 70 -34 114t-97 44q-62 0 -96.5 -42.5t-34.5 -115.5q0 -71 34 -115t97 -44t97 43.5t34 115.5z" />
    <glyph glyph-name="ogonek" unicode="&#x2db;" 
d="M688 -444h-115q-128 0 -198 52t-70 142q0 72 61 148t177 141h59q-83 -65 -110 -126t-27 -130q0 -76 48.5 -116t174.5 -40v-71z" />
    <glyph glyph-name="tilde" unicode="&#x2dc;" 
d="M895 1466q-11 -38 -33 -78t-53.5 -77.5t-76 -61.5t-93.5 -24q-53 0 -100 16t-75 35t-64.5 35t-69.5 16q-11 0 -21 -2l-17.5 -3.5t-16 -7.5t-13.5 -9t-12.5 -13t-11.5 -14t-12 -18t-11 -19.5t-13 -23.5t-14 -25l-59 25q13 38 34.5 76.5t52.5 77t74 63t89 24.5
q49 0 95.5 -16t75.5 -35t64 -35t64 -16q20 0 36 3t27.5 5.5t22.5 12.5t17 14.5t15 20.5t12 22t13 28t13 29z" />
    <glyph glyph-name="hungarumlaut" unicode="&#x2dd;" 
d="M926 1460q0 -36 -13.5 -58t-50.5 -54q-19 -18 -46.5 -42t-53.5 -45.5t-79 -66.5t-99 -84l-35 29q128 207 182 307q30 52 53.5 72t59.5 20q34 0 58 -24t24 -54zM555 1458q0 -35 -12.5 -56.5t-46.5 -53.5q-225 -201 -267 -238l-36 29q89 147 169 307q27 52 51 72t60 20
q33 0 57.5 -25t24.5 -55z" />
    <glyph glyph-name="Grave" unicode="&#x300;" 
d="M768 1546l-31 -39q-59 29 -140.5 68t-131 62.5t-74.5 37.5q-52 26 -72 49.5t-20 63.5q0 36 25 58t67 22q31 0 55.5 -13.5t59.5 -50.5l104 -104q104 -104 158 -154z" />
    <glyph glyph-name="Acute" unicode="&#x301;" 
d="M633 1675q-25 -14 -74.5 -37.5t-131 -62.5t-140.5 -68l-31 39q145 137 262 258q32 35 58 49.5t57 14.5q39 0 65.5 -22.5t26.5 -57.5q0 -40 -23 -65t-69 -48z" />
    <glyph glyph-name="Circumflex" unicode="&#x302;" 
d="M838 1538l-50 -31l-278 211l-274 -211l-50 31l236 285q19 26 36.5 35.5t55.5 9.5t54 -9.5t32 -31.5z" />
    <glyph glyph-name="Breve" unicode="&#x306;" 
d="M774 1868l55 -17q-26 -162 -104.5 -241.5t-212.5 -79.5q-131 0 -211.5 81.5t-105.5 239.5l55 17q31 -97 91 -144t171 -47t171 47t91 144z" />
    <glyph glyph-name="Dieresis" unicode="&#x308;" 
d="M854 1731q0 -51 -34 -87t-83 -36t-84 36t-35 87t34.5 86.5t84.5 35.5q49 0 83 -35.5t34 -86.5zM406 1731q0 -51 -35 -87t-84 -36t-83 36t-34 87t34 86.5t83 35.5q50 0 84.5 -35.5t34.5 -86.5z" />
    <glyph glyph-name="Hungarumlaut" unicode="&#x30b;" 
d="M483 1677l-108 -55q-21 -10 -193 -115l-28 35l118 135l95 115q63 76 110 76q39 0 63.5 -25.5t24.5 -58.5q0 -36 -20.5 -60.5t-61.5 -46.5zM872 1677q-53 -28 -112 -55q-25 -11 -195 -115l-28 35q174 196 219 250q63 76 110 76q39 0 63.5 -25.5t24.5 -58.5
q0 -36 -20.5 -60.5t-61.5 -46.5z" />
    <glyph glyph-name="Caron" unicode="&#x30c;" 
d="M788 1868l50 -33l-236 -283q-2 -3 -9.5 -13t-9 -11.5t-8 -7.5t-10.5 -6.5t-12.5 -3t-18.5 -3t-24 -0.5q-38 0 -54 9.5t-32 31.5l-238 287l50 33l278 -213z" />
    <glyph glyph-name="undercommaaccent" unicode="&#x326;" 
d="M637 -231q0 -103 -71 -158t-193 -55v57q95 6 133.5 36t40.5 93h-55q-119 0 -119 94q0 38 31 68t85 30q66 0 107 -45.5t41 -119.5z" />
    <glyph glyph-name="tonos" unicode="&#x384;" 
d="M752 1559v-25l-207 -395h-68l66 420h209z" />
    <glyph glyph-name="dieresistonos" unicode="&#x385;" 
d="M903 1337q0 -51 -33 -87t-82 -36t-82.5 36t-33.5 87t33.5 87t82.5 36t82 -36t33 -87zM354 1337q0 -51 -33.5 -87t-82.5 -36t-82 36t-33 87t33 87t82 36t82.5 -36t33.5 -87zM672 1548v-20l-205 -385h-59l73 405h191z" />
    <glyph glyph-name="Alphatonos" unicode="&#x386;" horiz-adv-x="1374" 
d="M1421 0h-592v72q67 4 125 18t58 39q0 23 -8 43l-119 320h-498q-56 -147 -76 -220q-22 -74 -22 -112q0 -23 22 -40.5t57 -27t65 -14t61 -6.5v-72h-535v72q80 5 129 37q35 24 59 53.5t46 83.5q84 206 251.5 639.5t214.5 554.5h80l473 -1225q24 -67 86 -111q51 -28 123 -32
v-72zM850 580l-215 550l-211 -550h426zM344 1419v-24l-207 -396h-67l65 420h209z" />
    <glyph glyph-name="anoteleia" unicode="&#x387;" horiz-adv-x="641" 
d="M457 854q0 -58 -40.5 -97.5t-97.5 -39.5t-97 39.5t-40 97.5q0 56 40 95.5t97 39.5t97.5 -39.5t40.5 -95.5z" />
    <glyph glyph-name="Epsilontonos" unicode="&#x388;" horiz-adv-x="1628" 
d="M1581 418l-27 -418h-1177v72q102 6 145 20q58 27 58 101v1019q0 75 -58 101q-25 11 -72 22t-73 13v71h1098v-342h-74q-21 76 -87 161.5t-126 92.5q-65 8 -172 8h-223v-563h159q57 0 94.5 11t50 21.5t29.5 31.5q20 24 36.5 73.5t23.5 94.5h74v-555h-74q-3 44 -22 100
t-38 80q-17 20 -29.5 30t-50 20.5t-94.5 10.5h-159v-426q0 -44 3 -72t14 -50.5t25.5 -34t44.5 -18.5t64 -9t90 -2q173 0 234 12q59 11 82 35q41 43 91 138t68 151h72zM295 1419v-24l-207 -396h-68l66 420h209z" />
    <glyph glyph-name="Etatonos" unicode="&#x389;" horiz-adv-x="1966" 
d="M1864 0h-588v72q103 6 131 16q57 23 57 100v506h-665v-493q0 -71 55 -103q16 -8 58.5 -16t70.5 -10v-72h-588v72q103 6 131 16q60 24 60 100v1024q0 73 -60 101q-24 11 -65.5 22.5t-65.5 12.5v71h588v-71q-68 -4 -129 -25q-55 -20 -55 -100v-441h665v430q0 74 -57 101
q-24 11 -65.5 22.5t-65.5 12.5v71h588v-71q-72 -4 -129 -25q-58 -21 -58 -100v-1022q0 -69 58 -103q16 -8 58.5 -16t70.5 -10v-72zM295 1419v-24l-207 -396h-68l66 420h209z" />
    <glyph glyph-name="Iotatonos" unicode="&#x38a;" horiz-adv-x="1085" 
d="M1006 0h-639v72q116 6 149 16q64 24 64 98v1028q0 74 -64 99q-83 31 -149 35v71h639v-71q-87 -5 -150 -25t-63 -98v-1026q0 -70 63 -101q18 -7 69.5 -15.5t80.5 -10.5v-72zM295 1419v-24l-207 -396h-68l66 420h209z" />
    <glyph glyph-name="Omicrontonos" unicode="&#x38c;" horiz-adv-x="1740" 
d="M1661 709q0 -167 -55 -308.5t-148.5 -236t-217 -147t-261.5 -52.5q-146 0 -273 56t-216.5 154t-141 236.5t-51.5 297.5q0 166 54.5 306.5t148 235.5t217.5 148t262 53q141 0 265.5 -53t217 -148t146 -235.5t53.5 -306.5zM1419 709q0 301 -114.5 478t-325.5 177
q-94 0 -169 -36t-125 -97.5t-83.5 -146t-48 -178t-14.5 -197.5q0 -190 46.5 -334.5t147.5 -232t246 -87.5q89 0 162 33t124 91.5t86 141t51.5 179.5t16.5 209zM295 1419v-24l-207 -396h-68l66 420h209z" />
    <glyph glyph-name="Upsilontonos" unicode="&#x38e;" horiz-adv-x="1646" 
d="M1702 1348q-18 -2 -56.5 -14.5t-52.5 -22.5q-38 -25 -54.5 -41t-51.5 -66q-25 -35 -52 -75.5t-45.5 -70.5t-51 -85.5t-47 -80.5t-56.5 -98.5t-57 -99.5q-39 -70 -50.5 -107.5t-11.5 -107.5v-270q0 -75 66 -107q17 -7 74.5 -17.5t86.5 -12.5v-72h-663v72q123 7 162 20
q61 25 61 107v344q0 33 -65 153q-132 256 -260 482q-32 56 -57 85.5t-60 51.5q-47 29 -117 33v71h604v-71q-8 0 -30.5 -1.5t-35.5 -2t-34 -2.5t-34 -5.5t-26 -8t-19.5 -12t-6.5 -16.5q0 -17 62 -134t182 -336q44 -79 67 -121q324 520 324 565q0 15 -7.5 26.5t-24 19t-31 12
t-41 8t-41.5 5t-44 3.5v71h494v-71zM295 1419v-24l-207 -396h-68l66 420h209z" />
    <glyph glyph-name="Omegatonos" unicode="&#x38f;" horiz-adv-x="1783" 
d="M287 0l-68 387h68q4 -8 16.5 -38.5t18.5 -43t19.5 -37.5t24.5 -37.5t27 -27.5t34.5 -21t39.5 -6h229v33q-154 173 -205 243q-122 167 -146 337q-7 50 -7 104q0 111 48.5 213t132.5 178.5t206.5 122t261.5 45.5q143 0 266 -46t206.5 -123.5t131 -178.5t47.5 -211
q0 -103 -21.5 -187.5t-80.5 -175.5t-100 -142t-143 -164q-9 -10 -13 -15v-33h227q21 0 39 6t34 21.5t27 27t24.5 37.5t19 37.5t19 43l16.5 38.5h69l-69 -387h-590v68q140 200 186 282q103 185 114 376q1 27 1 54q0 81 -9.5 154.5t-37 154.5t-71 139.5t-119 97t-173.5 38.5
q-97 0 -171.5 -38.5t-118 -97.5t-71 -139.5t-37 -154.5t-9.5 -154q0 -83 15 -160t36 -136t63 -132.5t76.5 -124.5t95.5 -138l15 -21v-68h-594zM295 1419v-24l-207 -396h-68l66 420h209z" />
    <glyph glyph-name="iotadieresistonos" unicode="&#x390;" horiz-adv-x="604" 
d="M598 16q-106 -36 -207 -36q-84 0 -136 52t-52 163l2 583q0 66 -51 105q-18 10 -55 18t-66 10v66l344 20l12 -14v-774q0 -68 40.5 -99.5t102.5 -31.5q30 0 66 4v-66zM692 1337q0 -52 -32.5 -87.5t-81.5 -35.5t-83 36t-34 87t34 87t83 36t81.5 -35.5t32.5 -87.5zM143 1337
q0 -51 -33.5 -87t-82.5 -36t-82 36t-33 87t33 87t82 36t82.5 -36t33.5 -87zM461 1548v-20l-205 -385h-59l73 405h191z" />
    <glyph glyph-name="Alpha" unicode="&#x391;" horiz-adv-x="1374" 
d="M1421 0h-592v72q67 4 125 18t58 39q0 23 -8 43l-119 320h-498q-56 -147 -76 -220q-22 -74 -22 -112q0 -23 22 -40.5t57 -27t65 -14t61 -6.5v-72h-535v72q80 5 129 37q35 24 59 53.5t46 83.5q84 206 251.5 639.5t214.5 554.5h80l473 -1225q24 -67 86 -111q51 -28 123 -32
v-72zM850 580l-215 550l-211 -550h426z" />
    <glyph glyph-name="Beta" unicode="&#x392;" horiz-adv-x="1339" 
d="M1247 385q0 -77 -28.5 -141.5t-75.5 -108.5t-109.5 -75t-129.5 -45.5t-136 -14.5h-674v72q92 5 137 22q58 27 58 99v1019q0 76 -58 103q-63 29 -129 33v71h656q75 0 144.5 -16.5t131 -51t98.5 -96.5t37 -145q0 -75 -27 -135t-76 -100t-105.5 -66.5t-126.5 -42.5v-8
q56 -8 108.5 -22.5t109.5 -43.5t99 -68.5t69 -101.5t27 -137zM930 1090q0 249 -266 249q-64 0 -162 -4v-544h127q301 0 301 299zM1001 422q0 130 -85.5 209.5t-239.5 79.5q-100 0 -174 -4v-500q0 -63 49.5 -95t142.5 -32q88 0 150.5 29t95 80t47 108t14.5 125z" />
    <glyph glyph-name="Gamma" unicode="&#x393;" horiz-adv-x="1193" 
d="M1180 1022h-76q-14 53 -42.5 117.5t-78.5 125t-100 66.5q-71 8 -178 8h-203v-1136q0 -69 63 -103q16 -7 72 -16.5t86 -11.5v-72h-637v72q117 7 145 16q58 24 58 100v1024q0 75 -58 101q-25 11 -72 22t-73 13v71h1094v-397z" />
    <glyph glyph-name="Delta" unicode="&#x394;" horiz-adv-x="1353" 
d="M1333 0h-1315v49l641 1391h78l596 -1391v-49zM1053 172l-424 991l-453 -991h877z" />
    <glyph glyph-name="Epsilon" unicode="&#x395;" horiz-adv-x="1337" 
d="M1290 418l-26 -418h-1178v72q102 6 145 20q58 27 58 101v1019q0 75 -58 101q-25 11 -72 22t-73 13v71h1098v-342h-74q-21 76 -87 161.5t-126 92.5q-65 8 -172 8h-223v-563h160q57 0 94.5 11t50 21.5t29.5 31.5q41 50 59 168h74v-555h-74q-3 44 -21.5 100.5t-37.5 79.5
q-17 20 -29.5 30t-50 20.5t-94.5 10.5h-160v-426q0 -44 3 -72t14 -50.5t25.5 -34t44.5 -18.5t64 -9t90 -2q173 0 234 12q59 11 82 35q41 43 91.5 138t68.5 151h71z" />
    <glyph glyph-name="Zeta" unicode="&#x396;" horiz-adv-x="1232" 
d="M1214 442l-47 -442h-1140v35l893 1304h-326q-114 0 -168 -10q-74 -16 -154.5 -117t-117.5 -194h-70l43 401h1063v-35l-893 -1304h338q252 0 305 51q61 57 118.5 147t86.5 164h69z" />
    <glyph glyph-name="Eta" unicode="&#x397;" horiz-adv-x="1669" 
d="M1567 0h-588v72q103 6 131 16q57 23 57 100v506h-665v-493q0 -71 55 -103q16 -8 58.5 -16t70.5 -10v-72h-588v72q103 6 131 16q60 24 60 100v1024q0 73 -60 101q-24 11 -65.5 22.5t-65.5 12.5v71h588v-71q-68 -4 -129 -25q-55 -20 -55 -100v-441h665v430q0 74 -57 101
q-24 11 -65.5 22.5t-65.5 12.5v71h588v-71q-72 -4 -129 -25q-58 -21 -58 -100v-1022q0 -69 58 -103q16 -8 58.5 -16t70.5 -10v-72z" />
    <glyph glyph-name="Theta" unicode="&#x398;" horiz-adv-x="1523" 
d="M1444 709q0 -167 -55 -308.5t-148.5 -236t-217 -147t-261.5 -52.5q-146 0 -273 56t-216.5 154t-141 236.5t-51.5 297.5q0 166 54.5 306.5t148 235.5t217.5 148t262 53q141 0 265.5 -53t217 -148t146 -235.5t53.5 -306.5zM1204 709q0 199 -50 345.5t-150.5 228
t-241.5 81.5q-94 0 -169.5 -36t-126 -97.5t-84 -146t-48.5 -178t-15 -197.5q0 -142 27.5 -260t81.5 -206.5t139.5 -138t194.5 -49.5q111 0 196.5 50t138.5 139.5t80 207t27 257.5zM1047 481h-66q-15 81 -43 121q-10 18 -47.5 24.5t-128.5 6.5q-92 0 -129 -6.5t-47 -24.5
q-25 -36 -41 -121h-68v455h68q16 -83 41 -119q10 -18 47 -24.5t129 -6.5q91 0 128.5 6.5t47.5 24.5q28 40 43 119h66v-455z" />
    <glyph glyph-name="Iota" unicode="&#x399;" horiz-adv-x="798" 
d="M719 0h-639v72q116 6 149 16q64 24 64 98v1028q0 74 -64 99q-83 31 -149 35v71h639v-71q-87 -5 -150 -25t-63 -98v-1026q0 -70 63 -101q18 -7 69.5 -15.5t80.5 -10.5v-72z" />
    <glyph glyph-name="Kappa" unicode="&#x39a;" horiz-adv-x="1421" 
d="M1475 0h-398q-220 343 -551 694h-24v-493q0 -73 57 -103q14 -7 59 -15.5t72 -10.5v-72h-588v72q97 6 129 16q58 24 58 100v1024q0 74 -58 101q-70 31 -129 35v71h588v-71q-75 -5 -131 -25q-57 -19 -57 -100v-490h18q195 162 341.5 328.5t146.5 236.5q0 42 -148 50v71h533
v-71q-21 0 -55.5 -4t-91.5 -24.5t-87 -53.5q-30 -34 -90 -102.5t-88 -100t-74.5 -82.5t-90 -94.5t-93.5 -91.5q56 -64 103 -118.5t99 -118t77 -94.5t93 -116.5t91 -114.5q64 -82 160 -135q43 -21 129 -26v-72z" />
    <glyph glyph-name="Lambda" unicode="&#x39b;" horiz-adv-x="1380" 
d="M1427 0h-591v72q66 4 123 18t57 39q0 30 -8 43l-371 956q-300 -774 -326 -856q-22 -74 -22 -112q0 -23 22 -40.5t57 -27t65 -14t61 -6.5v-72h-535v72q80 5 129 37q35 24 59 53.5t46 83.5q64 159 142.5 359t176 450.5t150.5 384.5h79l478 -1225q26 -68 86 -111
q51 -28 122 -32v-72z" />
    <glyph glyph-name="Mu" unicode="&#x39c;" horiz-adv-x="1898" 
d="M1806 0h-626v72q130 8 159 22q62 39 62 107v1032h-17l-483 -1210h-49l-53 143l-410 1091h-12v-847q0 -123 15.5 -186.5t47.5 -92.5q21 -20 85.5 -38.5t95.5 -20.5v-72h-574v72q132 16 172 47q34 26 48 90t14 190v725q0 114 -60 168q-57 52 -164 56v71h484l405 -1065
l348 891q18 46 31.5 99t15.5 75h463v-71q-80 -5 -135 -25q-57 -19 -57 -100v-1022q0 -70 57 -103q14 -8 60.5 -16t76.5 -10v-72z" />
    <glyph glyph-name="Nu" unicode="&#x39d;" horiz-adv-x="1570" 
d="M1554 1348q-30 -2 -89.5 -17t-80.5 -31q-35 -25 -48 -90t-13 -186v-1038h-86l-860 1161v-731q0 -123 15.5 -188.5t47.5 -96.5q21 -19 89.5 -38t101.5 -21v-72h-584v72q29 2 93.5 20t78.5 31q34 26 48 89t14 191v701q0 46 -17 91.5t-43 70.5q-35 32 -95.5 56t-100.5 26v71
h403l799 -1081v674q0 232 -62 278q-25 18 -89.5 37t-98.5 21v71h577v-71z" />
    <glyph glyph-name="Xi" unicode="&#x39e;" horiz-adv-x="1419" 
d="M1274 989h-70q-2 7 -11.5 39.5t-13.5 44t-15 40.5t-19 41.5t-22.5 33t-29.5 30t-36 17.5t-45 8q-238 4 -305 4t-297 -4q-21 0 -40 -5t-34.5 -17t-27.5 -22t-23.5 -30.5t-18.5 -32.5t-16 -37.5t-12.5 -36.5t-12 -38.5t-10.5 -34.5h-70l27 430h1075zM1026 469h-70
q-14 78 -41 125q-13 22 -57.5 29.5t-146.5 7.5q-100 0 -146 -7.5t-59 -29.5q-30 -52 -43 -125h-70v479h70q13 -71 43 -123q13 -22 59 -29.5t146 -7.5q102 0 146.5 7.5t57.5 29.5q27 46 41 123h70v-479zM1305 432l-48 -432h-1093l-47 432h69q41 -114 67 -157q58 -96 146 -97
q282 -4 308 -4q103 0 315 4q19 0 37 5t32 12t28 20.5t24 24t21 30t17.5 31t16 34t13.5 33t12.5 34t11.5 30.5h70z" />
    <glyph glyph-name="Omicron" unicode="&#x39f;" horiz-adv-x="1523" 
d="M1444 709q0 -167 -55 -308.5t-148.5 -236t-217 -147t-261.5 -52.5q-146 0 -273 56t-216.5 154t-141 236.5t-51.5 297.5q0 166 54.5 306.5t148 235.5t217.5 148t262 53q141 0 265.5 -53t217 -148t146 -235.5t53.5 -306.5zM1202 709q0 301 -114.5 478t-325.5 177
q-94 0 -169 -36t-125 -97.5t-83.5 -146t-48 -178t-14.5 -197.5q0 -190 46.5 -334.5t147.5 -232t246 -87.5q89 0 162 33t124 91.5t86 141t51.5 179.5t16.5 209z" />
    <glyph glyph-name="Pi" unicode="&#x3a0;" horiz-adv-x="1654" 
d="M502 1329v-1128q0 -71 55 -103q16 -8 58.5 -16t70.5 -10v-72h-588v72q103 6 131 16q60 24 60 100v1024q0 73 -60 101q-24 11 -65.5 22.5t-65.5 12.5v71h1454v-71q-72 -4 -129 -25q-57 -20 -57 -100v-1022q0 -70 57 -103q16 -8 58.5 -16t70.5 -10v-72h-587v72
q103 6 131 16q57 23 57 100v1141h-651z" />
    <glyph glyph-name="Rho" unicode="&#x3a1;" horiz-adv-x="1249" 
d="M1184 1069q0 -89 -29.5 -164t-80 -126t-118 -87t-142.5 -52.5t-155 -16.5h-157v-430q0 -80 57 -103q41 -13 148 -18v-72h-609v72q95 6 133 18q58 24 58 103v1024q0 83 -58 106q-71 21 -141 25v71h649q195 0 320 -94.5t125 -255.5zM936 1020q0 50 -8 94t-29 86t-53.5 71.5
t-84.5 47.5t-120 18h-139v-626h100q84 0 147.5 23t98 56.5t55.5 78.5t27 80t6 71z" />
    <glyph glyph-name="Sigma" unicode="&#x3a3;" horiz-adv-x="1236" 
d="M1200 442l-47 -442h-1128v35l571 637l-555 712v35h1069v-377h-72q-21 97 -82.5 187t-130.5 100q-59 10 -176 10h-309l444 -571v-16l-520 -576h654q25 0 47.5 9.5t39 21t34 36.5t27 40.5t23.5 49t18.5 46t16.5 46.5q4 12 6 17h70z" />
    <glyph glyph-name="Tau" unicode="&#x3a4;" horiz-adv-x="1267" 
d="M1251 1034h-69q-12 48 -46 114t-83 122.5t-90 62.5q-65 8 -164 8h-60v-1134q0 -74 64 -105q18 -7 77.5 -17.5t88.5 -12.5v-72h-670v72q119 6 164 22q63 23 63 103v1144h-57q-101 0 -166 -8q-41 -6 -89.5 -62.5t-82 -122t-45.5 -114.5h-72v385h1237v-385z" />
    <glyph glyph-name="Upsilon" unicode="&#x3a5;" horiz-adv-x="1259" 
d="M1315 1348q-18 -2 -56.5 -14.5t-52.5 -22.5q-38 -25 -54.5 -41t-51.5 -66q-25 -35 -52 -75.5t-45.5 -70.5t-51 -85.5t-47 -80.5t-56.5 -98.5t-57 -99.5q-39 -70 -50.5 -107.5t-11.5 -107.5v-270q0 -75 66 -107q17 -7 74.5 -17.5t86.5 -12.5v-72h-663v72q123 7 162 20
q61 25 61 107v344q0 33 -65 153q-122 236 -261 482q-32 56 -57 85.5t-59 51.5q-48 29 -117 33v71h604v-71q-8 0 -30.5 -1.5t-35.5 -2t-34 -2.5t-34 -5.5t-26 -8t-19.5 -12t-6.5 -16.5q0 -17 62 -134t182 -336q44 -79 67 -121q324 520 324 565q0 15 -7.5 26.5t-24 19t-31 12
t-41 8t-41.5 5t-44 3.5v71h494v-71z" />
    <glyph glyph-name="Phi" unicode="&#x3a6;" horiz-adv-x="1570" 
d="M1503 739q0 -125 -47.5 -225t-131 -164t-194.5 -97.5t-241 -33.5v-45q0 -74 57 -94q41 -16 146 -21v-69h-600v69q95 6 133 21q57 21 57 94v45q-179 0 -315.5 57.5t-217.5 176.5t-81 286q0 78 21.5 146.5t68.5 128.5t116.5 103.5t171 68t226.5 24.5h10v27q0 36 -12.5 58.5
t-44.5 35.5q-23 11 -66 21t-70 12v70h592v-70q-88 -5 -135 -21q-57 -23 -57 -96v-37h8q155 0 273.5 -37.5t190 -103.5t107 -149t35.5 -181zM1266 715q0 59 -9.5 115t-33.5 112t-60.5 97.5t-96 67.5t-134.5 26h-43v-834q94 0 166 32.5t110.5 78.5t62.5 107t31 107.5t7 90.5z
M682 299v834h-43q-75 0 -134.5 -26t-96.5 -67.5t-61.5 -97.5t-34 -112t-9.5 -115q0 -44 6.5 -90.5t30.5 -107.5t63 -107t111.5 -78.5t167.5 -32.5z" />
    <glyph glyph-name="Chi" unicode="&#x3a7;" horiz-adv-x="1454" 
d="M1456 0h-663v72q26 1 41 2t40 4t40 6.5t31.5 9.5t24 15t7.5 20q0 29 -82 166q-173 268 -205 315q-124 -164 -217.5 -302t-93.5 -169q0 -11 2.5 -19.5t9.5 -15t13 -11.5t18.5 -8t20.5 -5t24.5 -3.5t24 -2t26 -1.5t25.5 -1v-72h-531v72q89 5 133 24q48 25 78 54.5t70 82.5
q53 73 168 226t174 233q-28 42 -340 496q-44 65 -68.5 90t-64.5 45q-55 20 -135 25v71h657v-71q-182 -10 -182 -54q0 -37 84 -168q111 -176 182 -280q276 375 276 436q0 26 -27.5 41t-57 18.5t-78.5 6.5v71h528v-71q-89 -6 -131 -25q-34 -17 -59 -38t-39.5 -38.5
t-49.5 -62.5q-136 -176 -309 -414q67 -95 199 -290t168 -247q32 -45 71 -85.5t64 -55.5q26 -14 133 -20v-72z" />
    <glyph glyph-name="Psi" unicode="&#x3a8;" horiz-adv-x="1792" 
d="M1001 209q0 -75 66 -107q17 -7 72.5 -17.5t83.5 -12.5v-72h-654v72q116 6 156 20q63 26 63 107v250q-571 17 -571 481v282q0 70 -57 103q-23 12 -62 21.5t-65 11.5v71h397v-508q0 -362 358 -379v680q0 74 -57 101q-25 11 -64 22.5t-63 12.5v71h580v-71q-67 -4 -125 -25
q-58 -20 -58 -100v-691q85 5 149 28t103.5 57.5t64 83.5t33.5 99.5t9 110.5v508h399v-71q-78 -6 -129 -25q-33 -12 -44 -36.5t-11 -63.5v-293q0 -461 -574 -481v-240z" />
    <glyph glyph-name="Omega" unicode="&#x3a9;" horiz-adv-x="1595" 
d="M98 0l-67 387h67q4 -9 14.5 -34t16 -37t17 -34t20 -34t21.5 -28t26 -24t30 -14t36 -6h229v33q-154 173 -205 243q-122 167 -146 337q-7 50 -7 104q0 111 48.5 213t132.5 178.5t206.5 122t261.5 45.5q143 0 266 -46t206.5 -123.5t131 -178.5t47.5 -211
q0 -103 -21.5 -187.5t-80.5 -175.5t-100 -142t-143 -164q-9 -10 -13 -15v-33h227q21 0 39 6t33.5 21t26.5 27.5t24 37.5t19.5 38t19 42.5t16.5 38.5h70l-70 -387h-590v68q140 200 186 282q103 185 114 376q1 27 1 54q0 56 -4.5 109t-17 112.5t-32 110.5t-51.5 98.5
t-73.5 80.5t-100.5 53t-130 20q-81 0 -147 -26t-109.5 -72.5t-74 -103t-47 -125t-23.5 -130.5t-7 -127q0 -83 15 -160t36 -136t63 -132.5t76.5 -124.5t95.5 -138l15 -21v-68h-594z" />
    <glyph glyph-name="Iotadieresis" unicode="&#x3aa;" horiz-adv-x="798" 
d="M719 0h-639v72q116 6 149 16q64 24 64 98v1028q0 74 -64 99q-83 31 -149 35v71h639v-71q-87 -5 -150 -25t-63 -98v-1026q0 -70 63 -101q18 -7 69.5 -15.5t80.5 -10.5v-72zM733 1731q0 -51 -35 -87t-84 -36t-83.5 36t-34.5 87t34.5 86.5t83.5 35.5q50 0 84.5 -35.5
t34.5 -86.5zM303 1731q0 -51 -35 -87t-84 -36t-83.5 36t-34.5 87t34.5 86.5t83.5 35.5q50 0 84.5 -35.5t34.5 -86.5z" />
    <glyph glyph-name="Upsilondieresis" unicode="&#x3ab;" horiz-adv-x="1259" 
d="M1315 1348q-18 -2 -56.5 -14.5t-52.5 -22.5q-38 -25 -54.5 -41t-51.5 -66q-25 -35 -52 -75.5t-45.5 -70.5t-51 -85.5t-47 -80.5t-56.5 -98.5t-57 -99.5q-39 -70 -50.5 -107.5t-11.5 -107.5v-270q0 -75 66 -107q17 -7 74.5 -17.5t86.5 -12.5v-72h-663v72q123 7 162 20
q61 25 61 107v344q0 33 -65 153q-122 236 -261 482q-32 56 -57 85.5t-59 51.5q-48 29 -117 33v71h604v-71q-8 0 -30.5 -1.5t-35.5 -2t-34 -2.5t-34 -5.5t-26 -8t-19.5 -12t-6.5 -16.5q0 -17 62 -134t182 -336q44 -79 67 -121q324 520 324 565q0 15 -7.5 26.5t-24 19t-31 12
t-41 8t-41.5 5t-44 3.5v71h494v-71zM1012 1731q0 -51 -34 -87t-83 -36t-84 36t-35 87t34.5 86.5t84.5 35.5q49 0 83 -35.5t34 -86.5zM563 1731q0 -51 -35 -87t-84 -36t-82.5 36t-33.5 87t33.5 86.5t82.5 35.5q50 0 84.5 -35.5t34.5 -86.5z" />
    <glyph glyph-name="alphatonos" unicode="&#x3ac;" horiz-adv-x="1224" 
d="M1229 18q-42 -14 -101.5 -26t-93.5 -12q-84 0 -127.5 50.5t-58.5 170.5q-142 -230 -354 -230q-84 0 -161 38t-134.5 105t-92 166t-34.5 214q0 146 63 266t169 187t231 67q117 0 200 -57t123 -162l25 190h186q-12 -135 -86 -518q4 -164 37.5 -255.5t75.5 -117.5
q19 -10 133 -10v-66zM555 936q-122 0 -198 -122.5t-76 -332.5q0 -79 16 -149t48.5 -128t87.5 -92t126 -34q248 0 268 444q-33 414 -272 414zM782 1559v-25l-207 -395h-67l65 420h209z" />
    <glyph glyph-name="epsilontonos" unicode="&#x3ad;" horiz-adv-x="958" 
d="M940 252q-61 -128 -172 -204.5t-258 -76.5q-83 0 -157.5 17.5t-135.5 52t-97 91.5t-36 130q0 52 17.5 95.5t46 71.5t66 48t76 29t77.5 10v10q-248 44 -248 234q0 40 20.5 81.5t63.5 81.5t123.5 65.5t185.5 25.5q178 0 271.5 -64t93.5 -168q0 -53 -24 -88t-77 -35
q-56 0 -88.5 27.5t-32.5 65.5q0 25 21 143q-25 17 -69 30t-93 13q-89 0 -142 -52t-53 -124q0 -106 49 -153.5t164 -47.5h84v-92h-108q-219 0 -219 -193q0 -99 67 -150.5t181 -51.5q66 0 119 17t92 50t66.5 68.5t55.5 85.5zM723 1559v-25l-207 -395h-67l65 420h209z" />
    <glyph glyph-name="etatonos" unicode="&#x3ae;" horiz-adv-x="1169" 
d="M1004 -444h-189v1120q0 102 -50 160.5t-126 58.5q-49 0 -94.5 -16.5t-76.5 -42t-51 -48.5t-30 -43v-745h-186v776q0 73 -56 111q-34 20 -100 24v66l328 20l14 -14v-137h4q35 35 48.5 48t50.5 42.5t65.5 42t73 24t92.5 11.5q139 0 211 -87t72 -239v-1132zM799 1559v-25
l-207 -395h-68l66 420h209z" />
    <glyph glyph-name="iotatonos" unicode="&#x3af;" horiz-adv-x="604" 
d="M598 16q-106 -36 -207 -36q-84 0 -136 52t-52 163l2 583q0 66 -51 105q-18 10 -55 18t-66 10v66l344 20l12 -14v-774q0 -68 40.5 -99.5t102.5 -31.5q30 0 66 4v-66zM506 1559v-25l-207 -395h-68l66 420h209z" />
    <glyph glyph-name="upsilondieresistonos" unicode="&#x3b0;" horiz-adv-x="1107" 
d="M559 -29q-72 0 -134.5 19.5t-114 59t-81 107t-28.5 154.5l2 467q0 109 -99 109q-13 0 -31 -1.5t-38.5 -3.5t-28.5 -3v63q136 57 205 57q105 0 144.5 -56.5t39.5 -174.5l-4 -416q-1 -73 14.5 -125t36.5 -78.5t54 -41.5t57 -18t57 -3q135 0 220 119t85 307
q0 57 -10.5 100.5t-27.5 69t-37.5 45.5t-41 36t-37.5 34t-27.5 45.5t-10.5 64.5q0 47 32.5 72t78.5 25q45 0 80 -23.5t55 -60t32.5 -87.5t16.5 -98t4 -100q0 -136 -30.5 -255t-87.5 -211t-146 -145t-199 -53zM971 1337q0 -51 -33 -87t-82 -36t-83 36t-34 87t34 87t83 36
t82 -36t33 -87zM422 1337q0 -51 -34 -87t-83 -36t-82 36t-33 87t33 87t82 36t83 -36t34 -87zM739 1548v-20l-204 -385h-60l74 405h190z" />
    <glyph glyph-name="alpha" unicode="&#x3b1;" horiz-adv-x="1224" 
d="M1229 18q-42 -14 -101.5 -26t-93.5 -12q-84 0 -127.5 50.5t-58.5 170.5q-142 -230 -354 -230q-84 0 -161 38t-134.5 105t-92 166t-34.5 214q0 146 63 266t169 187t231 67q117 0 200 -57t123 -162l25 190h186q-12 -135 -86 -518q4 -164 37.5 -255.5t75.5 -117.5
q19 -10 133 -10v-66zM555 936q-122 0 -198 -122.5t-76 -332.5q0 -79 16 -149t48.5 -128t87.5 -92t126 -34q248 0 268 444q-33 414 -272 414z" />
    <glyph glyph-name="beta" unicode="&#x3b2;" horiz-adv-x="1157" 
d="M1081 481q0 -112 -38.5 -208t-103.5 -160.5t-151 -101t-180 -36.5q-146 0 -241 68h-9v-487h-186v1448q0 154 25.5 243.5t103.5 171.5q123 131 328 131q109 0 195 -33.5t141 -109t55 -184.5q0 -61 -19.5 -113t-50 -87t-70.5 -61.5t-78.5 -40t-76.5 -18.5l4 -8
q41 -3 85.5 -18t93 -47t86.5 -77.5t62.5 -116t24.5 -155.5zM872 477q0 66 -6.5 117.5t-24.5 99t-47.5 79.5t-77 50.5t-110.5 18.5h-94v94h70q47 0 90.5 15.5t81.5 47.5t61 88.5t23 129.5q0 122 -59 190t-158 68q-120 0 -191.5 -97.5t-71.5 -318.5v-850q24 -62 85.5 -111
t148.5 -49q124 0 202 111t78 317z" />
    <glyph glyph-name="gamma" unicode="&#x3b3;" horiz-adv-x="1052" 
d="M647 -225q0 -73 -8 -119.5t-25 -67t-33.5 -26.5t-41.5 -6q-105 0 -105 131q0 143 49 327q-29 88 -56.5 163.5t-62.5 160.5t-56.5 136t-72.5 166t-77 175q-22 51 -64 72t-106 24v66l297 20l14 -14l41 -100q6 -14 35.5 -81t40.5 -93t38 -90t40 -98t33 -89.5t30.5 -93
t20.5 -80t14 -76.5q28 73 83.5 188t65.5 138q50 110 50 164q0 53 -15.5 122t-15.5 103q0 42 32 79.5t87 37.5q52 0 83 -31t31 -86q0 -13 -1.5 -26.5t-3.5 -25t-6.5 -27.5t-7.5 -25.5t-10.5 -28.5t-11 -27.5t-14 -30.5t-14 -30t-15.5 -33t-16 -33q-26 -51 -87 -162
t-109 -208.5t-81 -186.5q6 -52 14.5 -113.5t12.5 -97t4 -67.5z" />
    <glyph glyph-name="delta" unicode="&#x3b4;" horiz-adv-x="1103" 
d="M825 473q0 354 -254 430q-94 0 -161 -58t-99 -154t-32 -218q0 -117 29.5 -212t92.5 -155.5t150 -60.5q89 0 152.5 60.5t92.5 155.5t29 212zM162 1280q0 48 23.5 93.5t71.5 86.5t132.5 65.5t194.5 24.5q172 0 275.5 -61t103.5 -162q0 -53 -25 -89t-78 -36q-57 0 -89 26.5
t-32 65.5q0 24 4 48t11.5 52.5t9.5 39.5q-55 41 -176 41q-96 0 -162 -54.5t-66 -128.5q0 -79 61 -133t257 -160q107 -58 176.5 -114.5t108.5 -120t54 -129.5t15 -154q0 -142 -59.5 -258.5t-170 -185t-249.5 -68.5q-216 0 -349.5 144.5t-133.5 363.5q0 202 120 329.5
t308 156.5v6q-176 63 -256 135t-80 176z" />
    <glyph glyph-name="epsilon" unicode="&#x3b5;" horiz-adv-x="958" 
d="M940 252q-61 -128 -172 -204.5t-258 -76.5q-83 0 -157.5 17.5t-135.5 52t-97 91.5t-36 130q0 52 17.5 95.5t46 71.5t66 48t76 29t77.5 10v10q-248 44 -248 234q0 40 20.5 81.5t63.5 81.5t123.5 65.5t185.5 25.5q178 0 271.5 -64t93.5 -168q0 -53 -24 -88t-77 -35
q-56 0 -88.5 27.5t-32.5 65.5q0 25 21 143q-25 17 -69 30t-93 13q-89 0 -142 -52t-53 -124q0 -106 49 -153.5t164 -47.5h84v-92h-108q-219 0 -219 -193q0 -99 67 -150.5t181 -51.5q66 0 119 17t92 50t66.5 68.5t55.5 85.5z" />
    <glyph glyph-name="zeta" unicode="&#x3b6;" horiz-adv-x="827" 
d="M895 1354q-614 -439 -614 -885q0 -288 266 -299q28 0 78 -4q124 -3 186.5 -68.5t62.5 -181.5q0 -80 -45.5 -155t-128.5 -123t-182 -48q-105 0 -148.5 26t-43.5 75q0 41 25 64.5t71 23.5q34 0 61.5 -16t57 -42t53.5 -38q26 2 53 12.5t53.5 31t43 56t16.5 80.5
q0 71 -44 105.5t-134 37.5q-7 0 -101 4q-174 5 -284.5 117t-110.5 289q0 98 30.5 194.5t82 182.5t133.5 179.5t168.5 175t204.5 179.5v10l-367 -4q-100 -1 -147.5 30t-47.5 81q0 42 23.5 69t71.5 27q36 0 66 -12t50.5 -29t41 -33.5t47.5 -28.5t59 -12q65 0 128 3t146.5 9.5
t118.5 8.5v-92z" />
    <glyph glyph-name="eta" unicode="&#x3b7;" horiz-adv-x="1169" 
d="M1004 -444h-189v1120q0 102 -50 160.5t-126 58.5q-49 0 -94.5 -16.5t-76.5 -42t-51 -48.5t-30 -43v-745h-186v776q0 73 -56 111q-34 20 -100 24v66l328 20l14 -14v-137h4q35 35 48.5 48t50.5 42.5t65.5 42t73 24t92.5 11.5q139 0 211 -87t72 -239v-1132z" />
    <glyph glyph-name="theta" unicode="&#x3b8;" horiz-adv-x="1138" 
d="M1051 762q0 -319 -105 -529q-129 -264 -377 -264q-128 0 -222.5 69.5t-153.5 194.5q-105 216 -105 527q0 316 102 526q127 264 379 264t379 -264q103 -211 103 -524zM846 831q-1 173 -22.5 300.5t-60 201t-87 108t-107.5 34.5t-107 -34.5t-86 -108t-59 -200.5t-22 -301
h551zM846 709v34h-551v-34q0 -664 274 -664q60 0 108.5 34.5t87.5 109t60 206.5t21 314z" />
    <glyph glyph-name="iota" unicode="&#x3b9;" horiz-adv-x="604" 
d="M598 16q-106 -36 -207 -36q-84 0 -136 52t-52 163l2 583q0 66 -51 105q-18 10 -55 18t-66 10v66l344 20l12 -14v-774q0 -68 40.5 -99.5t102.5 -31.5q30 0 66 4v-66z" />
    <glyph glyph-name="kappa" unicode="&#x3ba;" horiz-adv-x="1097" 
d="M1118 31q-123 -49 -219 -49q-38 0 -60 3.5t-51 17t-55 44.5t-55 82q-45 80 -114.5 211t-78.5 149l-98 -108v-381h-186v776q0 69 -56 111q-37 21 -100 24v66l328 20l14 -14v-504q20 25 82.5 103t91 113t76 90.5t86.5 97.5q62 70 100.5 94t89.5 24q56 0 88.5 -33.5
t32.5 -90.5q0 -44 -31.5 -76.5t-80.5 -32.5q-47 0 -146 43q-25 -18 -45.5 -39t-57.5 -64.5t-65 -74.5q176 -321 230 -404q94 -143 188 -143q36 0 92 8v-63z" />
    <glyph glyph-name="lambda" unicode="&#x3bb;" horiz-adv-x="999" 
d="M336 1321q-17 1 -66.5 2t-66.5 2q-48 1 -76.5 35t-28.5 74q0 47 37.5 81.5t97.5 34.5q83 0 140 -52t96 -169l195 -538q25 -70 63 -178.5t56 -160.5t40.5 -112t38.5 -98q41 -99 70.5 -129.5t93.5 -30.5h45v-64q-120 -38 -174 -38q-23 0 -42.5 6t-33.5 14t-27.5 27
t-21.5 32t-18 42t-15 45.5t-16 52.5q-11 39 -62.5 233t-93.5 336q-45 -88 -155.5 -322.5t-132.5 -279.5q-35 -74 -64 -166h-227l487 987q-58 200 -139 334z" />
    <glyph glyph-name="mu" unicode="&#x3bc;" horiz-adv-x="1185" 
d="M1163 18q-106 -36 -174 -36q-170 0 -192 153h-6q-38 -41 -59 -60.5t-60 -46t-87 -37.5t-110 -11q-58 0 -108.5 22t-77.5 57h-6v-57q0 -73 25.5 -190t25.5 -150q0 -50 -35 -78t-78 -28q-41 0 -69.5 27.5t-28.5 72.5q0 39 19 152t22 139q10 85 10 188v850h191v-676
q0 -101 52.5 -159t127.5 -58q163 0 250 139v754h190v-782q0 -81 55 -109q22 -10 123 -10v-66z" />
    <glyph glyph-name="nu" unicode="&#x3bd;" horiz-adv-x="1026" 
d="M293 997l12 -14q22 -102 43 -156l227 -596q61 123 134 277q49 113 49 166q0 62 -9.5 127t-9.5 96q0 40 34.5 78.5t88.5 38.5q53 0 82 -29.5t29 -83.5q0 -32 -11.5 -68.5t-25 -63.5t-39.5 -76.5t-41 -80.5q-65 -128 -205 -391q-39 -75 -96 -229h-86q-60 153 -150 392
t-167 431q-34 89 -166 96v66z" />
    <glyph glyph-name="xi" unicode="&#x3be;" horiz-adv-x="903" 
d="M860 1454v-113h-129q-56 0 -107.5 -8.5t-103 -29.5t-89 -52.5t-60.5 -83t-23 -116.5q0 -116 84.5 -179t229.5 -63h145v-107h-197q-334 0 -334 -282q0 -128 74 -191t191 -63h133q122 0 187 -67t65 -183q0 -124 -105.5 -225t-253.5 -101q-192 0 -192 101q0 40 25.5 64
t70.5 24q35 0 62.5 -16t57.5 -42t52 -38q61 4 113.5 49t52.5 131q0 143 -180 143h-156q-172 0 -281.5 104t-109.5 261q0 84 34 155.5t90 119.5t122 77.5t135 38.5v6q-150 24 -230.5 98t-80.5 181q0 59 23.5 109t65.5 85.5t92 60.5t111 41v17q-177 -6 -215 -6
q-182 0 -182 100q0 43 21.5 69.5t68.5 26.5q42 0 79 -17.5t60 -38.5t57.5 -38.5t72.5 -17.5q105 0 454 16z" />
    <glyph glyph-name="omicron" unicode="&#x3bf;" horiz-adv-x="1103" 
d="M1032 504q0 -148 -55.5 -268t-168.5 -193.5t-265 -73.5q-94 0 -180 37t-151 103t-103.5 165t-38.5 215q0 233 134 379t353 146q143 0 252 -67t166 -182t57 -261zM825 502q0 86 -14 160.5t-44 138t-84.5 100.5t-127.5 37q-78 0 -134.5 -38.5t-87 -104t-44 -137
t-13.5 -152.5q0 -129 27.5 -230t92 -166t159.5 -65q90 0 152 63.5t90 164.5t28 229z" />
    <glyph glyph-name="pi" unicode="&#x3c0;" horiz-adv-x="1230" 
d="M299 174q46 98 76.5 245.5t30.5 307.5q0 27 -5 135h-61q-50 0 -85 -17t-53.5 -48t-27.5 -62.5t-12 -72.5h-64q-8 74 -8 116q0 75 60.5 141t166.5 66h859v-123h-226v-653q0 -68 41.5 -99.5t104.5 -31.5q31 0 67 4v-66q-106 -36 -211 -36q-85 0 -137.5 51.5t-52.5 163.5
v667h-262q2 -45 2 -143q0 -299 -88 -524q-91 -218 -228 -218q-56 0 -85 35.5t-29 83.5q0 41 27.5 74t76.5 33q14 0 33 -3.5t30.5 -7t33.5 -10.5t26 -8z" />
    <glyph glyph-name="rho" unicode="&#x3c1;" horiz-adv-x="1142" 
d="M1067 506q0 -152 -65.5 -275.5t-171 -190.5t-226.5 -67q-155 0 -246 68h-8v-485h-186v991q0 211 119 338q120 129 340 129q196 0 320 -135t124 -373zM860 508q0 108 -16.5 188.5t-41.5 125.5t-61.5 71.5t-67.5 34.5t-69 8q-103 0 -162 -62q-46 -46 -67.5 -113t-22.5 -183
q-4 -136 -4 -181q0 -37 1 -95t1 -93q22 -62 86.5 -112t153.5 -50q120 0 195 123.5t75 337.5z" />
    <glyph glyph-name="sigma1" unicode="&#x3c2;" horiz-adv-x="913" 
d="M530 938q-36 0 -71.5 -12t-72.5 -41t-65.5 -73t-46.5 -114t-18 -157q0 -269 231 -332q46 -14 111 -23t100 -18q92 -23 138.5 -85t46.5 -155q0 -136 -106.5 -236t-264.5 -100q-105 0 -155 28t-50 77q0 86 96 86q34 0 63.5 -16.5t63 -44t56.5 -39.5q26 2 55 14t57.5 33.5
t47 59t18.5 83.5q0 52 -33 85t-88 44q-25 6 -107 18t-149 33q-140 45 -229.5 160.5t-89.5 278.5q0 105 28.5 193t75.5 147.5t108 101.5t124 61t126 19q156 0 253.5 -64t97.5 -168q0 -53 -24.5 -88t-76.5 -35q-57 0 -89 27.5t-32 65.5q0 25 21 143q-62 43 -150 43z" />
    <glyph glyph-name="sigma" unicode="&#x3c3;" horiz-adv-x="1173" 
d="M1153 985v-123h-276v-4q77 -82 116 -167t39 -204q0 -103 -32.5 -196t-92.5 -165t-153.5 -114.5t-206.5 -42.5q-94 0 -180 33.5t-152 94.5t-105.5 155.5t-39.5 208.5q0 241 140.5 382.5t387.5 141.5h555zM825 498q0 214 -84 364h-143q-167 0 -244.5 -106t-77.5 -295
q0 -184 74 -300t205 -116q89 0 151.5 63.5t90.5 163.5t28 226z" />
    <glyph glyph-name="tau" unicode="&#x3c4;" horiz-adv-x="923" 
d="M903 985v-123h-340v-528q0 -36 0.5 -56t2.5 -47t6 -41.5t11 -32.5t17.5 -26.5t26 -17.5t36.5 -12t48 -3q26 0 68 6t63 13v-74q-141 -63 -254 -63q-114 0 -162.5 59t-48.5 178v645h-90q-50 0 -85 -16.5t-53.5 -47.5t-27.5 -62.5t-12 -73.5h-64q-1 13 -2.5 35t-2.5 41
t-1 40q0 78 59 142.5t166 64.5h639z" />
    <glyph glyph-name="upsilon" unicode="&#x3c5;" horiz-adv-x="1107" 
d="M559 -29q-72 0 -134.5 19.5t-114 59t-81 107t-28.5 154.5l2 467q0 109 -99 109q-13 0 -31 -1.5t-38.5 -3.5t-28.5 -3v63q136 57 205 57q105 0 144.5 -56.5t39.5 -174.5l-4 -416q-1 -73 14.5 -125t36.5 -78.5t54 -41.5t57 -18t57 -3q135 0 220 119t85 307
q0 57 -10.5 100.5t-27.5 69t-37.5 45.5t-41 36t-37.5 34t-27.5 45.5t-10.5 64.5q0 47 32.5 72t78.5 25q45 0 80 -23.5t55 -60t32.5 -87.5t16.5 -98t4 -100q0 -136 -30.5 -255t-87.5 -211t-146 -145t-199 -53z" />
    <glyph glyph-name="phi" unicode="&#x3c6;" horiz-adv-x="1425" 
d="M1356 524q0 -127 -47.5 -232.5t-126.5 -173t-176 -105.5t-201 -42v-415h-187v415q-129 5 -233 46.5t-172.5 110.5t-105.5 161t-37 200q0 200 106.5 333.5t317.5 185.5l14 -82q-124 -45 -176.5 -155.5t-52.5 -281.5q0 -198 91 -318t248 -124v725q0 64 26 112.5t69.5 75.5
t93.5 40.5t106 13.5q60 0 120.5 -18t119 -57t103.5 -95t72.5 -139t27.5 -181zM1147 532q0 196 -66 300t-161 104q-45 0 -80 -30t-35 -87v-772q167 12 254.5 141t87.5 344z" />
    <glyph glyph-name="chi" unicode="&#x3c7;" horiz-adv-x="1036" 
d="M612 256q151 -315 230 -446q59 -98 98 -125t107 -27h51v-64q-112 -38 -183 -38q-76 0 -117 47.5t-89 160.5l-156 388q-160 -294 -227 -428q-51 -96 -80 -168h-226l439 759q-146 303 -244 457q-41 70 -89.5 94.5t-129.5 24.5v63q124 45 184 45q31 0 56.5 -10.5t43 -26.5
t34 -45t28 -56t28.5 -68q3 -9 5 -13q4 -10 50 -129.5t91 -230.5q45 82 118.5 225t90.5 174q36 62 82 166h225z" />
    <glyph glyph-name="psi" unicode="&#x3c8;" horiz-adv-x="1495" 
d="M1292 532q0 53 -9.5 93.5t-24.5 65t-33.5 43.5t-37 33.5t-33.5 30.5t-24.5 39.5t-9.5 55.5q0 54 32 82.5t83 28.5q50 0 86 -29t54 -79t26 -103t8 -115q0 -107 -18 -203t-57.5 -183t-99.5 -153t-148.5 -110.5t-198.5 -57.5v-415h-187v415q-63 2 -123 12t-131.5 38
t-124 70.5t-88 116.5t-34.5 169l4 401q0 109 -101 109q-4 0 -96 -8v63q131 57 203 57q105 0 145.5 -57t38.5 -174l-2 -401q-1 -74 24 -132t60.5 -90t81.5 -53.5t79.5 -28t63.5 -8.5v930h187v-930q126 10 220 80.5t139.5 174t45.5 222.5z" />
    <glyph glyph-name="omega" unicode="&#x3c9;" horiz-adv-x="1464" 
d="M934 997q88 -7 167 -40.5t145.5 -94.5t105.5 -160.5t39 -226.5q0 -218 -107.5 -362t-279.5 -144q-166 0 -273 168q-102 -168 -270 -168q-172 0 -279.5 144t-107.5 362q0 126 39 225.5t105 160.5t145 95t167 41l17 -79q-268 -34 -268 -476q0 -77 10.5 -144.5t32.5 -124
t60.5 -89.5t90.5 -33q85 0 125.5 55t40.5 181v368h186v-368q0 -126 40 -181t124 -55q52 0 91.5 33t62 89.5t33 124t10.5 144.5q0 441 -268 476z" />
    <glyph glyph-name="iotadieresis" unicode="&#x3ca;" horiz-adv-x="604" 
d="M598 16q-106 -36 -207 -36q-84 0 -136 52t-52 163l2 583q0 66 -51 105q-18 10 -55 18t-66 10v66l344 20l12 -14v-774q0 -68 40.5 -99.5t102.5 -31.5q30 0 66 4v-66zM604 1364q0 -51 -35 -87t-84 -36t-83.5 36t-34.5 87t34.5 87t83.5 36t84 -36t35 -87zM174 1364
q0 -51 -35 -87t-84 -36t-83.5 36t-34.5 87t34.5 87t83.5 36t84 -36t35 -87z" />
    <glyph glyph-name="upsilondieresis" unicode="&#x3cb;" horiz-adv-x="1107" 
d="M559 -29q-72 0 -134.5 19.5t-114 59t-81 107t-28.5 154.5l2 467q0 109 -99 109q-13 0 -31 -1.5t-38.5 -3.5t-28.5 -3v63q136 57 205 57q105 0 144.5 -56.5t39.5 -174.5l-4 -416q-1 -73 14.5 -125t36.5 -78.5t54 -41.5t57 -18t57 -3q135 0 220 119t85 307
q0 57 -10.5 100.5t-27.5 69t-37.5 45.5t-41 36t-37.5 34t-27.5 45.5t-10.5 64.5q0 47 32.5 72t78.5 25q45 0 80 -23.5t55 -60t32.5 -87.5t16.5 -98t4 -100q0 -136 -30.5 -255t-87.5 -211t-146 -145t-199 -53zM893 1364q0 -51 -35 -87t-84 -36t-84 36t-35 87t35 87t84 36
t84 -36t35 -87zM463 1364q0 -51 -35 -87t-84 -36t-84 36t-35 87t35 87t84 36t84 -36t35 -87z" />
    </font>
</defs>
</svg>
