<?xml version="1.0" standalone="no"?>
<!DOCTYPE svg PUBLIC "-//W3C//DTD SVG 1.1//EN" "http://www.w3.org/Graphics/SVG/1.1/DTD/svg11.dtd" >
<svg xmlns="http://www.w3.org/2000/svg" xmlns:xlink="http://www.w3.org/1999/xlink" version="1.1">
<metadata>
Created by FontForge 20201107 at Fri May 24 21:06:21 2024
 By 
Copyright 2016 The Inter Project Authors (https://github.com/rsms/inter)
</metadata>
<defs>
<font id="Inter28pt-Medium" horiz-adv-x="1165" >
  <font-face 
    font-family="Inter 28pt Medium"
    font-weight="500"
    font-stretch="normal"
    units-per-em="2048"
    panose-1="2 0 5 3 0 0 0 2 0 4"
    ascent="1638"
    descent="-410"
    x-height="1070"
    cap-height="1490"
    bbox="-1568.02 -674 5267 2285"
    underline-thickness="160"
    underline-position="-300"
    unicode-range="U+0020-1F852"
  />
<missing-glyph horiz-adv-x="1344" 
d="M1016 -416h-688v2272h688v-2272zM512 -192v-64h320v64h-215l215 127v65h-320v-64h216zM512 320v-256h320v256h-320zM768 128h-192v128h192v-128zM512 704v-256h320v256h-192v-128h64v64h64v-128h-192v192h-64zM512 832v-64h320v224h-64v-160h-256zM512 960v-64h192v160
h128v64h-320v-64h128v-96h-128zM640 1248h-64v96h64v-96zM512 1408v-224h320v64h-128v160h-192zM512 1536v-64h320v64h-144v96h144v64h-320v-64h112v-96h-112z" />
    <glyph glyph-name=".notdef" horiz-adv-x="1344" 
d="M1016 -416h-688v2272h688v-2272zM512 -192v-64h320v64h-215l215 127v65h-320v-64h216zM512 320v-256h320v256h-320zM768 128h-192v128h192v-128zM512 704v-256h320v256h-192v-128h64v64h64v-128h-192v192h-64zM512 832v-64h320v224h-64v-160h-256zM512 960v-64h192v160
h128v64h-320v-64h128v-96h-128zM640 1248h-64v96h64v-96zM512 1408v-224h320v64h-128v160h-192zM512 1536v-64h320v64h-144v96h144v64h-320v-64h112v-96h-112z" />
    <glyph glyph-name=".null" horiz-adv-x="435" 
 />
    <glyph glyph-name="nonmarkingreturn" horiz-adv-x="682" 
 />
    <glyph glyph-name="space" unicode=" " horiz-adv-x="500" 
 />
    <glyph glyph-name="exclam" unicode="!" horiz-adv-x="503" 
d="M152 427l-17 1063h232l-17 -1063h-198zM251 -17q-59 0 -100.5 41t-41.5 100q0 60 41.5 101t100.5 41q60 0 101 -41t41 -101q0 -59 -41 -100t-101 -41z" />
    <glyph glyph-name="quotedbl" unicode="&#x22;" horiz-adv-x="904" 
d="M198 952l-23 538h206l-23 -538h-160zM546 952l-23 538h206l-23 -538h-160z" />
    <glyph glyph-name="numbersign" unicode="#" horiz-adv-x="1259" 
d="M682 0l246 1490h172l-245 -1490h-173zM7 400l29 172h1128l-28 -172h-1129zM160 0l244 1490h172l-244 -1490h-172zM95 916l29 174h1126l-27 -174h-1128z" />
    <glyph glyph-name="dollar" unicode="$" horiz-adv-x="1293" 
d="M568 -219v1928h159v-1928h-159zM655 -24q-176 0 -304 59.5t-197.5 169.5t-71.5 263h223q2 -94 45 -161t121.5 -101.5t183.5 -34.5q100 0 174.5 29t116.5 83t42 126q0 59 -30.5 101.5t-93 73.5t-161.5 55l-166 40q-216 53 -319.5 149.5t-103.5 250.5q0 131 67 228.5
t186.5 151.5t277.5 54q159 0 276.5 -56t183.5 -158.5t70 -242.5h-216q-9 123 -94.5 192.5t-223.5 69.5q-89 0 -158 -29t-107.5 -80.5t-38.5 -117.5q0 -58 32 -98.5t94.5 -70t155.5 -51.5l156 -39q103 -24 184 -60.5t137 -86.5t85.5 -116t29.5 -151q0 -132 -68 -231.5
t-193 -155t-295 -55.5z" />
    <glyph glyph-name="percent" unicode="%" horiz-adv-x="1846" 
d="M467 792q-97 0 -168 44.5t-110.5 121.5t-39.5 174v41q0 98 39.5 175t111 121.5t167.5 44.5q98 0 168.5 -44.5t109.5 -121.5t39 -175v-41q0 -97 -39 -174t-110 -121.5t-168 -44.5zM467 940q70 0 107.5 52t37.5 140v41q0 88 -37.5 141t-107.5 53q-69 0 -107.5 -53
t-38.5 -141v-41q0 -88 38 -140t108 -52zM1380 -25q-97 0 -168.5 44.5t-110.5 121.5t-39 175v40q0 98 39.5 175t110.5 121.5t168 44.5t168 -44.5t109.5 -121.5t38.5 -175v-40q0 -98 -38.5 -175t-109.5 -121.5t-168 -44.5zM1380 123q69 0 106.5 52t37.5 141v40q0 89 -37 141.5
t-107 52.5t-108 -52.5t-38 -141.5v-40q0 -89 38 -141t108 -52zM314 0l1024 1490h187l-1024 -1490h-187z" />
    <glyph glyph-name="ampersand" unicode="&#x26;" horiz-adv-x="1287" 
d="M556 -21q-146 0 -254 54t-168 147.5t-60 214.5q0 81 30.5 145t97 128t173.5 142l251 179q37 27 63 56t40 61t14 66q0 64 -47 109t-123 45q-50 0 -89.5 -22t-62.5 -60.5t-23 -90.5q0 -45 20 -88.5t63.5 -99t112.5 -139.5l691 -826h-244l-572 672q-95 115 -155.5 194.5
t-89.5 147t-29 142.5q0 103 47.5 182t132.5 123t197 44t194.5 -42t128.5 -115.5t46 -167.5q0 -64 -22.5 -122t-66.5 -110.5t-109 -100.5l-299 -221q-81 -60 -118 -112.5t-37 -116.5q0 -65 35.5 -119t97.5 -86t138 -32q86 0 165 40.5t141.5 111.5t99 164t36.5 199h195
q0 -110 -24 -203.5t-68 -167.5t-105 -128l-47 -46q-72 -72 -178.5 -111.5t-218.5 -39.5z" />
    <glyph glyph-name="quotesingle" unicode="'" horiz-adv-x="556" 
d="M198 952l-23 538h206l-23 -538h-160z" />
    <glyph glyph-name="parenleft" unicode="(" horiz-adv-x="661" 
d="M153 595q0 170 31 350.5t86 343.5t126 280h206q-71 -147 -123.5 -314t-81 -336t-28.5 -324q0 -138 25 -277.5t76.5 -289t131.5 -319.5h-206q-119 203 -181 429t-62 457z" />
    <glyph glyph-name="parenright" unicode=")" horiz-adv-x="661" 
d="M59 -291q81 171 132 320.5t76.5 288.5t25.5 277q0 155 -28.5 324t-81 336t-124.5 314h206q72 -117 126.5 -280t86 -343.5t31.5 -350.5q0 -232 -62 -458t-182 -428h-206z" />
    <glyph glyph-name="asterisk" unicode="*" horiz-adv-x="1019" 
d="M431 652l14 308l-259 -168l-79 138l274 140l-274 140l79 140l259 -168l-14 308h157l-14 -308l259 168l79 -140l-274 -140l274 -140l-79 -138l-259 168l14 -308h-157z" />
    <glyph glyph-name="plus" unicode="+" horiz-adv-x="1318" 
d="M563 87v982h193v-982h-193zM168 486v185h982v-185h-982z" />
    <glyph glyph-name="comma" unicode="," horiz-adv-x="501" 
d="M69 -309l84 527h221l-152 -527h-153z" />
    <glyph glyph-name="hyphen" unicode="-" horiz-adv-x="902" 
d="M781 700v-186h-660v186h660z" />
    <glyph glyph-name="period" unicode="." horiz-adv-x="501" 
d="M251 -17q-59 0 -100.5 41.5t-41.5 100.5t41.5 100t100.5 41t100 -41t41 -100t-41 -100.5t-100 -41.5z" />
    <glyph glyph-name="slash" unicode="/" horiz-adv-x="707" 
d="M689 1560l-480 -1784h-192l480 1784h192z" />
    <glyph glyph-name="zero" unicode="0" horiz-adv-x="1290" 
d="M645 -23q-173 0 -297.5 93.5t-192 265t-67.5 408.5q0 238 67.5 410t192.5 265.5t297 93.5q173 0 298 -93.5t192 -265.5t67 -410q0 -237 -67 -409t-192 -265t-298 -93zM645 167q107 0 184 69.5t118.5 198.5t41.5 309q0 181 -41.5 310.5t-118.5 199t-184 69.5t-184 -69.5
t-118.5 -199t-41.5 -310.5q0 -180 41.5 -309t118.5 -198.5t184 -69.5z" />
    <glyph glyph-name="one" unicode="1" horiz-adv-x="781" 
d="M638 1490v-1490h-217v1274h-3l-362 -242v216l361 242h221z" />
    <glyph glyph-name="two" unicode="2" horiz-adv-x="1194" 
d="M97 0v173l529 489q83 78 139 139.5t84 121.5t28 132q0 83 -34.5 143.5t-96.5 93t-148 32.5q-91 0 -156 -38.5t-100 -108.5t-35 -166h-209q0 149 62.5 262.5t175.5 176.5t263 63q144 0 254 -57t172.5 -158t62.5 -233q0 -95 -35 -178.5t-108 -170t-188 -193.5l-356 -328v-5
h699v-190h-1003z" />
    <glyph glyph-name="three" unicode="3" horiz-adv-x="1250" 
d="M630 -23q-162 0 -282 62t-186.5 170.5t-67.5 247.5h222q1 -92 39 -157.5t107.5 -100t164.5 -34.5q92 0 163 31.5t111 90.5t40 137q0 74 -42 129.5t-118 86.5t-179 31h-125v183h125q89 0 156 28t104 79.5t37 120.5q0 76 -34 131t-96 85t-146 30t-147.5 -32t-99.5 -91
t-37 -142h-214q1 132 65 233.5t176.5 159t258.5 57.5q142 0 252.5 -54t173.5 -147.5t63 -213.5q0 -119 -73 -205.5t-197 -119.5v-5q99 -15 170 -64.5t109.5 -123t38.5 -162.5q0 -129 -69 -228.5t-189 -156t-274 -56.5z" />
    <glyph glyph-name="four" unicode="4" horiz-adv-x="1303" 
d="M67 334v180l683 976h139v-241h-81l-505 -722v-5h934v-188h-1170zM811 0v388l1 83v1019h212v-1490h-213z" />
    <glyph glyph-name="five" unicode="5" horiz-adv-x="1205" 
d="M602 -21q-147 0 -262 58.5t-183 160t-74 231.5h217q7 -75 47.5 -134.5t106.5 -93.5t148 -34q89 0 156.5 41.5t105.5 113.5t38 165q0 94 -37 166.5t-103.5 114t-153.5 41.5q-104 0 -183 -41.5t-112 -118.5l-210 7l57 834h876v-191h-679l-36 -434h3q62 64 143 97t178 33
q102 0 188.5 -37t150 -105t98.5 -160t35 -202q0 -149 -65 -264.5t-181 -181.5t-269 -66z" />
    <glyph glyph-name="six" unicode="6" horiz-adv-x="1235" 
d="M630 -23q-122 0 -222 45t-171.5 134.5t-110 223t-38.5 311.5q0 189 35.5 340.5t106 259t175.5 165t245 57.5q135 0 238.5 -52t167 -143.5t77.5 -211.5h-215q-21 99 -88 158.5t-175 59.5q-119 0 -198 -67.5t-118 -188.5t-39 -281h4q35 59 91 101t127 64.5t150 22.5
q136 0 243 -64t169.5 -175.5t62.5 -254.5q0 -147 -66 -261t-182 -178.5t-269 -64.5zM629 165q85 0 153.5 42t108.5 114t40 160q0 87 -39 157.5t-106 112t-152 41.5q-64 0 -119 -24.5t-97 -67.5t-65.5 -99.5t-23.5 -121.5q0 -86 40 -157.5t108.5 -114t151.5 -42.5z" />
    <glyph glyph-name="seven" unicode="7" horiz-adv-x="1099" 
d="M160 0l655 1294v3h-757v193h984v-199l-650 -1291h-232z" />
    <glyph glyph-name="eight" unicode="8" horiz-adv-x="1231" 
d="M615 -23q-155 0 -274 54t-186 149t-67 217q0 99 42.5 180.5t116.5 134t167 65.5v1q-122 22 -197.5 113t-75.5 222q0 115 61.5 206t168.5 142.5t244 51.5t244 -51.5t168 -142t61 -206.5q0 -130 -75.5 -221.5t-195.5 -113.5v-1q93 -13 166.5 -66t116.5 -134t43 -180
q0 -122 -67.5 -217t-186.5 -149t-274 -54zM615 159q92 0 160 31t106 88t38 132q0 78 -39 138.5t-108 95t-157 34.5q-89 0 -157.5 -34.5t-108 -95t-39.5 -138.5q0 -75 38 -132t106.5 -88t160.5 -31zM615 857q76 0 134 29.5t90.5 83.5t32.5 125t-32 123.5t-90 82t-135 29.5
t-135 -29.5t-90.5 -82t-32.5 -123.5t32.5 -124.5t91 -83.5t134.5 -30z" />
    <glyph glyph-name="nine" unicode="9" horiz-adv-x="1235" 
d="M582 -23q-135 0 -239 51.5t-168 144t-79 212.5h216q20 -99 88.5 -159t176.5 -60q119 0 197.5 67.5t118.5 189t40 281.5h-4q-36 -58 -91.5 -99.5t-125 -63t-149.5 -21.5q-135 0 -243 63.5t-170 175t-62 252.5q0 148 65.5 261.5t182.5 177.5t269 63q123 0 222 -45
t170.5 -134t110.5 -223t39 -312q0 -189 -36 -340.5t-107 -259.5t-176.5 -165t-245.5 -57zM600 704q64 0 119.5 24t97 66.5t65.5 98.5t24 121q0 87 -40 157t-108 112t-153 42q-84 0 -152.5 -41.5t-109 -112.5t-40.5 -159q0 -87 39.5 -157t106.5 -110.5t151 -40.5z" />
    <glyph glyph-name="colon" unicode=":" horiz-adv-x="501" 
d="M251 -17q-59 0 -100.5 41.5t-41.5 100.5t41.5 100t100.5 41t100 -41t41 -100t-41 -100.5t-100 -41.5zM251 746q-59 0 -100.5 41.5t-41.5 100.5t41.5 100t100.5 41t100 -41t41 -100t-41 -100.5t-100 -41.5z" />
    <glyph glyph-name="semicolon" unicode=";" horiz-adv-x="511" 
d="M69 -309l84 527h221l-152 -527h-153zM261 746q-59 0 -100.5 41.5t-41.5 100.5t41.5 100t100.5 41t100 -41t41 -100t-41 -100.5t-100 -41.5z" />
    <glyph glyph-name="less" unicode="&#x3c;" horiz-adv-x="1318" 
d="M154 506v160l965 470v-222l-714 -325l7 13v-31l-7 12l714 -326v-220z" />
    <glyph glyph-name="equal" unicode="=" horiz-adv-x="1318" 
d="M194 715v189h929v-189h-929zM194 268v190h929v-190h-929z" />
    <glyph glyph-name="greater" unicode="&#x3e;" horiz-adv-x="1318" 
d="M1164 506l-965 -469v220l715 326l-8 -12v31l8 -13l-715 325v222l965 -470v-160z" />
    <glyph glyph-name="question" unicode="?" horiz-adv-x="1098" 
d="M412 422v83q0 113 28 175.5t79.5 103.5t121.5 87q79 54 115 114.5t36 127.5q0 66 -30.5 113.5t-85.5 74t-130 26.5q-78 0 -137.5 -32t-91.5 -91.5t-33 -145.5h-216q1 138 62 240t168.5 158.5t248.5 56.5q136 0 239.5 -50t162 -139t58.5 -204q0 -113 -54 -203.5
t-156 -158.5q-64 -43 -104 -78t-57.5 -77.5t-17.5 -111.5v-69h-206zM516 -17q-59 0 -100.5 41t-41.5 100q0 60 41.5 101t100.5 41q60 0 101 -41t41 -101q0 -59 -41 -100t-101 -41z" />
    <glyph glyph-name="at" unicode="@" horiz-adv-x="2016" 
d="M1033 -411q-214 0 -388 67t-298.5 190t-191.5 296t-67 384q0 210 67 382t191.5 296.5t297 192t384.5 67.5q204 0 369.5 -64.5t284 -183.5t182.5 -281.5t64 -358.5q0 -123 -24 -223.5t-73.5 -173.5t-124 -112t-175.5 -39q-87 0 -143.5 27t-86.5 68t-37 81h-3
q-26 -69 -98 -120t-190 -51q-133 0 -229 67t-147 180t-51 249q0 146 58.5 256t157 171.5t218.5 61.5q100 0 167.5 -38t96.5 -84h3v99h176v-659q0 -67 29.5 -102.5t86.5 -35.5q66 0 110 42.5t66 125t22 204.5q0 163 -48 295t-140 226t-223 144.5t-297 50.5q-172 0 -310 -53
t-234.5 -152t-147.5 -239.5t-51 -315.5q0 -176 51 -316.5t148.5 -238.5t236 -150.5t313.5 -52.5q92 0 170.5 14t140.5 32.5t102 33.5l61 -167q-43 -18 -114.5 -39.5t-163.5 -37t-198 -15.5zM994 209q84 0 140.5 37t85 109t28.5 175q0 105 -29 174.5t-85 104.5t-139 35
q-82 0 -140 -37.5t-88.5 -107.5t-30.5 -169t29.5 -171t87 -111t141.5 -39z" />
    <glyph glyph-name="A" unicode="A" horiz-adv-x="1395" 
d="M24 0l539 1490h270l538 -1490h-243l-287 838q-35 105 -75.5 234.5t-97.5 318.5h59q-56 -190 -96.5 -319.5t-75.5 -233.5l-292 -838h-239zM321 388v189h753v-189h-753z" />
    <glyph glyph-name="B" unicode="B" horiz-adv-x="1319" 
d="M142 0v1490h556q155 0 262.5 -49t164 -137t56.5 -205q0 -88 -31 -152t-87.5 -106t-132.5 -65v-4q85 -11 155 -54t112.5 -119t42.5 -184q0 -123 -58 -217t-174 -146t-292 -52h-574zM364 189h336q154 0 233.5 60t79.5 169q0 75 -36 130.5t-104 86.5t-165 31h-344v-477z
M364 847h327q82 0 142.5 28t93 79.5t32.5 121.5q0 102 -69.5 163.5t-197.5 61.5h-328v-454z" />
    <glyph glyph-name="C" unicode="C" horiz-adv-x="1486" 
d="M778 -23q-203 0 -358.5 95.5t-243.5 268.5t-88 403q0 232 87.5 405t243.5 268.5t359 95.5q121 0 226 -35.5t188 -103.5t137 -163t74 -214h-227q-16 75 -52 133t-87.5 98.5t-117 60.5t-139.5 20q-143 0 -248 -69.5t-162.5 -196.5t-57.5 -299q0 -171 57.5 -297.5
t162.5 -196t248 -69.5q74 0 139 20.5t117 60t88 97.5t53 133h226q-19 -117 -73 -212t-136.5 -163t-188 -104t-227.5 -36z" />
    <glyph glyph-name="D" unicode="D" horiz-adv-x="1433" 
d="M625 0h-368v195h355q172 0 285 65t169 189t56 298q0 173 -55.5 295.5t-165.5 187.5t-276 65h-375v195h390q219 0 377 -89.5t243 -256t85 -397.5q0 -232 -85.5 -399.5t-246 -257.5t-388.5 -90zM366 1490v-1490h-224v1490h224z" />
    <glyph glyph-name="E" unicode="E" horiz-adv-x="1213" 
d="M142 0v1490h988v-195h-764v-441h708v-193h-708v-466h766v-195h-990z" />
    <glyph glyph-name="F" unicode="F" 
d="M142 0v1490h961v-195h-737v-454h678v-193h-678v-648h-224z" />
    <glyph glyph-name="G" unicode="G" horiz-adv-x="1507" 
d="M776 -23q-203 0 -357.5 96.5t-242.5 269.5t-88 401q0 232 88.5 405t243.5 268.5t352 95.5q122 0 228.5 -36.5t190 -104.5t138.5 -160.5t72 -205.5h-227q-17 68 -52.5 124t-87.5 96t-117.5 61.5t-141.5 21.5q-138 0 -242 -69.5t-162.5 -196.5t-58.5 -299
q0 -171 58.5 -297.5t163.5 -196t244 -69.5q118 0 211.5 50t147.5 140t54 210l63 -5h-430v185h587v-170q0 -180 -83 -318.5t-226.5 -217t-325.5 -78.5z" />
    <glyph glyph-name="H" unicode="H" horiz-adv-x="1472" 
d="M142 0v1490h224v-631h740v631h224v-1490h-224v664h-740v-664h-224z" />
    <glyph glyph-name="I" unicode="I" horiz-adv-x="508" 
d="M366 1490v-1490h-224v1490h224z" />
    <glyph glyph-name="J" unicode="J" horiz-adv-x="1128" 
d="M531 -21q-205 0 -331 118t-126 336v86h219v-87q0 -127 65 -193t172 -66q108 0 172.5 66t64.5 193v1058h224v-1058q0 -218 -126.5 -335.5t-333.5 -117.5z" />
    <glyph glyph-name="K" unicode="K" horiz-adv-x="1350" 
d="M299 390v271q51 63 102 123t103.5 119.5t106.5 119.5l422 467h284l-634 -695l-14 1zM142 0v1490h224v-482l-1 -337l1 -108v-563h-224zM1060 0l-512 734l137 173l637 -907h-262z" />
    <glyph glyph-name="L" unicode="L" horiz-adv-x="1121" 
d="M142 0v1490h224v-1295h698v-195h-922z" />
    <glyph glyph-name="M" unicode="M" horiz-adv-x="1801" 
d="M142 0v1490h318l332 -869q14 -37 32.5 -92t38.5 -116t37.5 -117t28.5 -94h-52q11 38 28.5 93.5t37 116.5t38 116.5t31.5 92.5l327 869h319v-1490h-220v810q0 48 1 108.5t2.5 127t3.5 134t2 130.5h27l-48 -146t-46 -139.5t-41 -121.5t-34 -93l-312 -810h-185l-315 810
q-15 38 -34 92.5t-42 121t-47.5 139.5t-50.5 147h34q1 -62 2.5 -129t3 -133.5t2.5 -127.5t1 -110v-810h-220z" />
    <glyph glyph-name="N" unicode="N" horiz-adv-x="1483" 
d="M142 0v1490h250l567 -898q22 -34 54.5 -89.5t69 -121t70.5 -131.5l-24 -39q-4 64 -7 142t-4 148.5t-1 110.5v878h224v-1490h-251l-508 802q-27 44 -65.5 108t-88 149.5t-109.5 189.5l33 34q6 -113 9 -206.5t4.5 -163t1.5 -109.5v-804h-225z" />
    <glyph glyph-name="O" unicode="O" horiz-adv-x="1541" 
d="M771 -23q-197 0 -351.5 96t-243 268.5t-88.5 402.5q0 232 88.5 404.5t243 268.5t351.5 96t351 -96t242.5 -268.5t88.5 -404.5q0 -230 -88.5 -402.5t-242.5 -268.5t-351 -96zM771 181q128 0 232 65t165 191t61 307q0 182 -61 308.5t-165 191.5t-232 65t-232 -65
t-165.5 -191.5t-61.5 -308.5q0 -181 61.5 -307t165.5 -191t232 -65z" />
    <glyph glyph-name="P" unicode="P" horiz-adv-x="1277" 
d="M142 0v1490h548q163 0 279 -58t178 -163.5t62 -247.5q0 -141 -63.5 -246.5t-181 -164t-279.5 -58.5h-415v193h407q99 0 168 34t105.5 96.5t36.5 145.5q0 85 -36.5 146.5t-105.5 95.5t-169 34h-310v-1297h-224z" />
    <glyph glyph-name="Q" unicode="Q" horiz-adv-x="1542" 
d="M684 481h219l156 -204l69 -87l250 -325h-226l-164 216l-59 77zM771 -23q-197 0 -351.5 96t-243 268.5t-88.5 402.5q0 232 88.5 404.5t243 268.5t351.5 96t351 -96t242.5 -268.5t88.5 -404.5q0 -230 -88.5 -402.5t-242.5 -268.5t-351 -96zM771 181q128 0 232 65t165 191
t61 307q0 182 -61 308.5t-165 191.5t-232 65t-232 -65t-165.5 -191.5t-61.5 -308.5q0 -181 61.5 -307t165.5 -191t232 -65z" />
    <glyph glyph-name="R" unicode="R" horiz-adv-x="1312" 
d="M142 0v1490h560q163 0 279 -57t178 -162t62 -246t-65 -245t-184 -160.5t-282 -56.5h-419v191h419q99 0 168 33t105 93.5t36 144.5t-36.5 145t-105.5 94t-169 33h-322v-1297h-224zM999 0l-355 672h246l361 -672h-252z" />
    <glyph glyph-name="S" unicode="S" horiz-adv-x="1293" 
d="M655 -24q-176 0 -304 59.5t-197.5 169.5t-71.5 263h223q2 -94 45 -161t121.5 -101.5t183.5 -34.5q100 0 174.5 29t116.5 83t42 126q0 59 -30.5 101.5t-93 73.5t-161.5 55l-166 40q-216 53 -319.5 149.5t-103.5 250.5q0 131 67 228.5t186.5 151.5t277.5 54
q159 0 276.5 -56t183.5 -158.5t70 -242.5h-216q-9 123 -94.5 192.5t-223.5 69.5q-89 0 -158 -29t-107.5 -80.5t-38.5 -117.5q0 -58 32 -98.5t94.5 -70t155.5 -51.5l156 -39q103 -24 184 -60.5t137 -86.5t85.5 -116t29.5 -151q0 -132 -68 -231.5t-193 -155t-295 -55.5z" />
    <glyph glyph-name="T" unicode="T" horiz-adv-x="1283" 
d="M58 1295v195h1167v-195h-471v-1295h-224v1295h-472z" />
    <glyph glyph-name="U" unicode="U" horiz-adv-x="1457" 
d="M729 -24q-179 0 -312 69t-206.5 189.5t-73.5 276.5v979h222v-961q0 -102 45 -181t128 -124.5t197 -45.5t197 45.5t127.5 124.5t44.5 181v961h222v-979q0 -156 -73 -276.5t-206 -189.5t-312 -69z" />
    <glyph glyph-name="V" unicode="V" horiz-adv-x="1391" 
d="M565 0l-541 1490h240l294 -838q32 -94 74 -229.5t100 -322.5h-59q55 188 97.5 323t72.5 229l286 838h238l-533 -1490h-269z" />
    <glyph glyph-name="W" unicode="W" horiz-adv-x="1994" 
d="M428 0l-404 1490h233l218 -864q20 -79 37.5 -159t34 -160.5t30.5 -161.5h-34q16 81 33 161.5t35.5 160.5t38.5 159l224 864h245l223 -864q20 -79 39 -159t36 -160.5t33 -161.5h-37q16 81 32.5 161.5t35 160.5t37.5 159l217 864h234l-405 -1490h-257l-242 905
q-26 98 -48.5 205t-46.5 227h52q-24 -118 -45.5 -224.5t-48.5 -207.5l-242 -905h-258z" />
    <glyph glyph-name="X" unicode="X" horiz-adv-x="1375" 
d="M28 0l592 844v-166l-555 812h258l200 -298q36 -53 67.5 -102t61.5 -97.5t61 -99.5h-47q32 51 62 99.5t62 97.5t68 102l205 298h251l-551 -801v162l583 -851h-258l-246 360q-33 48 -62 92t-56.5 88t-56.5 91h42q-28 -47 -56.5 -90.5t-58 -87.5t-63.5 -93l-249 -360h-254z
" />
    <glyph glyph-name="Y" unicode="Y" horiz-adv-x="1366" 
d="M573 0v595l-549 895h258l283 -472q43 -70 81 -139t77 -146h-74q38 77 76 146.5t80 138.5l279 472h257l-546 -895v-595h-222z" />
    <glyph glyph-name="Z" unicode="Z" horiz-adv-x="1280" 
d="M72 0v174l718 939q50 65 104 130.5t109 130.5l26 -77q-89 -1 -178 -1.5t-178 -0.5h-580v195h1109v-174l-704 -922q-54 -70 -110.5 -139.5t-115.5 -138.5l-26 77q88 1 176 1.5t176 0.5h611v-195h-1137z" />
    <glyph glyph-name="bracketleft" unicode="[" horiz-adv-x="661" 
d="M163 -291v1860h414v-175h-202v-1509h202v-176h-414z" />
    <glyph glyph-name="backslash" unicode="\" horiz-adv-x="707" 
d="M497 -224l-480 1784h192l480 -1784h-192z" />
    <glyph glyph-name="bracketright" unicode="]" horiz-adv-x="661" 
d="M85 -291v176h201v1509h-201v175h413v-1860h-413z" />
    <glyph glyph-name="asciicircum" unicode="^" horiz-adv-x="927" 
d="M437 1352h52v-76h-52v76zM55 814l302 633h213l302 -633h-192l-224 491h15l-223 -491h-193z" />
    <glyph glyph-name="underscore" unicode="_" horiz-adv-x="945" 
d="M945 0v-184h-945v184h945z" />
    <glyph glyph-name="grave" unicode="`" horiz-adv-x="566" 
d="M297 1206l-209 302h225l149 -302h-165z" />
    <glyph glyph-name="a" unicode="a" horiz-adv-x="1102" 
d="M446 -18q-106 0 -189.5 36.5t-132 108.5t-48.5 178q0 92 35.5 150.5t95 92.5t135 52t155.5 27q99 12 157.5 19.5t84.5 24.5t26 55v8q0 54 -25 94.5t-73 63.5t-116 23t-119.5 -22.5t-82.5 -60t-38 -83.5l-207 11q13 101 72 174.5t155.5 114t221.5 40.5q90 0 167.5 -23
t135 -68.5t89 -113t31.5 -156.5v-728h-209v150h-5q-22 -42 -61.5 -81t-102 -63t-152.5 -24zM490 153q92 0 153.5 34t92 89.5t30.5 120.5v128q-11 -9 -38 -17t-63.5 -15t-77 -13.5t-79.5 -11.5q-58 -8 -108.5 -26.5t-81 -52t-30.5 -88.5q0 -47 25 -80t70.5 -50.5t106.5 -17.5
z" />
    <glyph glyph-name="b" unicode="b" horiz-adv-x="1199" 
d="M666 -21q-76 0 -138 23t-109 64.5t-79 97.5h-6v-164h-209v1490h214v-579h4q31 53 77 93t108 62.5t138 22.5q137 0 240 -69t161 -193.5t58 -291.5t-57.5 -292t-161 -194.5t-240.5 -69.5zM622 162q87 0 151.5 44.5t100 128t35.5 200.5q0 118 -35.5 200.5t-100 127
t-151.5 44.5q-92 0 -158 -46.5t-101.5 -129.5t-35.5 -196q0 -112 35.5 -196t102 -130.5t157.5 -46.5z" />
    <glyph glyph-name="c" unicode="c" horiz-adv-x="1113" 
d="M581 -24q-152 0 -266 70.5t-177.5 196t-63.5 289.5q0 165 63.5 291.5t177.5 197.5t266 71q93 0 172.5 -27.5t140.5 -77t99.5 -118t50.5 -150.5l-209 -11q-9 44 -29.5 81t-52.5 63.5t-74.5 41.5t-96.5 15q-93 0 -158.5 -47.5t-99.5 -132.5t-34 -197q0 -110 34 -194.5
t99.5 -131.5t158.5 -47q54 0 96 14.5t73 41.5t52 64.5t31 82.5l211 -11q-11 -82 -50 -150t-100 -118.5t-141 -78.5t-173 -28z" />
    <glyph glyph-name="d" unicode="d" horiz-adv-x="1199" 
d="M534 -21q-137 0 -241 69.5t-161.5 194.5t-57.5 292t58 291.5t161.5 193.5t239.5 69q77 0 138.5 -22.5t108 -62.5t76.5 -93h5v579h213v-1490h-209v164h-6q-31 -56 -78.5 -97.5t-109 -64.5t-137.5 -23zM578 162q91 0 157 46.5t101.5 130.5t35.5 196q0 113 -35.5 196
t-101.5 129.5t-157 46.5q-88 0 -152.5 -44.5t-100 -127t-35.5 -200.5q0 -117 35.5 -200.5t100.5 -128t152 -44.5z" />
    <glyph glyph-name="e" unicode="e" horiz-adv-x="1135" 
d="M583 -24q-158 0 -272.5 71t-175.5 196.5t-61 288.5t63 289.5t175 198.5t258 72q109 0 199.5 -38t156.5 -110.5t102.5 -175t36.5 -230.5v-63h-890v161h779l-96 -50q0 100 -34.5 173.5t-98.5 114t-153 40.5q-88 0 -152.5 -40.5t-100 -113t-35.5 -168.5v-96q0 -103 36 -180
t103.5 -119.5t162.5 -42.5q68 0 120 20.5t87.5 58t51.5 87.5l204 -11q-21 -98 -86 -173t-162.5 -117.5t-217.5 -42.5z" />
    <glyph glyph-name="f" unicode="f" horiz-adv-x="695" 
d="M647 1070v-176h-630v176h630zM211 0v1231q0 88 38 149.5t107 93.5t162 32q47 0 86 -2.5t53 -4.5l-11 -175q-12 1 -42 2t-53 1q-68 0 -97.5 -30.5t-29.5 -98.5v-1198h-213z" />
    <glyph glyph-name="g" unicode="g" horiz-adv-x="1200" 
d="M588 -434q-130 0 -227.5 37t-158 106.5t-78.5 164.5l205 20q15 -47 49.5 -82t87 -54t121.5 -19q128 0 202 67t74 195v173h-5q-33 -55 -79 -96t-107.5 -63t-138.5 -22q-136 0 -239.5 68t-161.5 190.5t-58 286.5q0 165 58 289t162 193t239 69q77 0 139 -22.5t109.5 -64
t79.5 -98.5h4v166h209v-1063q0 -157 -65 -254t-175.5 -142t-245.5 -45zM578 174q91 0 157 45t102 127.5t36 193.5t-36 193.5t-102 128.5t-157 46q-87 0 -152 -44t-100.5 -126t-35.5 -198q0 -117 35.5 -198.5t100.5 -124.5t152 -43z" />
    <glyph glyph-name="h" unicode="h" 
d="M339 620v-620h-214v1490h213v-685h-47q50 144 143 214t224 70q110 0 196.5 -47.5t136 -140.5t49.5 -232v-669h-213v643q0 126 -61 191.5t-172 65.5q-72 0 -130 -30t-91.5 -92t-33.5 -158z" />
    <glyph glyph-name="i" unicode="i" horiz-adv-x="464" 
d="M125 0v1070h214v-1070h-214zM232 1249q-56 0 -95 38t-39 92t39 92t95 38q57 0 96 -37.5t39 -92.5t-39 -92.5t-96 -37.5z" />
    <glyph glyph-name="j" unicode="j" horiz-adv-x="464" 
d="M125 1070h214v-1186q0 -91 -36.5 -159.5t-106.5 -105.5t-173 -37h-78v180h55q66 0 95.5 35t29.5 109v1164zM232 1249q-56 0 -95 38t-39 92t39 92t95 38q57 0 96 -37.5t39 -92.5t-39 -92.5t-96 -37.5z" />
    <glyph glyph-name="k" unicode="k" horiz-adv-x="1085" 
d="M322 360v254h23l449 456h262l-503 -517h-34zM125 0v1490h214v-1490h-214zM824 0l-397 505l146 149l513 -654h-262z" />
    <glyph glyph-name="l" unicode="l" horiz-adv-x="464" 
d="M339 1490v-1490h-214v1490h214z" />
    <glyph glyph-name="m" unicode="m" horiz-adv-x="1764" 
d="M125 0v1070h206l2 -231h-19q28 83 78.5 139t116.5 84t139 28q122 0 207 -71.5t106 -181.5h-32q22 75 72.5 132t123.5 89t161 32q99 0 179 -42.5t127 -127.5t47 -212v-708h-213v689q0 113 -63 163.5t-149 50.5q-70 0 -121 -29.5t-78.5 -81.5t-27.5 -119v-673h-210v704
q0 90 -58.5 144.5t-148.5 54.5q-61 0 -114 -28.5t-85 -85t-32 -139.5v-650h-214z" />
    <glyph glyph-name="n" unicode="n" 
d="M339 620v-620h-214v1070h208l1 -265h-43q50 144 143 214t224 70q110 0 196.5 -47.5t136 -140.5t49.5 -232v-669h-213v643q0 126 -61 191.5t-172 65.5q-72 0 -130 -30t-91.5 -92t-33.5 -158z" />
    <glyph glyph-name="o" unicode="o" horiz-adv-x="1166" 
d="M583 -24q-152 0 -267 70.5t-178.5 196t-63.5 289.5q0 166 63.5 292t178.5 197t267 71q153 0 267.5 -71t178 -197t63.5 -292q0 -164 -63.5 -289.5t-178 -196t-267.5 -70.5zM583 159q93 0 158.5 47t100 131.5t34.5 194.5q0 112 -34.5 196.5t-100 132t-158.5 47.5
q-92 0 -158 -47t-100.5 -131.5t-34.5 -197.5q0 -111 34.5 -195t100 -131t158.5 -47z" />
    <glyph glyph-name="p" unicode="p" horiz-adv-x="1199" 
d="M125 -418v1488h209v-159h6q31 53 78 93t109.5 62.5t138.5 22.5q137 0 240 -69t161 -193.5t58 -291.5t-57.5 -292t-161 -194.5t-240.5 -69.5q-76 0 -137 23t-107.5 64.5t-78.5 96.5h-4v-581h-214zM622 162q87 0 151.5 44.5t100 128t35.5 200.5q0 118 -35.5 200.5t-100 127
t-151.5 44.5q-92 0 -158 -46.5t-101.5 -129.5t-35.5 -196q0 -112 35.5 -196t102 -130.5t157.5 -46.5z" />
    <glyph glyph-name="q" unicode="q" horiz-adv-x="1199" 
d="M1074 -418h-213v581h-5q-32 -55 -78.5 -96.5t-107 -64.5t-136.5 -23q-137 0 -241 69.5t-161.5 194.5t-57.5 292t58 291.5t161.5 193.5t239.5 69q77 0 139.5 -22.5t109.5 -62.5t77 -93h6v159h209v-1488zM578 162q91 0 157 46.5t101.5 130.5t35.5 196q0 113 -35.5 196
t-101.5 129.5t-157 46.5q-88 0 -152.5 -44.5t-100 -127t-35.5 -200.5q0 -117 35.5 -200.5t100.5 -128t152 -44.5z" />
    <glyph glyph-name="r" unicode="r" horiz-adv-x="716" 
d="M125 0v1070h205v-173h6q29 88 95 137t166 49q23 0 45 -1.5t36 -3.5v-199q-12 2 -44 6t-69 4q-62 0 -114 -28.5t-82 -84.5t-30 -140v-636h-214z" />
    <glyph glyph-name="s" unicode="s" horiz-adv-x="1025" 
d="M519 -24q-121 0 -217.5 38t-156 113t-70.5 186l209 9q12 -86 71 -131t161 -45t161 41.5t59 104.5q0 54 -40.5 87t-112.5 49l-178 39q-150 34 -227 110t-77 194q0 95 51.5 167t144.5 112.5t215 40.5q119 0 210 -40.5t144.5 -114.5t61.5 -176l-201 -9q-5 73 -61 122
t-151 49q-91 0 -146 -41.5t-55 -103.5q0 -54 41 -87.5t116 -50.5l180 -40q155 -34 228 -106t73 -188q0 -101 -55.5 -175t-153.5 -114t-224 -40z" />
    <glyph glyph-name="t" unicode="t" horiz-adv-x="681" 
d="M628 1070v-176h-611v176h611zM198 1353h213v-1068q0 -61 25 -86t89 -25q22 0 51 1t50 2l9 -175q-29 -3 -66 -4t-72 -1q-150 0 -224.5 66t-74.5 196v1094z" />
    <glyph glyph-name="u" unicode="u" 
d="M507 -19q-109 0 -195.5 47t-136.5 141t-50 231v670h214v-643q0 -126 61.5 -191.5t170.5 -65.5q72 0 130 30t92 92t34 158v620h213v-1070h-208v265h43q-51 -144 -144 -214t-224 -70z" />
    <glyph glyph-name="v" unicode="v" horiz-adv-x="1099" 
d="M436 0l-407 1070h228l213 -592q31 -87 57.5 -174t52.5 -173h-54q26 86 52 173t56 174l210 592h226l-407 -1070h-227z" />
    <glyph glyph-name="w" unicode="w" horiz-adv-x="1610" 
d="M360 0l-329 1070h224l122 -439q29 -108 57.5 -226t57.5 -240h-30q29 120 58.5 238.5t59.5 227.5l123 439h205l121 -439q30 -109 59 -227t58 -239h-31q29 121 57.5 239t58.5 227l123 439h225l-329 -1070h-221l-134 465q-20 69 -38.5 141.5t-37 146.5t-37.5 146h47
q-19 -71 -37.5 -145.5t-37.5 -147t-39 -141.5l-137 -465h-218z" />
    <glyph glyph-name="x" unicode="x" horiz-adv-x="1077" 
d="M31 0l437 617l-2 -140l-411 593h242l127 -192q44 -68 83.5 -133.5t79.5 -130.5h-90q41 65 80 130.5t84 133.5l129 192h238l-415 -594l1 139l432 -615h-242l-148 219q-44 67 -82.5 130t-78.5 126h88q-40 -63 -78.5 -126t-82.5 -130l-150 -219h-241z" />
    <glyph glyph-name="y" unicode="y" horiz-adv-x="1099" 
d="M133 -414l12 178l94 -2q39 -3 68 8.5t51.5 40t39.5 77.5l43 117l-412 1065h228l213 -592q32 -87 58.5 -174t52.5 -173h-60q26 86 53.5 173t58.5 174l212 592h225l-481 -1248q-30 -80 -75.5 -133.5t-106 -81t-136.5 -27.5q-37 0 -72.5 2t-65.5 4z" />
    <glyph glyph-name="z" unicode="z" horiz-adv-x="1040" 
d="M101 0v152l569 731v5h-565v182h826v-161l-559 -722v-5h567v-182h-838z" />
    <glyph glyph-name="braceleft" unicode="{" horiz-adv-x="842" 
d="M121 614v128q123 0 171 50.5t48 167.5v214q0 110 25 186t76 122t130 66.5t187 20.5v-173q-126 0 -169.5 -54.5t-43.5 -177.5v-270q0 -56 -17.5 -106.5t-63 -89.5t-128.5 -61.5t-215 -22.5zM758 -291q-108 0 -187 20.5t-130 66.5t-76 122t-25 187v212q0 117 -48 168.5
t-171 51.5v128q132 0 215 -23t128.5 -62.5t63 -90.5t17.5 -106v-268q0 -123 43.5 -177.5t169.5 -54.5v-174zM121 536v207h207v-207h-207z" />
    <glyph glyph-name="bar" unicode="|" horiz-adv-x="656" 
d="M424 1970v-2450h-193v2450h193z" />
    <glyph glyph-name="braceright" unicode="}" horiz-adv-x="842" 
d="M722 614q-132 0 -215.5 22.5t-129 61.5t-62.5 89.5t-17 106.5v270q0 123 -43.5 177.5t-169.5 54.5v173q108 0 186.5 -20.5t130 -66.5t76 -122t24.5 -186v-214q0 -117 48.5 -167.5t171.5 -50.5v-128zM85 -291v174q126 0 169.5 54.5t43.5 177.5v268q0 55 17 106t62.5 90.5
t129 62.5t215.5 23v-128q-123 -1 -171.5 -52t-48.5 -168v-212q0 -111 -24.5 -187t-76 -122t-130 -66.5t-186.5 -20.5zM722 537l-208 -1v207l208 -1v-205z" />
    <glyph glyph-name="asciitilde" unicode="~" horiz-adv-x="1318" 
d="M142 430q-3 126 37.5 206.5t109 118.5t149.5 38q73 0 134.5 -31t141.5 -101q50 -43 81.5 -62.5t69.5 -19.5q59 0 94.5 44t33.5 131h184q2 -125 -39 -205.5t-109 -118.5t-149 -38q-74 0 -136.5 31t-140.5 100q-51 44 -81.5 63t-68.5 19q-56 0 -92.5 -41t-35.5 -134h-183z
" />
    <glyph glyph-name="uni00A0" unicode="&#xa0;" horiz-adv-x="500" 
 />
    <glyph glyph-name="exclamdown" unicode="&#xa1;" horiz-adv-x="510" 
d="M135 -406l18 1050h205l17 -1050h-240zM255 804q-61 0 -103.5 42t-42.5 102q0 61 42.5 103.5t103.5 42.5q60 0 103 -42.5t43 -103.5q0 -60 -43 -102t-103 -42z" />
    <glyph glyph-name="cent" unicode="&#xa2;" horiz-adv-x="1113" 
d="M511 0v1490h134v-1490h-134zM581 187q-152 0 -266 70.5t-177.5 196t-63.5 289.5q0 165 63.5 291t177.5 197t266 71q93 0 172.5 -27.5t140.5 -77t99.5 -117.5t50.5 -151l-209 -11q-9 45 -29.5 81.5t-52.5 63t-74.5 41.5t-96.5 15q-93 0 -158.5 -47.5t-99.5 -132
t-34 -196.5q0 -111 34 -195t99.5 -131.5t158.5 -47.5q54 0 96 14.5t73 41.5t52 64.5t31 83.5l211 -11q-11 -82 -50 -150.5t-100 -119t-141 -78t-173 -27.5z" />
    <glyph glyph-name="sterling" unicode="&#xa3;" horiz-adv-x="1224" 
d="M81 142v50q82 0 126.5 44t40.5 142l-29 659q-6 142 52.5 248.5t166.5 166t249 59.5q130 0 230 -56.5t159 -157.5t63 -236l-208 -7q-4 125 -68.5 195t-174.5 70q-82 0 -141 -33t-88.5 -94.5t-26.5 -146.5l25 -649q3 -69 -18.5 -115.5t-59.5 -74t-87.5 -41.5t-103.5 -18.5
t-107 -4.5zM81 0v192h781q41 0 58 17.5t17 57.5v61h204v-50q0 -138 -68.5 -208t-208.5 -70h-783zM81 655v173h776v-173h-776z" />
    <glyph glyph-name="currency" unicode="&#xa4;" horiz-adv-x="1461" 
d="M728 -20q-125 0 -233.5 47.5t-191 133t-129 200t-46.5 247.5t46.5 247t129 199t191 132.5t233.5 47.5q123 0 232 -47.5t192 -132.5t130 -199t47 -247t-47 -247.5t-130 -200t-192 -133t-232 -47.5zM728 149q119 0 216 62t154.5 166.5t57.5 230.5q0 128 -57.5 232
t-154.5 165.5t-216 61.5t-217.5 -61.5t-156.5 -165.5t-58 -232q0 -126 58 -230.5t156 -166.5t218 -62zM1157 923l-124 128l202 206l127 -128zM1235 -17l-202 206l124 126l205 -204zM226 -17l-124 128l202 204l127 -126zM304 923l-202 206l124 128l205 -206z" />
    <glyph glyph-name="yen" unicode="&#xa5;" horiz-adv-x="1092" 
d="M246 1490l357 -805l-162 -91l-434 896h239zM490 687l358 803h239l-435 -896zM656 783v-783h-221v783h221zM972 750v-147h-860v147h860zM972 462v-147h-860v147h860z" />
    <glyph glyph-name="brokenbar" unicode="&#xa6;" horiz-adv-x="549" 
d="M176 406h197v-686h-197v686zM373 1490v-683h-197v683h197z" />
    <glyph glyph-name="section" unicode="&#xa7;" horiz-adv-x="1115" 
d="M543 -302q-125 0 -216.5 43t-143 123t-55.5 190l200 9q5 -88 59.5 -135t155.5 -47q89 0 142 37t53 110q0 49 -23 83.5t-58 59t-72 41.5l-276 146q-68 35 -117.5 84.5t-76.5 109t-27 122.5q0 62 26 118.5t73.5 93.5t109.5 43l1 2q-58 52 -91.5 110.5t-33.5 142.5
q0 152 105 239.5t280 87.5q180 0 283 -94.5t112 -260.5l-198 -10q-6 86 -54.5 134t-141.5 48q-85 0 -134 -39.5t-49 -107.5q0 -48 23.5 -83t60 -60t74.5 -44l275 -147q68 -35 116.5 -84t75 -106.5t26.5 -119.5q0 -63 -27.5 -119t-75 -92.5t-107.5 -44.5l-1 -2
q43 -33 71.5 -73t43 -85.5t14.5 -97.5q0 -98 -50 -171.5t-140.5 -113.5t-211.5 -40zM666 372q29 -16 70 -4.5t72.5 48t32.5 95.5q1 38 -13 71.5t-43.5 63t-75.5 52.5l-270 143q-30 16 -68.5 4t-67.5 -49t-31 -96q-1 -39 13.5 -73.5t45 -64.5t77.5 -55z" />
    <glyph glyph-name="dieresis" unicode="&#xa8;" 
d="M796 1250q-54 0 -92 38t-38 91q0 54 38 91.5t93 37.5q54 0 92 -37.5t38 -91.5t-38 -91.5t-93 -37.5zM369 1250q-55 0 -93 38t-38 91q0 54 38 91.5t93 37.5t93 -37.5t38 -91.5t-38 -91.5t-93 -37.5z" />
    <glyph glyph-name="copyright" unicode="&#xa9;" horiz-adv-x="1827" 
d="M495 744q0 118 57.5 214.5t154.5 154t214 57.5q103 0 189.5 -44.5t143 -120t69.5 -171.5h-188q-14 68 -75.5 112t-138.5 44q-67 0 -123 -33t-89.5 -89t-33.5 -124q0 -67 33.5 -122.5t89.5 -88.5t123 -33q78 0 132.5 43.5t68.5 112.5h188q-13 -96 -66.5 -172.5
t-136.5 -120.5t-186 -44q-117 0 -214 57.5t-154.5 154t-57.5 213.5zM913 -23q-159 0 -298 59.5t-245 165.5t-165.5 245t-59.5 298t59.5 298t165.5 245t245 165.5t298 59.5t298 -59.5t245 -165.5t165.5 -245t59.5 -298t-59.5 -298t-165.5 -245t-245 -165.5t-298 -59.5z
M913 168q120 0 224.5 44.5t184 124t124 184t44.5 224.5t-44.5 224.5t-124 184t-184 124t-224.5 44.5q-119 0 -223.5 -44.5t-184 -124t-124.5 -184t-45 -224.5t45 -224.5t124.5 -184t184 -124t223.5 -44.5z" />
    <glyph glyph-name="ordfeminine" unicode="&#xaa;" horiz-adv-x="892" 
d="M352 641q-83 0 -150 28.5t-105.5 85t-38.5 140.5q0 96 48 148t124.5 75.5t162.5 32.5q78 9 124.5 15t67.5 19.5t21 42.5v6q0 58 -42.5 94.5t-118.5 36.5q-78 0 -125.5 -35.5t-55.5 -88.5l-183 9q10 81 58 140t126.5 91.5t181.5 32.5q77 0 140 -18.5t110 -55t72.5 -89.5
t25.5 -122v-574h-186v119h-5q-28 -54 -87 -93.5t-165 -39.5zM397 785q69 0 116 25t70.5 66t23.5 90v96q-12 -9 -43 -16.5t-72 -14t-82 -12.5q-67 -10 -116.5 -37.5t-49.5 -86.5q0 -52 42 -81t111 -29z" />
    <glyph glyph-name="guillemotleft" unicode="&#xab;" horiz-adv-x="1160" 
d="M444 144l-376 447l376 447h241l-369 -447l369 -447h-241zM871 144l-376 447l376 447h241l-369 -447l369 -447h-241z" />
    <glyph glyph-name="logicalnot" unicode="&#xac;" horiz-adv-x="1318" 
d="M877 313v260h-666v184h859v-444h-193z" />
    <glyph glyph-name="registered" unicode="&#xae;" horiz-adv-x="1311" 
d="M655 346q-120 0 -225.5 45.5t-185 125.5t-125 185.5t-45.5 225.5t45.5 225.5t125 185.5t185 125.5t225.5 45.5q121 0 226.5 -45.5t185.5 -125.5t125 -185.5t45 -225.5t-45 -225.5t-125 -185.5t-185.5 -125.5t-226.5 -45.5zM655 491q122 0 221 58.5t158 158t59 220.5
t-59 220t-158 158t-221 59q-120 0 -219.5 -59t-158.5 -158t-59 -220t59 -220t158.5 -158t219.5 -59zM759 663l-123 245h144l128 -245h-149zM441 663v536h244q60 0 106.5 -22t73 -63t26.5 -98q0 -56 -27.5 -96.5t-75.5 -62.5t-111 -22h-151v108h141q37 0 60.5 19.5t23.5 53.5
t-23.5 52.5t-59.5 18.5h-89v-424h-138z" />
    <glyph glyph-name="macron" unicode="&#xaf;" horiz-adv-x="850" 
d="M705 1437v-157h-561v157h561z" />
    <glyph glyph-name="degree" unicode="&#xb0;" horiz-adv-x="888" 
d="M446 817q-95 0 -173 46t-124.5 124t-46.5 171q0 95 46.5 173t124.5 124t172 46t171.5 -46t123.5 -124t46 -173q0 -94 -46 -171.5t-123.5 -123.5t-170.5 -46zM445 982q49 0 89 23.5t63.5 64t23.5 88.5q0 50 -23.5 90t-63.5 64t-89 24t-89.5 -24t-64 -64t-23.5 -89
t23.5 -89.5t64 -64t89.5 -23.5z" />
    <glyph glyph-name="plusminus" unicode="&#xb1;" horiz-adv-x="1318" 
d="M177 65v189h965v-189h-965zM177 659v186h965v-186h-965zM563 375v754h193v-754h-193z" />
    <glyph glyph-name="two.sups" unicode="&#xb2;" horiz-adv-x="823" 
d="M85 876v138l332 255q40 31 70 57t47.5 53t17.5 62q0 52 -39.5 83t-103.5 31q-69 0 -110 -37t-41 -103h-178q0 133 90 212t239 79q143 0 234 -69t91 -185q0 -42 -12 -78.5t-38 -71t-67 -70.5t-98 -76l-171 -124v-3h394v-153h-657z" />
    <glyph glyph-name="three.sups" unicode="&#xb3;" horiz-adv-x="850" 
d="M429 864q-111 0 -188.5 37.5t-118.5 100.5t-41 139h186q0 -59 43.5 -93.5t116.5 -34.5q70 0 114 30t44 77q0 48 -47.5 76.5t-125.5 28.5h-82v134h82q71 0 113.5 27t42.5 71q0 46 -39 75t-101 29q-65 0 -106 -31t-41 -81h-182q0 74 41 132t115.5 91.5t172.5 33.5
q94 0 166.5 -29.5t113.5 -81.5t41 -119q0 -69 -48.5 -115t-126.5 -58v-3q99 -11 152 -65.5t53 -127.5q0 -70 -45 -125t-123.5 -86.5t-181.5 -31.5z" />
    <glyph glyph-name="acute" unicode="&#xb4;" horiz-adv-x="566" 
d="M103 1206l149 302h225l-209 -302h-165z" />
    <glyph glyph-name="uni00B5" unicode="&#xb5;" horiz-adv-x="1177" 
d="M125 -418v1488h213v-626q0 -96 32.5 -157.5t88 -91t127.5 -29.5t126 29.5t84.5 91t30.5 157.5v626h213v-799q0 -52 23 -73t79 -21h33v-177h-61q-141 0 -210.5 67t-69.5 194v101h44q0 -111 -28.5 -183t-73 -113t-95 -58t-94.5 -17t-95 17t-95.5 58t-72.5 113t-28 183h42
v-780h-213z" />
    <glyph glyph-name="paragraph" unicode="&#xb6;" horiz-adv-x="1174" 
d="M1021 1305h-372v-753h-84q-160 0 -271 61t-168.5 167.5t-57.5 241.5q0 134 57.5 239.5t168.5 167t271 61.5h456v-185zM829 0v1490h203v-1490h-203z" />
    <glyph glyph-name="periodcentered" unicode="&#xb7;" horiz-adv-x="501" 
d="M251 566q-59 0 -100.5 41.5t-41.5 100.5t41.5 100t100.5 41t100 -41t41 -100t-41 -100.5t-100 -41.5z" />
    <glyph glyph-name="cedilla" unicode="&#xb8;" horiz-adv-x="567" 
d="M166 -418v110h118q49 0 72 15.5t23 48.5t-23 48.5t-72 15.5h-83l33 227h101v-47l-1 -84q90 -3 139.5 -46.5t49.5 -116.5q0 -88 -61.5 -129.5t-171.5 -41.5h-124z" />
    <glyph glyph-name="one.sups" unicode="&#xb9;" horiz-adv-x="562" 
d="M463 1693v-817h-187v646h-2l-212 -120v165l219 126h182z" />
    <glyph glyph-name="ordmasculine" unicode="&#xba;" horiz-adv-x="941" 
d="M470 637q-124 0 -217 55t-145 154t-52 229q0 132 52 230.5t145 154.5t217 56q125 0 218 -56t145 -154.5t52 -230.5q0 -130 -52 -229t-145 -154t-218 -55zM470 796q70 0 120 35t76 97.5t26 146.5q0 85 -26 148.5t-76 98.5t-120 35q-69 0 -118.5 -35t-76.5 -98.5
t-27 -148.5q0 -84 26.5 -147t76.5 -97.5t119 -34.5z" />
    <glyph glyph-name="guillemotright" unicode="&#xbb;" horiz-adv-x="1160" 
d="M48 144l370 447l-370 447h241l376 -447l-376 -447h-241zM475 144l370 447l-370 447h241l376 -447l-376 -447h-241z" />
    <glyph glyph-name="onequarter" unicode="&#xbc;" horiz-adv-x="1559" 
d="M418 1490v-817h-168v662h-2l-192 -127v155l194 127h168zM124 0l1024 1490h188l-1024 -1490h-188zM826 163v134l352 520h109v-173h-62l-232 -342v-4h501v-135h-668zM1227 0v203l1 61v553h162v-817h-163z" />
    <glyph glyph-name="onehalf" unicode="&#xbd;" horiz-adv-x="1629" 
d="M418 1490v-817h-168v662h-2l-192 -127v155l194 127h168zM124 0l1024 1490h188l-1024 -1490h-188zM969 0v124l296 263q53 48 87 88.5t34 96.5q0 55 -35.5 87.5t-92.5 32.5q-61 0 -97 -38t-36 -107h-160q0 129 81 206t213 77q128 0 208.5 -69t80.5 -181q0 -52 -20 -97.5
t-62 -93.5t-108 -109l-153 -137v-3h348v-140h-584z" />
    <glyph glyph-name="threequarters" unicode="&#xbe;" horiz-adv-x="1727" 
d="M387 661q-98 0 -167.5 35.5t-106 95.5t-37.5 134h167q1 -60 40 -94.5t103 -34.5q62 0 102 31.5t40 83.5t-42 83t-113 31h-77v127h77q62 0 100 29t38 77q0 50 -34 80t-90 30t-93.5 -31t-38.5 -84h-163q1 72 38.5 128t104 88.5t153.5 32.5q84 0 148.5 -30t100.5 -81.5
t36 -116.5q0 -70 -43 -116t-110 -60v-3q87 -11 133.5 -65.5t46.5 -127.5q0 -106 -88 -174t-225 -68zM292 0l1024 1490h188l-1024 -1490h-188zM993 163v134l352 520h109v-173h-62l-232 -342v-4h501v-135h-668zM1394 0v203l1 61v553h162v-817h-163z" />
    <glyph glyph-name="questiondown" unicode="&#xbf;" horiz-adv-x="1098" 
d="M685 648v-83q0 -112 -27.5 -175t-79.5 -104t-122 -88q-79 -52 -115 -113t-36 -128q0 -66 30.5 -114t86.5 -74t130 -26q79 0 137.5 31.5t91 91.5t33.5 146h216q-1 -138 -62 -240t-168.5 -158.5t-248.5 -56.5q-136 0 -239.5 50t-162 138.5t-58.5 204.5q0 113 54 203.5
t155 158.5q65 44 104.5 78.5t57.5 77t18 110.5v70h205zM581 1087q60 0 101 -41t41 -101q0 -59 -41 -100t-101 -41q-59 0 -100.5 41t-41.5 100q0 60 41.5 101t100.5 41z" />
    <glyph glyph-name="Agrave" unicode="&#xc0;" horiz-adv-x="1395" 
d="M24 0l539 1490h270l538 -1490h-243l-287 838q-35 105 -75.5 234.5t-97.5 318.5h59q-56 -190 -96.5 -319.5t-75.5 -233.5l-292 -838h-239zM321 388v189h753v-189h-753zM622 1626l-209 302h225l149 -302h-165z" />
    <glyph glyph-name="Aacute" unicode="&#xc1;" horiz-adv-x="1395" 
d="M24 0l539 1490h270l538 -1490h-243l-287 838q-35 105 -75.5 234.5t-97.5 318.5h59q-56 -190 -96.5 -319.5t-75.5 -233.5l-292 -838h-239zM321 388v189h753v-189h-753zM610 1626l149 302h225l-209 -302h-165z" />
    <glyph glyph-name="Acircumflex" unicode="&#xc2;" horiz-adv-x="1395" 
d="M24 0l539 1490h270l538 -1490h-243l-287 838q-35 105 -75.5 234.5t-97.5 318.5h59q-56 -190 -96.5 -319.5t-75.5 -233.5l-292 -838h-239zM321 388v189h753v-189h-753zM558 1645h-193v2l238 281h190l241 -281v-2h-196l-139 173z" />
    <glyph glyph-name="Atilde" unicode="&#xc3;" horiz-adv-x="1395" 
d="M24 0l539 1490h270l538 -1490h-243l-287 838q-35 105 -75.5 234.5t-97.5 318.5h59q-56 -190 -96.5 -319.5t-75.5 -233.5l-292 -838h-239zM321 388v189h753v-189h-753zM834 1678q-40 0 -76 13.5t-67.5 31t-57.5 31t-46 13.5q-27 0 -41 -26t-15 -59h-138q3 101 47.5 162.5
t127.5 61.5q42 0 76 -13.5t63 -31t55.5 -31t51.5 -13.5q28 0 41.5 20.5t17.5 64.5h134q-3 -103 -49.5 -163.5t-123.5 -60.5z" />
    <glyph glyph-name="Adieresis" unicode="&#xc4;" horiz-adv-x="1395" 
d="M24 0l539 1490h270l538 -1490h-243l-287 838q-35 105 -75.5 234.5t-97.5 318.5h59q-56 -190 -96.5 -319.5t-75.5 -233.5l-292 -838h-239zM321 388v189h753v-189h-753zM913 1670q-54 0 -92 38t-38 91q0 54 38 91.5t93 37.5q54 0 92 -37.5t38 -91.5t-38 -91.5t-93 -37.5z
M486 1670q-55 0 -93 38t-38 91q0 54 38 91.5t93 37.5t93 -37.5t38 -91.5t-38 -91.5t-93 -37.5z" />
    <glyph glyph-name="Aring" unicode="&#xc5;" horiz-adv-x="1395" 
d="M24 0l539 1490h270l538 -1490h-243l-287 838q-35 105 -75.5 234.5t-97.5 318.5h59q-56 -190 -96.5 -319.5t-75.5 -233.5l-292 -838h-239zM321 388v189h753v-189h-753zM699 1570q-70 0 -126.5 32t-90 86t-33.5 119q0 67 33 120.5t90 85t127 31.5t127 -31.5t90 -85
t33 -120.5q0 -66 -33 -119.5t-89.5 -85.5t-127.5 -32zM699 1696q47 0 79.5 32.5t32.5 79.5q0 46 -32 78.5t-80 32.5q-47 0 -79.5 -32.5t-32.5 -78.5q0 -47 32.5 -79.5t79.5 -32.5z" />
    <glyph glyph-name="AE" unicode="&#xc6;" horiz-adv-x="2023" 
d="M24 0l666 1490h1251v-195h-764v-449h708v-193h-708v-458h765v-195h-984v1306h-126l-572 -1306h-236zM362 413v183h695v-183h-695z" />
    <glyph glyph-name="Ccedilla" unicode="&#xc7;" horiz-adv-x="1486" 
d="M778 -23q-203 0 -358.5 95.5t-243.5 268.5t-88 403q0 232 87.5 405t243.5 268.5t359 95.5q121 0 226 -35.5t188 -103.5t137 -163t74 -214h-227q-16 75 -52 133t-87.5 98.5t-117 60.5t-139.5 20q-143 0 -248 -69.5t-162.5 -196.5t-57.5 -299q0 -171 57.5 -297.5
t162.5 -196t248 -69.5q74 0 139 20.5t117 60t88 97.5t53 133h226q-19 -117 -73 -212t-136.5 -163t-188 -104t-227.5 -36zM646 -419v110h118q49 0 72 15.5t23 48.5t-23 48.5t-72 15.5h-83l33 227h101v-47l-1 -84q90 -3 139.5 -46.5t49.5 -116.5q0 -88 -61.5 -129.5
t-171.5 -41.5h-124z" />
    <glyph glyph-name="Egrave" unicode="&#xc8;" horiz-adv-x="1213" 
d="M142 0v1490h988v-195h-764v-441h708v-193h-708v-466h766v-195h-990zM560 1626l-209 302h225l149 -302h-165z" />
    <glyph glyph-name="Eacute" unicode="&#xc9;" horiz-adv-x="1213" 
d="M142 0v1490h988v-195h-764v-441h708v-193h-708v-466h766v-195h-990zM548 1626l149 302h225l-209 -302h-165z" />
    <glyph glyph-name="Ecircumflex" unicode="&#xca;" horiz-adv-x="1213" 
d="M142 0v1490h988v-195h-764v-441h708v-193h-708v-466h766v-195h-990zM496 1645h-193v2l238 281h190l241 -281v-2h-196l-139 173z" />
    <glyph glyph-name="Edieresis" unicode="&#xcb;" horiz-adv-x="1213" 
d="M142 0v1490h988v-195h-764v-441h708v-193h-708v-466h766v-195h-990zM850 1670q-54 0 -92 38t-38 91q0 54 38 91.5t93 37.5q54 0 92 -37.5t38 -91.5t-38 -91.5t-93 -37.5zM423 1670q-55 0 -93 38t-38 91q0 54 38 91.5t93 37.5t93 -37.5t38 -91.5t-38 -91.5t-93 -37.5z" />
    <glyph glyph-name="Igrave" unicode="&#xcc;" horiz-adv-x="508" 
d="M366 1490v-1490h-224v1490h224zM177 1626l-209 302h225l149 -302h-165z" />
    <glyph glyph-name="Iacute" unicode="&#xcd;" horiz-adv-x="508" 
d="M366 1490v-1490h-224v1490h224zM165 1626l149 302h225l-209 -302h-165z" />
    <glyph glyph-name="Icircumflex" unicode="&#xce;" horiz-adv-x="508" 
d="M366 1490v-1490h-224v1490h224zM113 1645h-193v2l238 281h190l241 -281v-2h-196l-139 173z" />
    <glyph glyph-name="Idieresis" unicode="&#xcf;" horiz-adv-x="508" 
d="M366 1490v-1490h-224v1490h224zM468 1670q-54 0 -92 38t-38 91q0 54 38 91.5t93 37.5q54 0 92 -37.5t38 -91.5t-38 -91.5t-93 -37.5zM41 1670q-55 0 -93 38t-38 91q0 54 38 91.5t93 37.5t93 -37.5t38 -91.5t-38 -91.5t-93 -37.5z" />
    <glyph glyph-name="Eth" unicode="&#xd0;" horiz-adv-x="1504" 
d="M696 0h-368v195h355q172 0 285 65t169 189t56 298q0 173 -55.5 295.5t-165.5 187.5t-276 65h-375v195h390q219 0 377 -89.5t243 -256t85 -397.5q0 -232 -85.5 -399.5t-246 -257.5t-388.5 -90zM437 1490v-1490h-224v1490h224zM22 657v176h779v-176h-779z" />
    <glyph glyph-name="Ntilde" unicode="&#xd1;" horiz-adv-x="1483" 
d="M142 0v1490h250l567 -898q22 -34 54.5 -89.5t69 -121t70.5 -131.5l-24 -39q-4 64 -7 142t-4 148.5t-1 110.5v878h224v-1490h-251l-508 802q-27 44 -65.5 108t-88 149.5t-109.5 189.5l33 34q6 -113 9 -206.5t4.5 -163t1.5 -109.5v-804h-225zM876 1678q-40 0 -76 13.5
t-67.5 31t-57.5 31t-46 13.5q-27 0 -41 -26t-15 -59h-138q3 101 47.5 162.5t127.5 61.5q42 0 76 -13.5t63 -31t55.5 -31t51.5 -13.5q28 0 41.5 20.5t17.5 64.5h134q-3 -103 -49.5 -163.5t-123.5 -60.5z" />
    <glyph glyph-name="Ograve" unicode="&#xd2;" horiz-adv-x="1541" 
d="M771 -23q-197 0 -351.5 96t-243 268.5t-88.5 402.5q0 232 88.5 404.5t243 268.5t351.5 96t351 -96t242.5 -268.5t88.5 -404.5q0 -230 -88.5 -402.5t-242.5 -268.5t-351 -96zM771 181q128 0 232 65t165 191t61 307q0 182 -61 308.5t-165 191.5t-232 65t-232 -65
t-165.5 -191.5t-61.5 -308.5q0 -181 61.5 -307t165.5 -191t232 -65zM694 1626l-209 302h225l149 -302h-165z" />
    <glyph glyph-name="Oacute" unicode="&#xd3;" horiz-adv-x="1541" 
d="M771 -23q-197 0 -351.5 96t-243 268.5t-88.5 402.5q0 232 88.5 404.5t243 268.5t351.5 96t351 -96t242.5 -268.5t88.5 -404.5q0 -230 -88.5 -402.5t-242.5 -268.5t-351 -96zM771 181q128 0 232 65t165 191t61 307q0 182 -61 308.5t-165 191.5t-232 65t-232 -65
t-165.5 -191.5t-61.5 -308.5q0 -181 61.5 -307t165.5 -191t232 -65zM681 1626l149 302h225l-209 -302h-165z" />
    <glyph glyph-name="Ocircumflex" unicode="&#xd4;" horiz-adv-x="1541" 
d="M771 -23q-197 0 -351.5 96t-243 268.5t-88.5 402.5q0 232 88.5 404.5t243 268.5t351.5 96t351 -96t242.5 -268.5t88.5 -404.5q0 -230 -88.5 -402.5t-242.5 -268.5t-351 -96zM771 181q128 0 232 65t165 191t61 307q0 182 -61 308.5t-165 191.5t-232 65t-232 -65
t-165.5 -191.5t-61.5 -308.5q0 -181 61.5 -307t165.5 -191t232 -65zM630 1645h-193v2l238 281h190l241 -281v-2h-196l-139 173z" />
    <glyph glyph-name="Otilde" unicode="&#xd5;" horiz-adv-x="1541" 
d="M771 -23q-197 0 -351.5 96t-243 268.5t-88.5 402.5q0 232 88.5 404.5t243 268.5t351.5 96t351 -96t242.5 -268.5t88.5 -404.5q0 -230 -88.5 -402.5t-242.5 -268.5t-351 -96zM771 181q128 0 232 65t165 191t61 307q0 182 -61 308.5t-165 191.5t-232 65t-232 -65
t-165.5 -191.5t-61.5 -308.5q0 -181 61.5 -307t165.5 -191t232 -65zM905 1678q-40 0 -76 13.5t-67.5 31t-57.5 31t-46 13.5q-27 0 -41 -26t-15 -59h-138q3 101 47.5 162.5t127.5 61.5q42 0 76 -13.5t63 -31t55.5 -31t51.5 -13.5q28 0 41.5 20.5t17.5 64.5h134
q-3 -103 -49.5 -163.5t-123.5 -60.5z" />
    <glyph glyph-name="Odieresis" unicode="&#xd6;" horiz-adv-x="1541" 
d="M771 -23q-197 0 -351.5 96t-243 268.5t-88.5 402.5q0 232 88.5 404.5t243 268.5t351.5 96t351 -96t242.5 -268.5t88.5 -404.5q0 -230 -88.5 -402.5t-242.5 -268.5t-351 -96zM771 181q128 0 232 65t165 191t61 307q0 182 -61 308.5t-165 191.5t-232 65t-232 -65
t-165.5 -191.5t-61.5 -308.5q0 -181 61.5 -307t165.5 -191t232 -65zM984 1670q-54 0 -92 38t-38 91q0 54 38 91.5t93 37.5q54 0 92 -37.5t38 -91.5t-38 -91.5t-93 -37.5zM557 1670q-55 0 -93 38t-38 91q0 54 38 91.5t93 37.5t93 -37.5t38 -91.5t-38 -91.5t-93 -37.5z" />
    <glyph glyph-name="multiply" unicode="&#xd7;" horiz-adv-x="1318" 
d="M1010 100l-836 835l136 137l835 -837zM310 100l-136 135l836 837l135 -137z" />
    <glyph glyph-name="Oslash" unicode="&#xd8;" horiz-adv-x="1541" 
d="M771 -23q-197 0 -351.5 96t-243 268.5t-88.5 402.5q0 232 88.5 404.5t243 268.5t351.5 96t351 -96t242.5 -268.5t88.5 -404.5q0 -230 -88.5 -402.5t-242.5 -268.5t-351 -96zM771 181q128 0 232 65t165 191t61 307q0 182 -61 308.5t-165 191.5t-232 65t-232 -65
t-165.5 -191.5t-61.5 -308.5q0 -181 61.5 -307t165.5 -191t232 -65zM235 -59l-141 116l1213 1492l141 -116z" />
    <glyph glyph-name="Ugrave" unicode="&#xd9;" horiz-adv-x="1457" 
d="M729 -24q-179 0 -312 69t-206.5 189.5t-73.5 276.5v979h222v-961q0 -102 45 -181t128 -124.5t197 -45.5t197 45.5t127.5 124.5t44.5 181v961h222v-979q0 -156 -73 -276.5t-206 -189.5t-312 -69zM652 1626l-209 302h225l149 -302h-165z" />
    <glyph glyph-name="Uacute" unicode="&#xda;" horiz-adv-x="1457" 
d="M729 -24q-179 0 -312 69t-206.5 189.5t-73.5 276.5v979h222v-961q0 -102 45 -181t128 -124.5t197 -45.5t197 45.5t127.5 124.5t44.5 181v961h222v-979q0 -156 -73 -276.5t-206 -189.5t-312 -69zM640 1626l149 302h225l-209 -302h-165z" />
    <glyph glyph-name="Ucircumflex" unicode="&#xdb;" horiz-adv-x="1457" 
d="M729 -24q-179 0 -312 69t-206.5 189.5t-73.5 276.5v979h222v-961q0 -102 45 -181t128 -124.5t197 -45.5t197 45.5t127.5 124.5t44.5 181v961h222v-979q0 -156 -73 -276.5t-206 -189.5t-312 -69zM588 1645h-193v2l238 281h190l241 -281v-2h-196l-139 173z" />
    <glyph glyph-name="Udieresis" unicode="&#xdc;" horiz-adv-x="1457" 
d="M729 -24q-179 0 -312 69t-206.5 189.5t-73.5 276.5v979h222v-961q0 -102 45 -181t128 -124.5t197 -45.5t197 45.5t127.5 124.5t44.5 181v961h222v-979q0 -156 -73 -276.5t-206 -189.5t-312 -69zM942 1670q-54 0 -92 38t-38 91q0 54 38 91.5t93 37.5q54 0 92 -37.5
t38 -91.5t-38 -91.5t-93 -37.5zM515 1670q-55 0 -93 38t-38 91q0 54 38 91.5t93 37.5t93 -37.5t38 -91.5t-38 -91.5t-93 -37.5z" />
    <glyph glyph-name="Yacute" unicode="&#xdd;" horiz-adv-x="1366" 
d="M573 0v595l-549 895h258l283 -472q43 -70 81 -139t77 -146h-74q38 77 76 146.5t80 138.5l279 472h257l-546 -895v-595h-222zM593 1626l149 302h225l-209 -302h-165z" />
    <glyph glyph-name="Thorn" unicode="&#xde;" horiz-adv-x="1273" 
d="M133 1490h224v-1490h-224v1490zM238 1193h385q165 0 279 -58.5t172.5 -157.5t58.5 -221t-58.5 -220.5t-172.5 -157t-279 -58.5h-385v186h385q99 0 165.5 30t100.5 85.5t34 130.5q0 77 -34 134t-100.5 89t-165.5 32h-385v186z" />
    <glyph glyph-name="germandbls" unicode="&#xdf;" horiz-adv-x="1234" 
d="M142 0v1104q0 126 58 217t160.5 140t237.5 49q131 0 236 -46t167 -133.5t62 -210.5t-63 -208.5t-167 -120.5v-14q144 -13 233 -112.5t89 -254.5q0 -121 -56 -213.5t-157 -144.5t-235 -52h-173v189h160q112 0 178 64.5t66 166.5q0 106 -73.5 173.5t-198.5 67.5h-126v188
h88q66 0 115 34t75.5 88.5t26.5 116.5q0 97 -64.5 164t-176.5 67q-108 0 -177.5 -63.5t-69.5 -165.5v-1090h-215z" />
    <glyph glyph-name="agrave" unicode="&#xe0;" horiz-adv-x="1102" 
d="M446 -18q-106 0 -189.5 36.5t-132 108.5t-48.5 178q0 92 35.5 150.5t95 92.5t135 52t155.5 27q99 12 157.5 19.5t84.5 24.5t26 55v8q0 54 -25 94.5t-73 63.5t-116 23t-119.5 -22.5t-82.5 -60t-38 -83.5l-207 11q13 101 72 174.5t155.5 114t221.5 40.5q90 0 167.5 -23
t135 -68.5t89 -113t31.5 -156.5v-728h-209v150h-5q-22 -42 -61.5 -81t-102 -63t-152.5 -24zM490 153q92 0 153.5 34t92 89.5t30.5 120.5v128q-11 -9 -38 -17t-63.5 -15t-77 -13.5t-79.5 -11.5q-58 -8 -108.5 -26.5t-81 -52t-30.5 -88.5q0 -47 25 -80t70.5 -50.5t106.5 -17.5
zM467 1206l-209 302h225l149 -302h-165z" />
    <glyph glyph-name="aacute" unicode="&#xe1;" horiz-adv-x="1102" 
d="M446 -18q-106 0 -189.5 36.5t-132 108.5t-48.5 178q0 92 35.5 150.5t95 92.5t135 52t155.5 27q99 12 157.5 19.5t84.5 24.5t26 55v8q0 54 -25 94.5t-73 63.5t-116 23t-119.5 -22.5t-82.5 -60t-38 -83.5l-207 11q13 101 72 174.5t155.5 114t221.5 40.5q90 0 167.5 -23
t135 -68.5t89 -113t31.5 -156.5v-728h-209v150h-5q-22 -42 -61.5 -81t-102 -63t-152.5 -24zM490 153q92 0 153.5 34t92 89.5t30.5 120.5v128q-11 -9 -38 -17t-63.5 -15t-77 -13.5t-79.5 -11.5q-58 -8 -108.5 -26.5t-81 -52t-30.5 -88.5q0 -47 25 -80t70.5 -50.5t106.5 -17.5
zM454 1206l149 302h225l-209 -302h-165z" />
    <glyph glyph-name="acircumflex" unicode="&#xe2;" horiz-adv-x="1102" 
d="M446 -18q-106 0 -189.5 36.5t-132 108.5t-48.5 178q0 92 35.5 150.5t95 92.5t135 52t155.5 27q99 12 157.5 19.5t84.5 24.5t26 55v8q0 54 -25 94.5t-73 63.5t-116 23t-119.5 -22.5t-82.5 -60t-38 -83.5l-207 11q13 101 72 174.5t155.5 114t221.5 40.5q90 0 167.5 -23
t135 -68.5t89 -113t31.5 -156.5v-728h-209v150h-5q-22 -42 -61.5 -81t-102 -63t-152.5 -24zM490 153q92 0 153.5 34t92 89.5t30.5 120.5v128q-11 -9 -38 -17t-63.5 -15t-77 -13.5t-79.5 -11.5q-58 -8 -108.5 -26.5t-81 -52t-30.5 -88.5q0 -47 25 -80t70.5 -50.5t106.5 -17.5
zM402 1225h-193v2l238 281h190l241 -281v-2h-196l-139 173z" />
    <glyph glyph-name="atilde" unicode="&#xe3;" horiz-adv-x="1102" 
d="M446 -18q-106 0 -189.5 36.5t-132 108.5t-48.5 178q0 92 35.5 150.5t95 92.5t135 52t155.5 27q99 12 157.5 19.5t84.5 24.5t26 55v8q0 54 -25 94.5t-73 63.5t-116 23t-119.5 -22.5t-82.5 -60t-38 -83.5l-207 11q13 101 72 174.5t155.5 114t221.5 40.5q90 0 167.5 -23
t135 -68.5t89 -113t31.5 -156.5v-728h-209v150h-5q-22 -42 -61.5 -81t-102 -63t-152.5 -24zM490 153q92 0 153.5 34t92 89.5t30.5 120.5v128q-11 -9 -38 -17t-63.5 -15t-77 -13.5t-79.5 -11.5q-58 -8 -108.5 -26.5t-81 -52t-30.5 -88.5q0 -47 25 -80t70.5 -50.5t106.5 -17.5
zM678 1258q-40 0 -76 13.5t-67.5 31t-57.5 31t-46 13.5q-27 0 -41 -26t-15 -59h-138q3 101 47.5 162.5t127.5 61.5q42 0 76 -13.5t63 -31t55.5 -31t51.5 -13.5q28 0 41.5 20.5t17.5 64.5h134q-3 -103 -49.5 -163.5t-123.5 -60.5z" />
    <glyph glyph-name="adieresis" unicode="&#xe4;" horiz-adv-x="1102" 
d="M446 -18q-106 0 -189.5 36.5t-132 108.5t-48.5 178q0 92 35.5 150.5t95 92.5t135 52t155.5 27q99 12 157.5 19.5t84.5 24.5t26 55v8q0 54 -25 94.5t-73 63.5t-116 23t-119.5 -22.5t-82.5 -60t-38 -83.5l-207 11q13 101 72 174.5t155.5 114t221.5 40.5q90 0 167.5 -23
t135 -68.5t89 -113t31.5 -156.5v-728h-209v150h-5q-22 -42 -61.5 -81t-102 -63t-152.5 -24zM490 153q92 0 153.5 34t92 89.5t30.5 120.5v128q-11 -9 -38 -17t-63.5 -15t-77 -13.5t-79.5 -11.5q-58 -8 -108.5 -26.5t-81 -52t-30.5 -88.5q0 -47 25 -80t70.5 -50.5t106.5 -17.5
zM757 1250q-54 0 -92 38t-38 91q0 54 38 91.5t93 37.5q54 0 92 -37.5t38 -91.5t-38 -91.5t-93 -37.5zM330 1250q-55 0 -93 38t-38 91q0 54 38 91.5t93 37.5t93 -37.5t38 -91.5t-38 -91.5t-93 -37.5z" />
    <glyph glyph-name="aring" unicode="&#xe5;" horiz-adv-x="1102" 
d="M446 -18q-106 0 -189.5 36.5t-132 108.5t-48.5 178q0 92 35.5 150.5t95 92.5t135 52t155.5 27q99 12 157.5 19.5t84.5 24.5t26 55v8q0 54 -25 94.5t-73 63.5t-116 23t-119.5 -22.5t-82.5 -60t-38 -83.5l-207 11q13 101 72 174.5t155.5 114t221.5 40.5q90 0 167.5 -23
t135 -68.5t89 -113t31.5 -156.5v-728h-209v150h-5q-22 -42 -61.5 -81t-102 -63t-152.5 -24zM490 153q92 0 153.5 34t92 89.5t30.5 120.5v128q-11 -9 -38 -17t-63.5 -15t-77 -13.5t-79.5 -11.5q-58 -8 -108.5 -26.5t-81 -52t-30.5 -88.5q0 -47 25 -80t70.5 -50.5t106.5 -17.5
zM543 1155q-70 0 -126.5 31.5t-90 85.5t-33.5 121q0 66 33.5 120t90 86t126.5 32t127 -32t90 -86t33 -120q0 -67 -33 -120.5t-90 -85.5t-127 -32zM543 1281q48 0 80 32.5t32 79.5t-32.5 79.5t-79.5 32.5q-46 0 -79 -32.5t-33 -79.5t33 -79.5t79 -32.5z" />
    <glyph glyph-name="ae" unicode="&#xe6;" horiz-adv-x="1812" 
d="M468 -17q-121 0 -209 39.5t-135.5 112t-47.5 170.5q0 84 37 146t104 103t159 61.5t203 20.5h1045l-90 -51q3 99 -31.5 173t-99 115t-153.5 41t-153.5 -40.5t-100 -113t-35.5 -168.5v-96q0 -103 36 -180t103.5 -119.5t162.5 -42.5q67 0 119.5 20.5t88 58t51.5 87.5l204 -8
q-21 -100 -85.5 -175.5t-162.5 -118t-218 -42.5q-112 0 -201.5 37.5t-152.5 106t-94 158.5l6 518q38 90 100 156.5t145 103t185 36.5q108 0 198.5 -38t157 -110.5t102.5 -175t36 -230.5v-63h-1174q-87 0 -150 -19t-96.5 -57t-33.5 -92q0 -77 55 -115t147 -38t153 33.5
t91.5 89t30.5 120.5v337q0 54 -25 94.5t-73 63.5t-116 23t-119.5 -22.5t-82.5 -60t-38 -83.5l-207 11q12 99 71 172.5t155 115t219 41.5q115 0 199.5 -39.5t132 -114t53.5 -180.5l-21 -522h-28q-22 -64 -61.5 -111t-94 -77.5t-120.5 -46t-141 -15.5z" />
    <glyph glyph-name="ccedilla" unicode="&#xe7;" horiz-adv-x="1113" 
d="M581 -24q-152 0 -266 70.5t-177.5 196t-63.5 289.5q0 165 63.5 291.5t177.5 197.5t266 71q93 0 172.5 -27.5t140.5 -77t99.5 -118t50.5 -150.5l-209 -11q-9 44 -29.5 81t-52.5 63.5t-74.5 41.5t-96.5 15q-93 0 -158.5 -47.5t-99.5 -132.5t-34 -197q0 -110 34 -194.5
t99.5 -131.5t158.5 -47q54 0 96 14.5t73 41.5t52 64.5t31 82.5l211 -11q-11 -82 -50 -150t-100 -118.5t-141 -78.5t-173 -28zM465 -418v110h118q49 0 72 15.5t23 48.5t-23 48.5t-72 15.5h-83l33 227h101v-47l-1 -84q90 -3 139.5 -46.5t49.5 -116.5q0 -88 -61.5 -129.5
t-171.5 -41.5h-124z" />
    <glyph glyph-name="egrave" unicode="&#xe8;" horiz-adv-x="1135" 
d="M583 -24q-158 0 -272.5 71t-175.5 196.5t-61 288.5t63 289.5t175 198.5t258 72q109 0 199.5 -38t156.5 -110.5t102.5 -175t36.5 -230.5v-63h-890v161h779l-96 -50q0 100 -34.5 173.5t-98.5 114t-153 40.5q-88 0 -152.5 -40.5t-100 -113t-35.5 -168.5v-96q0 -103 36 -180
t103.5 -119.5t162.5 -42.5q68 0 120 20.5t87.5 58t51.5 87.5l204 -11q-21 -98 -86 -173t-162.5 -117.5t-217.5 -42.5zM493 1206l-209 302h225l149 -302h-165z" />
    <glyph glyph-name="eacute" unicode="&#xe9;" horiz-adv-x="1135" 
d="M583 -24q-158 0 -272.5 71t-175.5 196.5t-61 288.5t63 289.5t175 198.5t258 72q109 0 199.5 -38t156.5 -110.5t102.5 -175t36.5 -230.5v-63h-890v161h779l-96 -50q0 100 -34.5 173.5t-98.5 114t-153 40.5q-88 0 -152.5 -40.5t-100 -113t-35.5 -168.5v-96q0 -103 36 -180
t103.5 -119.5t162.5 -42.5q68 0 120 20.5t87.5 58t51.5 87.5l204 -11q-21 -98 -86 -173t-162.5 -117.5t-217.5 -42.5zM480 1206l149 302h225l-209 -302h-165z" />
    <glyph glyph-name="ecircumflex" unicode="&#xea;" horiz-adv-x="1135" 
d="M583 -24q-158 0 -272.5 71t-175.5 196.5t-61 288.5t63 289.5t175 198.5t258 72q109 0 199.5 -38t156.5 -110.5t102.5 -175t36.5 -230.5v-63h-890v161h779l-96 -50q0 100 -34.5 173.5t-98.5 114t-153 40.5q-88 0 -152.5 -40.5t-100 -113t-35.5 -168.5v-96q0 -103 36 -180
t103.5 -119.5t162.5 -42.5q68 0 120 20.5t87.5 58t51.5 87.5l204 -11q-21 -98 -86 -173t-162.5 -117.5t-217.5 -42.5zM428 1225h-193v2l238 281h190l241 -281v-2h-196l-139 173z" />
    <glyph glyph-name="edieresis" unicode="&#xeb;" horiz-adv-x="1135" 
d="M583 -24q-158 0 -272.5 71t-175.5 196.5t-61 288.5t63 289.5t175 198.5t258 72q109 0 199.5 -38t156.5 -110.5t102.5 -175t36.5 -230.5v-63h-890v161h779l-96 -50q0 100 -34.5 173.5t-98.5 114t-153 40.5q-88 0 -152.5 -40.5t-100 -113t-35.5 -168.5v-96q0 -103 36 -180
t103.5 -119.5t162.5 -42.5q68 0 120 20.5t87.5 58t51.5 87.5l204 -11q-21 -98 -86 -173t-162.5 -117.5t-217.5 -42.5zM783 1250q-54 0 -92 38t-38 91q0 54 38 91.5t93 37.5q54 0 92 -37.5t38 -91.5t-38 -91.5t-93 -37.5zM356 1250q-55 0 -93 38t-38 91q0 54 38 91.5t93 37.5
t93 -37.5t38 -91.5t-38 -91.5t-93 -37.5z" />
    <glyph glyph-name="igrave" unicode="&#xec;" horiz-adv-x="464" 
d="M125 0v1070h214v-1070h-214zM155 1206l-209 302h225l149 -302h-165z" />
    <glyph glyph-name="iacute" unicode="&#xed;" horiz-adv-x="464" 
d="M125 0v1070h214v-1070h-214zM143 1206l149 302h225l-209 -302h-165z" />
    <glyph glyph-name="icircumflex" unicode="&#xee;" horiz-adv-x="464" 
d="M125 0v1070h214v-1070h-214zM91 1225h-193v2l238 281h190l241 -281v-2h-196l-139 173z" />
    <glyph glyph-name="idieresis" unicode="&#xef;" horiz-adv-x="464" 
d="M125 0v1070h214v-1070h-214zM445 1250q-54 0 -92 38t-38 91q0 54 38 91.5t93 37.5q54 0 92 -37.5t38 -91.5t-38 -91.5t-93 -37.5zM18 1250q-55 0 -93 38t-38 91q0 54 38 91.5t93 37.5t93 -37.5t38 -91.5t-38 -91.5t-93 -37.5z" />
    <glyph glyph-name="eth" unicode="&#xf0;" horiz-adv-x="1155" 
d="M939 1412l-623 -307l-40 119l623 306zM577 -24q-153 1 -266 69.5t-175 189.5t-62 277t59 275.5t161 188t228 68.5q80 0 140.5 -26.5t103 -65.5t68.5 -80h16q-37 94 -108.5 197t-184 200t-271.5 174l61 136q136 -56 266.5 -150.5t236.5 -224.5t168.5 -293t62.5 -357
q0 -180 -62.5 -309.5t-175.5 -198.5t-266 -70zM579 156q97 1 163 47t100.5 125.5t34.5 179.5q0 92 -31 178t-96.5 142t-170.5 56q-98 0 -163.5 -50t-98 -133t-32.5 -183q0 -97 30.5 -179t96 -132t167.5 -51z" />
    <glyph glyph-name="ntilde" unicode="&#xf1;" 
d="M339 620v-620h-214v1070h208l1 -265h-43q50 144 143 214t224 70q110 0 196.5 -47.5t136 -140.5t49.5 -232v-669h-213v643q0 126 -61 191.5t-172 65.5q-72 0 -130 -30t-91.5 -92t-33.5 -158zM717 1258q-40 0 -76 13.5t-67.5 31t-57.5 31t-46 13.5q-27 0 -41 -26t-15 -59
h-138q3 101 47.5 162.5t127.5 61.5q42 0 76 -13.5t63 -31t55.5 -31t51.5 -13.5q28 0 41.5 20.5t17.5 64.5h134q-3 -103 -49.5 -163.5t-123.5 -60.5z" />
    <glyph glyph-name="ograve" unicode="&#xf2;" horiz-adv-x="1166" 
d="M583 -24q-152 0 -267 70.5t-178.5 196t-63.5 289.5q0 166 63.5 292t178.5 197t267 71q153 0 267.5 -71t178 -197t63.5 -292q0 -164 -63.5 -289.5t-178 -196t-267.5 -70.5zM583 159q93 0 158.5 47t100 131.5t34.5 194.5q0 112 -34.5 196.5t-100 132t-158.5 47.5
q-92 0 -158 -47t-100.5 -131.5t-34.5 -197.5q0 -111 34.5 -195t100 -131t158.5 -47zM506 1206l-209 302h225l149 -302h-165z" />
    <glyph glyph-name="oacute" unicode="&#xf3;" horiz-adv-x="1166" 
d="M583 -24q-152 0 -267 70.5t-178.5 196t-63.5 289.5q0 166 63.5 292t178.5 197t267 71q153 0 267.5 -71t178 -197t63.5 -292q0 -164 -63.5 -289.5t-178 -196t-267.5 -70.5zM583 159q93 0 158.5 47t100 131.5t34.5 194.5q0 112 -34.5 196.5t-100 132t-158.5 47.5
q-92 0 -158 -47t-100.5 -131.5t-34.5 -197.5q0 -111 34.5 -195t100 -131t158.5 -47zM494 1206l149 302h225l-209 -302h-165z" />
    <glyph glyph-name="ocircumflex" unicode="&#xf4;" horiz-adv-x="1166" 
d="M583 -24q-152 0 -267 70.5t-178.5 196t-63.5 289.5q0 166 63.5 292t178.5 197t267 71q153 0 267.5 -71t178 -197t63.5 -292q0 -164 -63.5 -289.5t-178 -196t-267.5 -70.5zM583 159q93 0 158.5 47t100 131.5t34.5 194.5q0 112 -34.5 196.5t-100 132t-158.5 47.5
q-92 0 -158 -47t-100.5 -131.5t-34.5 -197.5q0 -111 34.5 -195t100 -131t158.5 -47zM442 1225h-193v2l238 281h190l241 -281v-2h-196l-139 173z" />
    <glyph glyph-name="otilde" unicode="&#xf5;" horiz-adv-x="1166" 
d="M583 -24q-152 0 -267 70.5t-178.5 196t-63.5 289.5q0 166 63.5 292t178.5 197t267 71q153 0 267.5 -71t178 -197t63.5 -292q0 -164 -63.5 -289.5t-178 -196t-267.5 -70.5zM583 159q93 0 158.5 47t100 131.5t34.5 194.5q0 112 -34.5 196.5t-100 132t-158.5 47.5
q-92 0 -158 -47t-100.5 -131.5t-34.5 -197.5q0 -111 34.5 -195t100 -131t158.5 -47zM717 1258q-40 0 -76 13.5t-67.5 31t-57.5 31t-46 13.5q-27 0 -41 -26t-15 -59h-138q3 101 47.5 162.5t127.5 61.5q42 0 76 -13.5t63 -31t55.5 -31t51.5 -13.5q28 0 41.5 20.5t17.5 64.5
h134q-3 -103 -49.5 -163.5t-123.5 -60.5z" />
    <glyph glyph-name="odieresis" unicode="&#xf6;" horiz-adv-x="1166" 
d="M583 -24q-152 0 -267 70.5t-178.5 196t-63.5 289.5q0 166 63.5 292t178.5 197t267 71q153 0 267.5 -71t178 -197t63.5 -292q0 -164 -63.5 -289.5t-178 -196t-267.5 -70.5zM583 159q93 0 158.5 47t100 131.5t34.5 194.5q0 112 -34.5 196.5t-100 132t-158.5 47.5
q-92 0 -158 -47t-100.5 -131.5t-34.5 -197.5q0 -111 34.5 -195t100 -131t158.5 -47zM796 1250q-54 0 -92 38t-38 91q0 54 38 91.5t93 37.5q54 0 92 -37.5t38 -91.5t-38 -91.5t-93 -37.5zM369 1250q-55 0 -93 38t-38 91q0 54 38 91.5t93 37.5t93 -37.5t38 -91.5t-38 -91.5
t-93 -37.5z" />
    <glyph glyph-name="divide" unicode="&#xf7;" horiz-adv-x="1318" 
d="M1138 681v-190h-957v190h957zM658 57q-60 0 -102 42.5t-42 102.5q0 58 42.5 100t101.5 42q60 0 101.5 -42t41.5 -100q0 -60 -42 -102.5t-101 -42.5zM658 829q-59 -1 -101.5 41t-42.5 103q0 59 42.5 101t101.5 42q60 0 101.5 -42t41.5 -101q0 -61 -41.5 -103t-101.5 -41z
" />
    <glyph glyph-name="oslash" unicode="&#xf8;" horiz-adv-x="1166" 
d="M583 -24q-152 0 -267 70.5t-178.5 196t-63.5 289.5q0 166 63.5 292t178.5 197t267 71q153 0 267.5 -71t178 -197t63.5 -292q0 -164 -63.5 -289.5t-178 -196t-267.5 -70.5zM583 159q93 0 158.5 47t100 131.5t34.5 194.5q0 112 -34.5 196.5t-100 132t-158.5 47.5
q-92 0 -158 -47t-100.5 -131.5t-34.5 -197.5q0 -111 34.5 -195t100 -131t158.5 -47zM163 -47l-107 94l947 1069l106 -93z" />
    <glyph glyph-name="ugrave" unicode="&#xf9;" 
d="M507 -19q-109 0 -195.5 47t-136.5 141t-50 231v670h214v-643q0 -126 61.5 -191.5t170.5 -65.5q72 0 130 30t92 92t34 158v620h213v-1070h-208v265h43q-51 -144 -144 -214t-224 -70zM506 1206l-209 302h225l149 -302h-165z" />
    <glyph glyph-name="uacute" unicode="&#xfa;" 
d="M507 -19q-109 0 -195.5 47t-136.5 141t-50 231v670h214v-643q0 -126 61.5 -191.5t170.5 -65.5q72 0 130 30t92 92t34 158v620h213v-1070h-208v265h43q-51 -144 -144 -214t-224 -70zM493 1206l149 302h225l-209 -302h-165z" />
    <glyph glyph-name="ucircumflex" unicode="&#xfb;" 
d="M507 -19q-109 0 -195.5 47t-136.5 141t-50 231v670h214v-643q0 -126 61.5 -191.5t170.5 -65.5q72 0 130 30t92 92t34 158v620h213v-1070h-208v265h43q-51 -144 -144 -214t-224 -70zM442 1225h-193v2l238 281h190l241 -281v-2h-196l-139 173z" />
    <glyph glyph-name="udieresis" unicode="&#xfc;" 
d="M507 -19q-109 0 -195.5 47t-136.5 141t-50 231v670h214v-643q0 -126 61.5 -191.5t170.5 -65.5q72 0 130 30t92 92t34 158v620h213v-1070h-208v265h43q-51 -144 -144 -214t-224 -70zM796 1250q-54 0 -92 38t-38 91q0 54 38 91.5t93 37.5q54 0 92 -37.5t38 -91.5t-38 -91.5
t-93 -37.5zM369 1250q-55 0 -93 38t-38 91q0 54 38 91.5t93 37.5t93 -37.5t38 -91.5t-38 -91.5t-93 -37.5z" />
    <glyph glyph-name="yacute" unicode="&#xfd;" horiz-adv-x="1099" 
d="M133 -414l12 178l94 -2q39 -3 68 8.5t51.5 40t39.5 77.5l43 117l-412 1065h228l213 -592q32 -87 58.5 -174t52.5 -173h-60q26 86 53.5 173t58.5 174l212 592h225l-481 -1248q-30 -80 -75.5 -133.5t-106 -81t-136.5 -27.5q-37 0 -72.5 2t-65.5 4zM456 1206l149 302h225
l-209 -302h-165z" />
    <glyph glyph-name="thorn" unicode="&#xfe;" horiz-adv-x="1199" 
d="M666 -21q-76 0 -137 23t-107.5 64.5t-78.5 96.5h-4v-581h-214v1908h214v-579h5q30 53 76 93t108 62.5t138 22.5q137 0 240.5 -69t161.5 -193.5t58 -291.5t-58 -292t-161 -194.5t-241 -69.5zM622 162q88 0 152 44.5t99.5 128t35.5 200.5q0 118 -35.5 200.5t-99.5 127
t-152 44.5q-91 0 -157.5 -46.5t-102 -129.5t-35.5 -196q0 -112 36 -196t102 -130.5t157 -46.5z" />
    <glyph glyph-name="ydieresis" unicode="&#xff;" horiz-adv-x="1099" 
d="M133 -414l12 178l94 -2q39 -3 68 8.5t51.5 40t39.5 77.5l43 117l-412 1065h228l213 -592q32 -87 58.5 -174t52.5 -173h-60q26 86 53.5 173t58.5 174l212 592h225l-481 -1248q-30 -80 -75.5 -133.5t-106 -81t-136.5 -27.5q-37 0 -72.5 2t-65.5 4zM759 1250q-54 0 -92 38
t-38 91q0 54 38 91.5t93 37.5q54 0 92 -37.5t38 -91.5t-38 -91.5t-93 -37.5zM332 1250q-55 0 -93 38t-38 91q0 54 38 91.5t93 37.5t93 -37.5t38 -91.5t-38 -91.5t-93 -37.5z" />
    <glyph glyph-name="Amacron" unicode="&#x100;" horiz-adv-x="1395" 
d="M24 0l539 1490h270l538 -1490h-243l-287 838q-35 105 -75.5 234.5t-97.5 318.5h59q-56 -190 -96.5 -319.5t-75.5 -233.5l-292 -838h-239zM321 388v189h753v-189h-753zM979 1857v-157h-561v157h561z" />
    <glyph glyph-name="amacron" unicode="&#x101;" horiz-adv-x="1102" 
d="M446 -18q-106 0 -189.5 36.5t-132 108.5t-48.5 178q0 92 35.5 150.5t95 92.5t135 52t155.5 27q99 12 157.5 19.5t84.5 24.5t26 55v8q0 54 -25 94.5t-73 63.5t-116 23t-119.5 -22.5t-82.5 -60t-38 -83.5l-207 11q13 101 72 174.5t155.5 114t221.5 40.5q90 0 167.5 -23
t135 -68.5t89 -113t31.5 -156.5v-728h-209v150h-5q-22 -42 -61.5 -81t-102 -63t-152.5 -24zM490 153q92 0 153.5 34t92 89.5t30.5 120.5v128q-11 -9 -38 -17t-63.5 -15t-77 -13.5t-79.5 -11.5q-58 -8 -108.5 -26.5t-81 -52t-30.5 -88.5q0 -47 25 -80t70.5 -50.5t106.5 -17.5
zM824 1437v-157h-561v157h561z" />
    <glyph glyph-name="Abreve" unicode="&#x102;" horiz-adv-x="1395" 
d="M24 0l539 1490h270l538 -1490h-243l-287 838q-35 105 -75.5 234.5t-97.5 318.5h59q-56 -190 -96.5 -319.5t-75.5 -233.5l-292 -838h-239zM321 388v189h753v-189h-753zM699 1637q-86 0 -155 38.5t-109.5 104.5t-40.5 147h145q0 -68 45 -110.5t115 -42.5t115 42.5t45 110.5
h146q0 -81 -40.5 -146.5t-109.5 -104.5t-156 -39z" />
    <glyph glyph-name="abreve" unicode="&#x103;" horiz-adv-x="1102" 
d="M446 -18q-106 0 -189.5 36.5t-132 108.5t-48.5 178q0 92 35.5 150.5t95 92.5t135 52t155.5 27q99 12 157.5 19.5t84.5 24.5t26 55v8q0 54 -25 94.5t-73 63.5t-116 23t-119.5 -22.5t-82.5 -60t-38 -83.5l-207 11q13 101 72 174.5t155.5 114t221.5 40.5q90 0 167.5 -23
t135 -68.5t89 -113t31.5 -156.5v-728h-209v150h-5q-22 -42 -61.5 -81t-102 -63t-152.5 -24zM490 153q92 0 153.5 34t92 89.5t30.5 120.5v128q-11 -9 -38 -17t-63.5 -15t-77 -13.5t-79.5 -11.5q-58 -8 -108.5 -26.5t-81 -52t-30.5 -88.5q0 -47 25 -80t70.5 -50.5t106.5 -17.5
zM543 1217q-86 0 -155 38.5t-109.5 104.5t-40.5 147h145q0 -68 45 -110.5t115 -42.5t115 42.5t45 110.5h146q0 -81 -40.5 -146.5t-109.5 -104.5t-156 -39z" />
    <glyph glyph-name="Aogonek" unicode="&#x104;" horiz-adv-x="1395" 
d="M24 0l539 1490h270l538 -1490h-243l-287 838q-35 105 -75.5 234.5t-97.5 318.5h59q-56 -190 -96.5 -319.5t-75.5 -233.5l-292 -838h-239zM321 388v189h753v-189h-753zM1239 -422q-105 0 -168.5 49.5t-63.5 145.5q0 79 41.5 137.5t109.5 116.5l213 -27
q-81 -65 -115.5 -106.5t-34.5 -84.5q0 -33 20 -51.5t64 -18.5q16 0 34 2t32 4l14 -155q-31 -5 -70 -8.5t-76 -3.5z" />
    <glyph glyph-name="aogonek" unicode="&#x105;" horiz-adv-x="1102" 
d="M446 -18q-106 0 -189.5 36.5t-132 108.5t-48.5 178q0 92 35.5 150.5t95 92.5t135 52t155.5 27q99 12 157.5 19.5t84.5 24.5t26 55v8q0 54 -25 94.5t-73 63.5t-116 23t-119.5 -22.5t-82.5 -60t-38 -83.5l-207 11q13 101 72 174.5t155.5 114t221.5 40.5q90 0 167.5 -23
t135 -68.5t89 -113t31.5 -156.5v-728h-209v150h-5q-22 -42 -61.5 -81t-102 -63t-152.5 -24zM490 153q92 0 153.5 34t92 89.5t30.5 120.5v128q-11 -9 -38 -17t-63.5 -15t-77 -13.5t-79.5 -11.5q-58 -8 -108.5 -26.5t-81 -52t-30.5 -88.5q0 -47 25 -80t70.5 -50.5t106.5 -17.5
zM846 -420q-104 0 -166.5 50t-62.5 145q0 72 39 128.5t111 112.5l209 -16q-80 -67 -115.5 -106.5t-35.5 -82.5q0 -33 20.5 -51.5t63.5 -18.5q17 0 35 2t32 4l14 -156q-31 -4 -68.5 -7.5t-75.5 -3.5z" />
    <glyph glyph-name="Cacute" unicode="&#x106;" horiz-adv-x="1486" 
d="M778 -23q-203 0 -358.5 95.5t-243.5 268.5t-88 403q0 232 87.5 405t243.5 268.5t359 95.5q121 0 226 -35.5t188 -103.5t137 -163t74 -214h-227q-16 75 -52 133t-87.5 98.5t-117 60.5t-139.5 20q-143 0 -248 -69.5t-162.5 -196.5t-57.5 -299q0 -171 57.5 -297.5
t162.5 -196t248 -69.5q74 0 139 20.5t117 60t88 97.5t53 133h226q-19 -117 -73 -212t-136.5 -163t-188 -104t-227.5 -36zM674 1626l149 302h225l-209 -302h-165z" />
    <glyph glyph-name="cacute" unicode="&#x107;" horiz-adv-x="1113" 
d="M581 -24q-152 0 -266 70.5t-177.5 196t-63.5 289.5q0 165 63.5 291.5t177.5 197.5t266 71q93 0 172.5 -27.5t140.5 -77t99.5 -118t50.5 -150.5l-209 -11q-9 44 -29.5 81t-52.5 63.5t-74.5 41.5t-96.5 15q-93 0 -158.5 -47.5t-99.5 -132.5t-34 -197q0 -110 34 -194.5
t99.5 -131.5t158.5 -47q54 0 96 14.5t73 41.5t52 64.5t31 82.5l211 -11q-11 -82 -50 -150t-100 -118.5t-141 -78.5t-173 -28zM492 1206l149 302h225l-209 -302h-165z" />
    <glyph glyph-name="Ccircumflex" unicode="&#x108;" horiz-adv-x="1486" 
d="M778 -23q-203 0 -358.5 95.5t-243.5 268.5t-88 403q0 232 87.5 405t243.5 268.5t359 95.5q121 0 226 -35.5t188 -103.5t137 -163t74 -214h-227q-16 75 -52 133t-87.5 98.5t-117 60.5t-139.5 20q-143 0 -248 -69.5t-162.5 -196.5t-57.5 -299q0 -171 57.5 -297.5
t162.5 -196t248 -69.5q74 0 139 20.5t117 60t88 97.5t53 133h226q-19 -117 -73 -212t-136.5 -163t-188 -104t-227.5 -36zM623 1645h-193v2l238 281h190l241 -281v-2h-196l-139 173z" />
    <glyph glyph-name="ccircumflex" unicode="&#x109;" horiz-adv-x="1113" 
d="M581 -24q-152 0 -266 70.5t-177.5 196t-63.5 289.5q0 165 63.5 291.5t177.5 197.5t266 71q93 0 172.5 -27.5t140.5 -77t99.5 -118t50.5 -150.5l-209 -11q-9 44 -29.5 81t-52.5 63.5t-74.5 41.5t-96.5 15q-93 0 -158.5 -47.5t-99.5 -132.5t-34 -197q0 -110 34 -194.5
t99.5 -131.5t158.5 -47q54 0 96 14.5t73 41.5t52 64.5t31 82.5l211 -11q-11 -82 -50 -150t-100 -118.5t-141 -78.5t-173 -28zM440 1225h-193v2l238 281h190l241 -281v-2h-196l-139 173z" />
    <glyph glyph-name="Cdotaccent" unicode="&#x10a;" horiz-adv-x="1486" 
d="M778 -23q-203 0 -358.5 95.5t-243.5 268.5t-88 403q0 232 87.5 405t243.5 268.5t359 95.5q121 0 226 -35.5t188 -103.5t137 -163t74 -214h-227q-16 75 -52 133t-87.5 98.5t-117 60.5t-139.5 20q-143 0 -248 -69.5t-162.5 -196.5t-57.5 -299q0 -171 57.5 -297.5
t162.5 -196t248 -69.5q74 0 139 20.5t117 60t88 97.5t53 133h226q-19 -117 -73 -212t-136.5 -163t-188 -104t-227.5 -36zM763 1669q-56 0 -95 38t-39 92t39 92t95 38q57 0 96 -37.5t39 -92.5t-39 -92.5t-96 -37.5z" />
    <glyph glyph-name="cdotaccent" unicode="&#x10b;" horiz-adv-x="1113" 
d="M581 -24q-152 0 -266 70.5t-177.5 196t-63.5 289.5q0 165 63.5 291.5t177.5 197.5t266 71q93 0 172.5 -27.5t140.5 -77t99.5 -118t50.5 -150.5l-209 -11q-9 44 -29.5 81t-52.5 63.5t-74.5 41.5t-96.5 15q-93 0 -158.5 -47.5t-99.5 -132.5t-34 -197q0 -110 34 -194.5
t99.5 -131.5t158.5 -47q54 0 96 14.5t73 41.5t52 64.5t31 82.5l211 -11q-11 -82 -50 -150t-100 -118.5t-141 -78.5t-173 -28zM581 1249q-56 0 -95 38t-39 92t39 92t95 38q57 0 96 -37.5t39 -92.5t-39 -92.5t-96 -37.5z" />
    <glyph glyph-name="Ccaron" unicode="&#x10c;" horiz-adv-x="1486" 
d="M778 -23q-203 0 -358.5 95.5t-243.5 268.5t-88 403q0 232 87.5 405t243.5 268.5t359 95.5q121 0 226 -35.5t188 -103.5t137 -163t74 -214h-227q-16 75 -52 133t-87.5 98.5t-117 60.5t-139.5 20q-143 0 -248 -69.5t-162.5 -196.5t-57.5 -299q0 -171 57.5 -297.5
t162.5 -196t248 -69.5q74 0 139 20.5t117 60t88 97.5t53 133h226q-19 -117 -73 -212t-136.5 -163t-188 -104t-227.5 -36zM623 1928l141 -173l139 173h196v-2l-241 -281h-190l-238 281v2h193z" />
    <glyph glyph-name="ccaron" unicode="&#x10d;" horiz-adv-x="1113" 
d="M581 -24q-152 0 -266 70.5t-177.5 196t-63.5 289.5q0 165 63.5 291.5t177.5 197.5t266 71q93 0 172.5 -27.5t140.5 -77t99.5 -118t50.5 -150.5l-209 -11q-9 44 -29.5 81t-52.5 63.5t-74.5 41.5t-96.5 15q-93 0 -158.5 -47.5t-99.5 -132.5t-34 -197q0 -110 34 -194.5
t99.5 -131.5t158.5 -47q54 0 96 14.5t73 41.5t52 64.5t31 82.5l211 -11q-11 -82 -50 -150t-100 -118.5t-141 -78.5t-173 -28zM440 1508l141 -173l139 173h196v-2l-241 -281h-190l-238 281v2h193z" />
    <glyph glyph-name="Dcaron" unicode="&#x10e;" horiz-adv-x="1433" 
d="M625 0h-368v195h355q172 0 285 65t169 189t56 298q0 173 -55.5 295.5t-165.5 187.5t-276 65h-375v195h390q219 0 377 -89.5t243 -256t85 -397.5q0 -232 -85.5 -399.5t-246 -257.5t-388.5 -90zM366 1490v-1490h-224v1490h224zM450 1928l141 -173l139 173h196v-2l-241 -281
h-190l-238 281v2h193z" />
    <glyph glyph-name="dcaron" unicode="&#x10f;" horiz-adv-x="1417" 
d="M534 -21q-137 0 -241 69.5t-161.5 194.5t-57.5 292t58 291.5t161.5 193.5t239.5 69q77 0 138.5 -22.5t108 -62.5t76.5 -93h5v579h213v-1490h-209v164h-6q-31 -56 -78.5 -97.5t-109 -64.5t-137.5 -23zM578 162q91 0 157 46.5t101.5 130.5t35.5 196q0 113 -35.5 196
t-101.5 129.5t-157 46.5q-88 0 -152.5 -44.5t-100 -127t-35.5 -200.5q0 -117 35.5 -200.5t100.5 -128t152 -44.5zM1211 1182v380h194l-52 -380h-142z" />
    <glyph glyph-name="Dcroat" unicode="&#x110;" horiz-adv-x="1504" 
d="M696 0h-368v195h355q172 0 285 65t169 189t56 298q0 173 -55.5 295.5t-165.5 187.5t-276 65h-375v195h390q219 0 377 -89.5t243 -256t85 -397.5q0 -232 -85.5 -399.5t-246 -257.5t-388.5 -90zM437 1490v-1490h-224v1490h224zM22 657v176h779v-176h-779z" />
    <glyph glyph-name="dcroat" unicode="&#x111;" horiz-adv-x="1199" 
d="M534 -21q-137 0 -241 69.5t-161.5 194.5t-57.5 292t58 291.5t161.5 193.5t239.5 69q77 0 138.5 -22.5t108 -62.5t76.5 -93h5v579h213v-1490h-209v164h-6q-31 -56 -78.5 -97.5t-109 -64.5t-137.5 -23zM578 162q91 0 157 46.5t101.5 130.5t35.5 196q0 113 -35.5 196
t-101.5 129.5t-157 46.5q-88 0 -152.5 -44.5t-100 -127t-35.5 -200.5q0 -117 35.5 -200.5t100.5 -128t152 -44.5zM541 1192v158h678v-158h-678z" />
    <glyph glyph-name="Emacron" unicode="&#x112;" horiz-adv-x="1213" 
d="M142 0v1490h988v-195h-764v-441h708v-193h-708v-466h766v-195h-990zM917 1857v-157h-561v157h561z" />
    <glyph glyph-name="emacron" unicode="&#x113;" horiz-adv-x="1135" 
d="M583 -24q-158 0 -272.5 71t-175.5 196.5t-61 288.5t63 289.5t175 198.5t258 72q109 0 199.5 -38t156.5 -110.5t102.5 -175t36.5 -230.5v-63h-890v161h779l-96 -50q0 100 -34.5 173.5t-98.5 114t-153 40.5q-88 0 -152.5 -40.5t-100 -113t-35.5 -168.5v-96q0 -103 36 -180
t103.5 -119.5t162.5 -42.5q68 0 120 20.5t87.5 58t51.5 87.5l204 -11q-21 -98 -86 -173t-162.5 -117.5t-217.5 -42.5zM850 1437v-157h-561v157h561z" />
    <glyph glyph-name="Ebreve" unicode="&#x114;" horiz-adv-x="1213" 
d="M142 0v1490h988v-195h-764v-441h708v-193h-708v-466h766v-195h-990zM636 1637q-86 0 -155 38.5t-109.5 104.5t-40.5 147h145q0 -68 45 -110.5t115 -42.5t115 42.5t45 110.5h146q0 -81 -40.5 -146.5t-109.5 -104.5t-156 -39z" />
    <glyph glyph-name="ebreve" unicode="&#x115;" horiz-adv-x="1135" 
d="M583 -24q-158 0 -272.5 71t-175.5 196.5t-61 288.5t63 289.5t175 198.5t258 72q109 0 199.5 -38t156.5 -110.5t102.5 -175t36.5 -230.5v-63h-890v161h779l-96 -50q0 100 -34.5 173.5t-98.5 114t-153 40.5q-88 0 -152.5 -40.5t-100 -113t-35.5 -168.5v-96q0 -103 36 -180
t103.5 -119.5t162.5 -42.5q68 0 120 20.5t87.5 58t51.5 87.5l204 -11q-21 -98 -86 -173t-162.5 -117.5t-217.5 -42.5zM569 1217q-86 0 -155 38.5t-109.5 104.5t-40.5 147h145q0 -68 45 -110.5t115 -42.5t115 42.5t45 110.5h146q0 -81 -40.5 -146.5t-109.5 -104.5t-156 -39z
" />
    <glyph glyph-name="Edotaccent" unicode="&#x116;" horiz-adv-x="1213" 
d="M142 0v1490h988v-195h-764v-441h708v-193h-708v-466h766v-195h-990zM636 1669q-56 0 -95 38t-39 92t39 92t95 38q57 0 96 -37.5t39 -92.5t-39 -92.5t-96 -37.5z" />
    <glyph glyph-name="edotaccent" unicode="&#x117;" horiz-adv-x="1135" 
d="M583 -24q-158 0 -272.5 71t-175.5 196.5t-61 288.5t63 289.5t175 198.5t258 72q109 0 199.5 -38t156.5 -110.5t102.5 -175t36.5 -230.5v-63h-890v161h779l-96 -50q0 100 -34.5 173.5t-98.5 114t-153 40.5q-88 0 -152.5 -40.5t-100 -113t-35.5 -168.5v-96q0 -103 36 -180
t103.5 -119.5t162.5 -42.5q68 0 120 20.5t87.5 58t51.5 87.5l204 -11q-21 -98 -86 -173t-162.5 -117.5t-217.5 -42.5zM569 1249q-56 0 -95 38t-39 92t39 92t95 38q57 0 96 -37.5t39 -92.5t-39 -92.5t-96 -37.5z" />
    <glyph glyph-name="Eogonek" unicode="&#x118;" horiz-adv-x="1213" 
d="M142 0v1490h988v-195h-764v-441h708v-193h-708v-466h766v-195h-990zM1002 -422q-104 0 -166.5 50t-62.5 145q0 78 46.5 143t148.5 128l164 -44q-81 -65 -116 -106.5t-35 -84.5q0 -33 20.5 -51.5t63.5 -18.5q17 0 35 2t32 4l14 -155q-31 -5 -68.5 -8.5t-75.5 -3.5z" />
    <glyph glyph-name="eogonek" unicode="&#x119;" horiz-adv-x="1135" 
d="M583 -24q-158 0 -272.5 71t-175.5 196.5t-61 288.5t63 289.5t175 198.5t258 72q109 0 199.5 -38t156.5 -110.5t102.5 -175t36.5 -230.5v-63h-890v161h779l-96 -50q0 100 -34.5 173.5t-98.5 114t-153 40.5q-88 0 -152.5 -40.5t-100 -113t-35.5 -168.5v-96q0 -103 36 -180
t103.5 -119.5t162.5 -42.5q68 0 120 20.5t87.5 58t51.5 87.5l204 -11q-21 -98 -86 -173t-162.5 -117.5t-217.5 -42.5zM834 -422q-115 0 -177.5 49t-62.5 143q0 38 10.5 73t28 67.5t40 64t47.5 62.5l329 272q-16 -78 -56 -147.5t-84 -131t-76 -116.5t-32 -105
q0 -33 20.5 -51.5t73.5 -18.5q17 0 35 2t32 4l14 -155q-31 -5 -68 -8.5t-74 -3.5z" />
    <glyph glyph-name="Ecaron" unicode="&#x11a;" horiz-adv-x="1213" 
d="M142 0v1490h988v-195h-764v-441h708v-193h-708v-466h766v-195h-990zM496 1928l141 -173l139 173h196v-2l-241 -281h-190l-238 281v2h193z" />
    <glyph glyph-name="ecaron" unicode="&#x11b;" horiz-adv-x="1135" 
d="M583 -24q-158 0 -272.5 71t-175.5 196.5t-61 288.5t63 289.5t175 198.5t258 72q109 0 199.5 -38t156.5 -110.5t102.5 -175t36.5 -230.5v-63h-890v161h779l-96 -50q0 100 -34.5 173.5t-98.5 114t-153 40.5q-88 0 -152.5 -40.5t-100 -113t-35.5 -168.5v-96q0 -103 36 -180
t103.5 -119.5t162.5 -42.5q68 0 120 20.5t87.5 58t51.5 87.5l204 -11q-21 -98 -86 -173t-162.5 -117.5t-217.5 -42.5zM428 1508l141 -173l139 173h196v-2l-241 -281h-190l-238 281v2h193z" />
    <glyph glyph-name="Gcircumflex" unicode="&#x11c;" horiz-adv-x="1507" 
d="M776 -23q-203 0 -357.5 96.5t-242.5 269.5t-88 401q0 232 88.5 405t243.5 268.5t352 95.5q122 0 228.5 -36.5t190 -104.5t138.5 -160.5t72 -205.5h-227q-17 68 -52.5 124t-87.5 96t-117.5 61.5t-141.5 21.5q-138 0 -242 -69.5t-162.5 -196.5t-58.5 -299
q0 -171 58.5 -297.5t163.5 -196t244 -69.5q118 0 211.5 50t147.5 140t54 210l63 -5h-430v185h587v-170q0 -180 -83 -318.5t-226.5 -217t-325.5 -78.5zM621 1645h-193v2l238 281h190l241 -281v-2h-196l-139 173z" />
    <glyph glyph-name="gcircumflex" unicode="&#x11d;" horiz-adv-x="1200" 
d="M588 -434q-130 0 -227.5 37t-158 106.5t-78.5 164.5l205 20q15 -47 49.5 -82t87 -54t121.5 -19q128 0 202 67t74 195v173h-5q-33 -55 -79 -96t-107.5 -63t-138.5 -22q-136 0 -239.5 68t-161.5 190.5t-58 286.5q0 165 58 289t162 193t239 69q77 0 139 -22.5t109.5 -64
t79.5 -98.5h4v166h209v-1063q0 -157 -65 -254t-175.5 -142t-245.5 -45zM578 174q91 0 157 45t102 127.5t36 193.5t-36 193.5t-102 128.5t-157 46q-87 0 -152 -44t-100.5 -126t-35.5 -198q0 -117 35.5 -198.5t100.5 -124.5t152 -43zM435 1225h-193v2l238 281h190l241 -281v-2
h-196l-139 173z" />
    <glyph glyph-name="Gbreve" unicode="&#x11e;" horiz-adv-x="1507" 
d="M776 -23q-203 0 -357.5 96.5t-242.5 269.5t-88 401q0 232 88.5 405t243.5 268.5t352 95.5q122 0 228.5 -36.5t190 -104.5t138.5 -160.5t72 -205.5h-227q-17 68 -52.5 124t-87.5 96t-117.5 61.5t-141.5 21.5q-138 0 -242 -69.5t-162.5 -196.5t-58.5 -299
q0 -171 58.5 -297.5t163.5 -196t244 -69.5q118 0 211.5 50t147.5 140t54 210l63 -5h-430v185h587v-170q0 -180 -83 -318.5t-226.5 -217t-325.5 -78.5zM762 1637q-86 0 -155 38.5t-109.5 104.5t-40.5 147h145q0 -68 45 -110.5t115 -42.5t115 42.5t45 110.5h146
q0 -81 -40.5 -146.5t-109.5 -104.5t-156 -39z" />
    <glyph glyph-name="gbreve" unicode="&#x11f;" horiz-adv-x="1200" 
d="M588 -434q-130 0 -227.5 37t-158 106.5t-78.5 164.5l205 20q15 -47 49.5 -82t87 -54t121.5 -19q128 0 202 67t74 195v173h-5q-33 -55 -79 -96t-107.5 -63t-138.5 -22q-136 0 -239.5 68t-161.5 190.5t-58 286.5q0 165 58 289t162 193t239 69q77 0 139 -22.5t109.5 -64
t79.5 -98.5h4v166h209v-1063q0 -157 -65 -254t-175.5 -142t-245.5 -45zM578 174q91 0 157 45t102 127.5t36 193.5t-36 193.5t-102 128.5t-157 46q-87 0 -152 -44t-100.5 -126t-35.5 -198q0 -117 35.5 -198.5t100.5 -124.5t152 -43zM576 1217q-86 0 -155 38.5t-109.5 104.5
t-40.5 147h145q0 -68 45 -110.5t115 -42.5t115 42.5t45 110.5h146q0 -81 -40.5 -146.5t-109.5 -104.5t-156 -39z" />
    <glyph glyph-name="Gdotaccent" unicode="&#x120;" horiz-adv-x="1507" 
d="M776 -23q-203 0 -357.5 96.5t-242.5 269.5t-88 401q0 232 88.5 405t243.5 268.5t352 95.5q122 0 228.5 -36.5t190 -104.5t138.5 -160.5t72 -205.5h-227q-17 68 -52.5 124t-87.5 96t-117.5 61.5t-141.5 21.5q-138 0 -242 -69.5t-162.5 -196.5t-58.5 -299
q0 -171 58.5 -297.5t163.5 -196t244 -69.5q118 0 211.5 50t147.5 140t54 210l63 -5h-430v185h587v-170q0 -180 -83 -318.5t-226.5 -217t-325.5 -78.5zM762 1669q-56 0 -95 38t-39 92t39 92t95 38q57 0 96 -37.5t39 -92.5t-39 -92.5t-96 -37.5z" />
    <glyph glyph-name="gdotaccent" unicode="&#x121;" horiz-adv-x="1200" 
d="M588 -434q-130 0 -227.5 37t-158 106.5t-78.5 164.5l205 20q15 -47 49.5 -82t87 -54t121.5 -19q128 0 202 67t74 195v173h-5q-33 -55 -79 -96t-107.5 -63t-138.5 -22q-136 0 -239.5 68t-161.5 190.5t-58 286.5q0 165 58 289t162 193t239 69q77 0 139 -22.5t109.5 -64
t79.5 -98.5h4v166h209v-1063q0 -157 -65 -254t-175.5 -142t-245.5 -45zM578 174q91 0 157 45t102 127.5t36 193.5t-36 193.5t-102 128.5t-157 46q-87 0 -152 -44t-100.5 -126t-35.5 -198q0 -117 35.5 -198.5t100.5 -124.5t152 -43zM576 1249q-56 0 -95 38t-39 92t39 92
t95 38q57 0 96 -37.5t39 -92.5t-39 -92.5t-96 -37.5z" />
    <glyph glyph-name="uni0122" unicode="&#x122;" horiz-adv-x="1507" 
d="M776 -23q-203 0 -357.5 96.5t-242.5 269.5t-88 401q0 232 88.5 405t243.5 268.5t352 95.5q122 0 228.5 -36.5t190 -104.5t138.5 -160.5t72 -205.5h-227q-17 68 -52.5 124t-87.5 96t-117.5 61.5t-141.5 21.5q-138 0 -242 -69.5t-162.5 -196.5t-58.5 -299
q0 -171 58.5 -297.5t163.5 -196t244 -69.5q118 0 211.5 50t147.5 140t54 210l63 -5h-430v185h587v-170q0 -180 -83 -318.5t-226.5 -217t-325.5 -78.5zM572 -489l83 371h211l-136 -371h-158z" />
    <glyph glyph-name="uni0123" unicode="&#x123;" horiz-adv-x="1200" 
d="M588 -434q-130 0 -227.5 37t-158 106.5t-78.5 164.5l205 20q15 -47 49.5 -82t87 -54t121.5 -19q128 0 202 67t74 195v173h-5q-33 -55 -79 -96t-107.5 -63t-138.5 -22q-136 0 -239.5 68t-161.5 190.5t-58 286.5q0 165 58 289t162 193t239 69q77 0 139 -22.5t109.5 -64
t79.5 -98.5h4v166h209v-1063q0 -157 -65 -254t-175.5 -142t-245.5 -45zM578 174q91 0 157 45t102 127.5t36 193.5t-36 193.5t-102 128.5t-157 46q-87 0 -152 -44t-100.5 -126t-35.5 -198q0 -117 35.5 -198.5t100.5 -124.5t152 -43zM488 1202v132q0 78 22.5 138.5t53.5 104
t56 70.5l126 -83q-34 -58 -58.5 -110.5t-24.5 -129.5v-122h-175z" />
    <glyph glyph-name="Hcircumflex" unicode="&#x124;" horiz-adv-x="1472" 
d="M142 0v1490h224v-631h740v631h224v-1490h-224v664h-740v-664h-224zM595 1645h-193v2l238 281h190l241 -281v-2h-196l-139 173z" />
    <glyph glyph-name="hcircumflex" unicode="&#x125;" 
d="M339 620v-620h-214v1490h213v-685h-47q50 144 143 214t224 70q110 0 196.5 -47.5t136 -140.5t49.5 -232v-669h-213v643q0 126 -61 191.5t-172 65.5q-72 0 -130 -30t-91.5 -92t-33.5 -158zM90 1645h-193v2l238 281h190l241 -281v-2h-196l-139 173z" />
    <glyph glyph-name="Hbar" unicode="&#x126;" horiz-adv-x="1545" 
d="M1488 1193v-160h-1430v160h1430zM178 0v1490h224v-631h740v631h224v-1490h-224v664h-740v-664h-224z" />
    <glyph glyph-name="hbar" unicode="&#x127;" 
d="M339 620v-620h-214v1490h213v-685h-47q50 144 143 214t224 70q110 0 196.5 -47.5t136 -140.5t49.5 -232v-669h-213v643q0 126 -61 191.5t-172 65.5q-72 0 -130 -30t-91.5 -92t-33.5 -158zM-22 1192v158h678v-158h-678z" />
    <glyph glyph-name="Itilde" unicode="&#x128;" horiz-adv-x="508" 
d="M366 1490v-1490h-224v1490h224zM389 1678q-40 0 -76 13.5t-67.5 31t-57.5 31t-46 13.5q-27 0 -41 -26t-15 -59h-138q3 101 47.5 162.5t127.5 61.5q42 0 76 -13.5t63 -31t55.5 -31t51.5 -13.5q28 0 41.5 20.5t17.5 64.5h134q-3 -103 -49.5 -163.5t-123.5 -60.5z" />
    <glyph glyph-name="itilde" unicode="&#x129;" horiz-adv-x="464" 
d="M125 0v1070h214v-1070h-214zM367 1258q-40 0 -76 13.5t-67.5 31t-57.5 31t-46 13.5q-27 0 -41 -26t-15 -59h-138q3 101 47.5 162.5t127.5 61.5q42 0 76 -13.5t63 -31t55.5 -31t51.5 -13.5q28 0 41.5 20.5t17.5 64.5h134q-3 -103 -49.5 -163.5t-123.5 -60.5z" />
    <glyph glyph-name="Imacron" unicode="&#x12a;" horiz-adv-x="508" 
d="M366 1490v-1490h-224v1490h224zM534 1857v-157h-561v157h561z" />
    <glyph glyph-name="imacron" unicode="&#x12b;" horiz-adv-x="464" 
d="M125 0v1070h214v-1070h-214zM512 1437v-157h-561v157h561z" />
    <glyph glyph-name="Ibreve" unicode="&#x12c;" horiz-adv-x="508" 
d="M366 1490v-1490h-224v1490h224zM254 1637q-86 0 -155 38.5t-109.5 104.5t-40.5 147h145q0 -68 45 -110.5t115 -42.5t115 42.5t45 110.5h146q0 -81 -40.5 -146.5t-109.5 -104.5t-156 -39z" />
    <glyph glyph-name="ibreve" unicode="&#x12d;" horiz-adv-x="464" 
d="M125 0v1070h214v-1070h-214zM232 1217q-86 0 -155 38.5t-109.5 104.5t-40.5 147h145q0 -68 45 -110.5t115 -42.5t115 42.5t45 110.5h146q0 -81 -40.5 -146.5t-109.5 -104.5t-156 -39z" />
    <glyph glyph-name="Iogonek" unicode="&#x12e;" horiz-adv-x="508" 
d="M366 1490v-1490h-224v1490h224zM236 -422q-104 0 -166.5 50t-62.5 145q0 78 46.5 143t148.5 128l164 -44q-81 -65 -116 -106.5t-35 -84.5q0 -33 20.5 -51.5t63.5 -18.5q17 0 35 2t32 4l14 -155q-31 -5 -68.5 -8.5t-75.5 -3.5z" />
    <glyph glyph-name="iogonek" unicode="&#x12f;" horiz-adv-x="464" 
d="M125 0v1070h214v-1070h-214zM209 -422q-104 0 -166.5 50t-62.5 145q0 78 46.5 143t148.5 128l164 -44q-81 -65 -116 -106.5t-35 -84.5q0 -33 20.5 -51.5t63.5 -18.5q17 0 35 2t32 4l14 -155q-31 -5 -68.5 -8.5t-75.5 -3.5zM232 1249q-56 0 -95 38t-39 92t39 92t95 38
q57 0 96 -37.5t39 -92.5t-39 -92.5t-96 -37.5z" />
    <glyph glyph-name="Idotaccent" unicode="&#x130;" horiz-adv-x="508" 
d="M366 1490v-1490h-224v1490h224zM254 1669q-56 0 -95 38t-39 92t39 92t95 38q57 0 96 -37.5t39 -92.5t-39 -92.5t-96 -37.5z" />
    <glyph glyph-name="dotlessi" unicode="&#x131;" horiz-adv-x="464" 
d="M125 0v1070h214v-1070h-214z" />
    <glyph glyph-name="IJ" unicode="&#x132;" horiz-adv-x="1636" 
d="M366 1490v-1490h-224v1490h224zM1039 -21q-205 0 -331 118t-126 336v86h219v-87q0 -127 65 -193t172 -66q108 0 172.5 66t64.5 193v1058h224v-1058q0 -218 -126.5 -335.5t-333.5 -117.5z" />
    <glyph glyph-name="ij" unicode="&#x133;" horiz-adv-x="928" 
d="M125 0v1070h214v-1070h-214zM232 1249q-56 0 -95 38t-39 92t39 92t95 38q57 0 96 -37.5t39 -92.5t-39 -92.5t-96 -37.5zM589 1070h214v-1186q0 -91 -36.5 -159.5t-106.5 -105.5t-173 -37h-78v180h55q66 0 95.5 35t29.5 109v1164zM696 1249q-56 0 -95 38t-39 92t39 92
t95 38q57 0 96 -37.5t39 -92.5t-39 -92.5t-96 -37.5z" />
    <glyph glyph-name="Jcircumflex" unicode="&#x134;" horiz-adv-x="1128" 
d="M531 -21q-205 0 -331 118t-126 336v86h219v-87q0 -127 65 -193t172 -66q108 0 172.5 66t64.5 193v1058h224v-1058q0 -218 -126.5 -335.5t-333.5 -117.5zM738 1645h-193v2l238 281h190l241 -281v-2h-196l-139 173z" />
    <glyph glyph-name="jcircumflex" unicode="&#x135;" horiz-adv-x="464" 
d="M125 1070h214v-1186q0 -91 -36.5 -159.5t-106.5 -105.5t-173 -37h-78v180h55q66 0 95.5 35t29.5 109v1164zM91 1225h-193v2l238 281h190l241 -281v-2h-196l-139 173z" />
    <glyph glyph-name="uni0136" unicode="&#x136;" horiz-adv-x="1350" 
d="M299 390v271q51 63 102 123t103.5 119.5t106.5 119.5l422 467h284l-634 -695l-14 1zM142 0v1490h224v-482l-1 -337l1 -108v-563h-224zM1060 0l-512 734l137 173l637 -907h-262zM495 -489l83 371h211l-136 -371h-158z" />
    <glyph glyph-name="uni0137" unicode="&#x137;" horiz-adv-x="1085" 
d="M322 360v254h23l449 456h262l-503 -517h-34zM125 0v1490h214v-1490h-214zM824 0l-397 505l146 149l513 -654h-262zM374 -489l83 371h211l-136 -371h-158z" />
    <glyph glyph-name="kgreenlandic" unicode="&#x138;" horiz-adv-x="1061" 
d="M339 1070v-1070h-214v1070h214zM1062 1070l-529 -625h-259l-6 176h168l370 449h256zM794 0l-379 453l133 143l508 -596h-262z" />
    <glyph glyph-name="Lacute" unicode="&#x139;" horiz-adv-x="1121" 
d="M142 0v1490h224v-1295h698v-195h-922zM165 1626l149 302h225l-209 -302h-165z" />
    <glyph glyph-name="lacute" unicode="&#x13a;" horiz-adv-x="464" 
d="M339 1490v-1490h-214v1490h214zM143 1626l149 302h225l-209 -302h-165z" />
    <glyph glyph-name="uni013B" unicode="&#x13b;" horiz-adv-x="1121" 
d="M142 0v1490h224v-1295h698v-195h-922zM402 -489l83 371h211l-136 -371h-158z" />
    <glyph glyph-name="uni013C" unicode="&#x13c;" horiz-adv-x="464" 
d="M339 1490v-1490h-214v1490h214zM42 -489l83 371h211l-136 -371h-158z" />
    <glyph glyph-name="Lcaron" unicode="&#x13d;" horiz-adv-x="1121" 
d="M142 0v1490h224v-1295h698v-195h-922zM609 1182v380h194l-52 -380h-142z" />
    <glyph glyph-name="lcaron" unicode="&#x13e;" horiz-adv-x="682" 
d="M339 1490v-1490h-214v1490h214zM477 1182v380h194l-52 -380h-142z" />
    <glyph glyph-name="Ldot" unicode="&#x13f;" horiz-adv-x="1117" 
d="M143 0v1490h224v-1295h698v-195h-922zM698 697q-56 0 -95 38t-39 92t39 92t95 38q57 0 96 -37.5t39 -92.5t-39 -92.5t-96 -37.5z" />
    <glyph glyph-name="ldot" unicode="&#x140;" horiz-adv-x="747" 
d="M339 1490v-1490h-214v1490h214zM597 603q-59 0 -100.5 41.5t-41.5 100.5t41.5 100t100.5 41t100 -41t41 -100t-41 -100.5t-100 -41.5z" />
    <glyph glyph-name="Lslash" unicode="&#x141;" horiz-adv-x="1188" 
d="M209 0v1490h224v-1295h698v-195h-922zM23 443v210l774 447v-210z" />
    <glyph glyph-name="lslash" unicode="&#x142;" horiz-adv-x="464" 
d="M339 1490v-1490h-214v1490h214zM-38 586v180l538 312v-180z" />
    <glyph glyph-name="Nacute" unicode="&#x143;" horiz-adv-x="1483" 
d="M142 0v1490h250l567 -898q22 -34 54.5 -89.5t69 -121t70.5 -131.5l-24 -39q-4 64 -7 142t-4 148.5t-1 110.5v878h224v-1490h-251l-508 802q-27 44 -65.5 108t-88 149.5t-109.5 189.5l33 34q6 -113 9 -206.5t4.5 -163t1.5 -109.5v-804h-225zM653 1626l149 302h225
l-209 -302h-165z" />
    <glyph glyph-name="nacute" unicode="&#x144;" 
d="M339 620v-620h-214v1070h208l1 -265h-43q50 144 143 214t224 70q110 0 196.5 -47.5t136 -140.5t49.5 -232v-669h-213v643q0 126 -61 191.5t-172 65.5q-72 0 -130 -30t-91.5 -92t-33.5 -158zM493 1206l149 302h225l-209 -302h-165z" />
    <glyph glyph-name="uni0145" unicode="&#x145;" horiz-adv-x="1483" 
d="M142 0v1490h250l567 -898q22 -34 54.5 -89.5t69 -121t70.5 -131.5l-24 -39q-4 64 -7 142t-4 148.5t-1 110.5v878h224v-1490h-251l-508 802q-27 44 -65.5 108t-88 149.5t-109.5 189.5l33 34q6 -113 9 -206.5t4.5 -163t1.5 -109.5v-804h-225zM553 -489l83 371h211
l-136 -371h-158z" />
    <glyph glyph-name="uni0146" unicode="&#x146;" 
d="M339 620v-620h-214v1070h208l1 -265h-43q50 144 143 214t224 70q110 0 196.5 -47.5t136 -140.5t49.5 -232v-669h-213v643q0 126 -61 191.5t-172 65.5q-72 0 -130 -30t-91.5 -92t-33.5 -158zM393 -489l83 371h211l-136 -371h-158z" />
    <glyph glyph-name="Ncaron" unicode="&#x147;" horiz-adv-x="1483" 
d="M142 0v1490h250l567 -898q22 -34 54.5 -89.5t69 -121t70.5 -131.5l-24 -39q-4 64 -7 142t-4 148.5t-1 110.5v878h224v-1490h-251l-508 802q-27 44 -65.5 108t-88 149.5t-109.5 189.5l33 34q6 -113 9 -206.5t4.5 -163t1.5 -109.5v-804h-225zM601 1928l141 -173l139 173
h196v-2l-241 -281h-190l-238 281v2h193z" />
    <glyph glyph-name="ncaron" unicode="&#x148;" 
d="M339 620v-620h-214v1070h208l1 -265h-43q50 144 143 214t224 70q110 0 196.5 -47.5t136 -140.5t49.5 -232v-669h-213v643q0 126 -61 191.5t-172 65.5q-72 0 -130 -30t-91.5 -92t-33.5 -158zM441 1508l141 -173l139 173h196v-2l-241 -281h-190l-238 281v2h193z" />
    <glyph glyph-name="Eng" unicode="&#x14a;" horiz-adv-x="1483" 
d="M906 -418v185q17 -1 48 -1h50q64 0 89.5 23t25.5 74v263h224v-274q0 -134 -78.5 -203.5t-231.5 -69.5q-39 0 -72 1t-55 2zM142 0v1490h250l567 -898q22 -34 54.5 -89.5t69 -121t70.5 -131.5l-24 -39q-4 64 -7 142t-4 148.5t-1 110.5v878h224v-1490h-251l-508 802
q-27 44 -65.5 108t-88 149.5t-109.5 189.5l33 34q6 -113 9 -206.5t4.5 -163t1.5 -109.5v-804h-225z" />
    <glyph glyph-name="eng" unicode="&#x14b;" 
d="M611 -418v184q19 0 51 -0.5t49 -0.5q65 0 90.5 23.5t25.5 74.5v137h213v-148q0 -134 -77.5 -203.5t-230.5 -69.5q-39 0 -69 1t-52 2zM339 620v-620h-214v1070h208l1 -265h-43q50 144 143 214t224 70q110 0 196.5 -47.5t136 -140.5t49.5 -232v-669h-213v643
q0 126 -61 191.5t-172 65.5q-72 0 -130 -30t-91.5 -92t-33.5 -158z" />
    <glyph glyph-name="Omacron" unicode="&#x14c;" horiz-adv-x="1541" 
d="M771 -23q-197 0 -351.5 96t-243 268.5t-88.5 402.5q0 232 88.5 404.5t243 268.5t351.5 96t351 -96t242.5 -268.5t88.5 -404.5q0 -230 -88.5 -402.5t-242.5 -268.5t-351 -96zM771 181q128 0 232 65t165 191t61 307q0 182 -61 308.5t-165 191.5t-232 65t-232 -65
t-165.5 -191.5t-61.5 -308.5q0 -181 61.5 -307t165.5 -191t232 -65zM1051 1857v-157h-561v157h561z" />
    <glyph glyph-name="omacron" unicode="&#x14d;" horiz-adv-x="1166" 
d="M583 -24q-152 0 -267 70.5t-178.5 196t-63.5 289.5q0 166 63.5 292t178.5 197t267 71q153 0 267.5 -71t178 -197t63.5 -292q0 -164 -63.5 -289.5t-178 -196t-267.5 -70.5zM583 159q93 0 158.5 47t100 131.5t34.5 194.5q0 112 -34.5 196.5t-100 132t-158.5 47.5
q-92 0 -158 -47t-100.5 -131.5t-34.5 -197.5q0 -111 34.5 -195t100 -131t158.5 -47zM863 1437v-157h-561v157h561z" />
    <glyph glyph-name="Obreve" unicode="&#x14e;" horiz-adv-x="1541" 
d="M771 -23q-197 0 -351.5 96t-243 268.5t-88.5 402.5q0 232 88.5 404.5t243 268.5t351.5 96t351 -96t242.5 -268.5t88.5 -404.5q0 -230 -88.5 -402.5t-242.5 -268.5t-351 -96zM771 181q128 0 232 65t165 191t61 307q0 182 -61 308.5t-165 191.5t-232 65t-232 -65
t-165.5 -191.5t-61.5 -308.5q0 -181 61.5 -307t165.5 -191t232 -65zM770 1637q-86 0 -155 38.5t-109.5 104.5t-40.5 147h145q0 -68 45 -110.5t115 -42.5t115 42.5t45 110.5h146q0 -81 -40.5 -146.5t-109.5 -104.5t-156 -39z" />
    <glyph glyph-name="obreve" unicode="&#x14f;" horiz-adv-x="1166" 
d="M583 -24q-152 0 -267 70.5t-178.5 196t-63.5 289.5q0 166 63.5 292t178.5 197t267 71q153 0 267.5 -71t178 -197t63.5 -292q0 -164 -63.5 -289.5t-178 -196t-267.5 -70.5zM583 159q93 0 158.5 47t100 131.5t34.5 194.5q0 112 -34.5 196.5t-100 132t-158.5 47.5
q-92 0 -158 -47t-100.5 -131.5t-34.5 -197.5q0 -111 34.5 -195t100 -131t158.5 -47zM582 1217q-86 0 -155 38.5t-109.5 104.5t-40.5 147h145q0 -68 45 -110.5t115 -42.5t115 42.5t45 110.5h146q0 -81 -40.5 -146.5t-109.5 -104.5t-156 -39z" />
    <glyph glyph-name="Ohungarumlaut" unicode="&#x150;" horiz-adv-x="1541" 
d="M771 -23q-197 0 -351.5 96t-243 268.5t-88.5 402.5q0 232 88.5 404.5t243 268.5t351.5 96t351 -96t242.5 -268.5t88.5 -404.5q0 -230 -88.5 -402.5t-242.5 -268.5t-351 -96zM771 181q128 0 232 65t165 191t61 307q0 182 -61 308.5t-165 191.5t-232 65t-232 -65
t-165.5 -191.5t-61.5 -308.5q0 -181 61.5 -307t165.5 -191t232 -65zM632 1626h-165l122 302h219zM947 1626h-169l175 302h225z" />
    <glyph glyph-name="ohungarumlaut" unicode="&#x151;" horiz-adv-x="1166" 
d="M583 -24q-152 0 -267 70.5t-178.5 196t-63.5 289.5q0 166 63.5 292t178.5 197t267 71q153 0 267.5 -71t178 -197t63.5 -292q0 -164 -63.5 -289.5t-178 -196t-267.5 -70.5zM583 159q93 0 158.5 47t100 131.5t34.5 194.5q0 112 -34.5 196.5t-100 132t-158.5 47.5
q-92 0 -158 -47t-100.5 -131.5t-34.5 -197.5q0 -111 34.5 -195t100 -131t158.5 -47zM444 1206h-165l122 302h219zM759 1206h-169l175 302h225z" />
    <glyph glyph-name="OE" unicode="&#x152;" horiz-adv-x="2054" 
d="M798 0q-222 0 -381 91t-244 258.5t-85 397.5q0 229 84.5 396t241.5 257t372 90h310v-195h-298q-160 0 -269 -65t-165 -188t-56 -295q0 -173 56 -297t167.5 -189.5t277.5 -65.5h281v-195h-292zM983 0v1490h988v-195h-764v-441h708v-193h-708v-466h766v-195h-990z" />
    <glyph glyph-name="oe" unicode="&#x153;" horiz-adv-x="1944" 
d="M583 -24q-152 0 -267 70.5t-178.5 196t-63.5 289.5q0 166 63.5 292t178.5 197t267 71q153 0 267.5 -71t178 -197t63.5 -292q0 -164 -63.5 -289.5t-178 -196t-267.5 -70.5zM583 159q93 0 158.5 47t100 131.5t34.5 194.5q0 112 -34.5 196.5t-100 132t-158.5 47.5
q-92 0 -158 -47t-100.5 -131.5t-34.5 -197.5q0 -111 34.5 -195t100 -131t158.5 -47zM1393 -24q-158 0 -272.5 71t-175.5 196.5t-61 288.5t63 289.5t175 198.5t258 72q109 0 199.5 -38t156.5 -110.5t102.5 -175t36.5 -230.5v-63h-890v161h779l-96 -50q0 100 -34.5 173.5
t-98.5 114t-153 40.5q-88 0 -152.5 -40.5t-100 -113t-35.5 -168.5v-96q0 -103 36 -180t103.5 -119.5t162.5 -42.5q68 0 120 20.5t87.5 58t51.5 87.5l204 -11q-21 -98 -86 -173t-162.5 -117.5t-217.5 -42.5z" />
    <glyph glyph-name="Racute" unicode="&#x154;" horiz-adv-x="1312" 
d="M142 0v1490h560q163 0 279 -57t178 -162t62 -246t-65 -245t-184 -160.5t-282 -56.5h-419v191h419q99 0 168 33t105 93.5t36 144.5t-36.5 145t-105.5 94t-169 33h-322v-1297h-224zM999 0l-355 672h246l361 -672h-252zM561 1626l149 302h225l-209 -302h-165z" />
    <glyph glyph-name="racute" unicode="&#x155;" horiz-adv-x="716" 
d="M125 0v1070h205v-173h6q29 88 95 137t166 49q23 0 45 -1.5t36 -3.5v-199q-12 2 -44 6t-69 4q-62 0 -114 -28.5t-82 -84.5t-30 -140v-636h-214zM307 1206l149 302h225l-209 -302h-165z" />
    <glyph glyph-name="uni0156" unicode="&#x156;" horiz-adv-x="1312" 
d="M142 0v1490h560q163 0 279 -57t178 -162t62 -246t-65 -245t-184 -160.5t-282 -56.5h-419v191h419q99 0 168 33t105 93.5t36 144.5t-36.5 145t-105.5 94t-169 33h-322v-1297h-224zM999 0l-355 672h246l361 -672h-252zM474 -489l83 371h211l-136 -371h-158z" />
    <glyph glyph-name="uni0157" unicode="&#x157;" horiz-adv-x="716" 
d="M125 0v1070h205v-173h6q29 88 95 137t166 49q23 0 45 -1.5t36 -3.5v-199q-12 2 -44 6t-69 4q-62 0 -114 -28.5t-82 -84.5t-30 -140v-636h-214zM42 -489l83 371h211l-136 -371h-158z" />
    <glyph glyph-name="Rcaron" unicode="&#x158;" horiz-adv-x="1312" 
d="M142 0v1490h560q163 0 279 -57t178 -162t62 -246t-65 -245t-184 -160.5t-282 -56.5h-419v191h419q99 0 168 33t105 93.5t36 144.5t-36.5 145t-105.5 94t-169 33h-322v-1297h-224zM999 0l-355 672h246l361 -672h-252zM509 1928l141 -173l139 173h196v-2l-241 -281h-190
l-238 281v2h193z" />
    <glyph glyph-name="rcaron" unicode="&#x159;" horiz-adv-x="716" 
d="M125 0v1070h205v-173h6q29 88 95 137t166 49q23 0 45 -1.5t36 -3.5v-199q-12 2 -44 6t-69 4q-62 0 -114 -28.5t-82 -84.5t-30 -140v-636h-214zM255 1508l141 -173l139 173h196v-2l-241 -281h-190l-238 281v2h193z" />
    <glyph glyph-name="Sacute" unicode="&#x15a;" horiz-adv-x="1293" 
d="M655 -24q-176 0 -304 59.5t-197.5 169.5t-71.5 263h223q2 -94 45 -161t121.5 -101.5t183.5 -34.5q100 0 174.5 29t116.5 83t42 126q0 59 -30.5 101.5t-93 73.5t-161.5 55l-166 40q-216 53 -319.5 149.5t-103.5 250.5q0 131 67 228.5t186.5 151.5t277.5 54
q159 0 276.5 -56t183.5 -158.5t70 -242.5h-216q-9 123 -94.5 192.5t-223.5 69.5q-89 0 -158 -29t-107.5 -80.5t-38.5 -117.5q0 -58 32 -98.5t94.5 -70t155.5 -51.5l156 -39q103 -24 184 -60.5t137 -86.5t85.5 -116t29.5 -151q0 -132 -68 -231.5t-193 -155t-295 -55.5z
M554 1626l149 302h225l-209 -302h-165z" />
    <glyph glyph-name="sacute" unicode="&#x15b;" horiz-adv-x="1025" 
d="M519 -24q-121 0 -217.5 38t-156 113t-70.5 186l209 9q12 -86 71 -131t161 -45t161 41.5t59 104.5q0 54 -40.5 87t-112.5 49l-178 39q-150 34 -227 110t-77 194q0 95 51.5 167t144.5 112.5t215 40.5q119 0 210 -40.5t144.5 -114.5t61.5 -176l-201 -9q-5 73 -61 122
t-151 49q-91 0 -146 -41.5t-55 -103.5q0 -54 41 -87.5t116 -50.5l180 -40q155 -34 228 -106t73 -188q0 -101 -55.5 -175t-153.5 -114t-224 -40zM427 1206l149 302h225l-209 -302h-165z" />
    <glyph glyph-name="Scircumflex" unicode="&#x15c;" horiz-adv-x="1293" 
d="M655 -24q-176 0 -304 59.5t-197.5 169.5t-71.5 263h223q2 -94 45 -161t121.5 -101.5t183.5 -34.5q100 0 174.5 29t116.5 83t42 126q0 59 -30.5 101.5t-93 73.5t-161.5 55l-166 40q-216 53 -319.5 149.5t-103.5 250.5q0 131 67 228.5t186.5 151.5t277.5 54
q159 0 276.5 -56t183.5 -158.5t70 -242.5h-216q-9 123 -94.5 192.5t-223.5 69.5q-89 0 -158 -29t-107.5 -80.5t-38.5 -117.5q0 -58 32 -98.5t94.5 -70t155.5 -51.5l156 -39q103 -24 184 -60.5t137 -86.5t85.5 -116t29.5 -151q0 -132 -68 -231.5t-193 -155t-295 -55.5z
M502 1645h-193v2l238 281h190l241 -281v-2h-196l-139 173z" />
    <glyph glyph-name="scircumflex" unicode="&#x15d;" horiz-adv-x="1025" 
d="M519 -24q-121 0 -217.5 38t-156 113t-70.5 186l209 9q12 -86 71 -131t161 -45t161 41.5t59 104.5q0 54 -40.5 87t-112.5 49l-178 39q-150 34 -227 110t-77 194q0 95 51.5 167t144.5 112.5t215 40.5q119 0 210 -40.5t144.5 -114.5t61.5 -176l-201 -9q-5 73 -61 122
t-151 49q-91 0 -146 -41.5t-55 -103.5q0 -54 41 -87.5t116 -50.5l180 -40q155 -34 228 -106t73 -188q0 -101 -55.5 -175t-153.5 -114t-224 -40zM375 1225h-193v2l238 281h190l241 -281v-2h-196l-139 173z" />
    <glyph glyph-name="Scedilla" unicode="&#x15e;" horiz-adv-x="1293" 
d="M655 -24q-176 0 -304 59.5t-197.5 169.5t-71.5 263h223q2 -94 45 -161t121.5 -101.5t183.5 -34.5q100 0 174.5 29t116.5 83t42 126q0 59 -30.5 101.5t-93 73.5t-161.5 55l-166 40q-216 53 -319.5 149.5t-103.5 250.5q0 131 67 228.5t186.5 151.5t277.5 54
q159 0 276.5 -56t183.5 -158.5t70 -242.5h-216q-9 123 -94.5 192.5t-223.5 69.5q-89 0 -158 -29t-107.5 -80.5t-38.5 -117.5q0 -58 32 -98.5t94.5 -70t155.5 -51.5l156 -39q103 -24 184 -60.5t137 -86.5t85.5 -116t29.5 -151q0 -132 -68 -231.5t-193 -155t-295 -55.5z
M533 -418v110h118q49 0 72 15.5t23 48.5t-23 48.5t-72 15.5h-83l33 227h101v-47l-1 -84q90 -3 139.5 -46.5t49.5 -116.5q0 -88 -61.5 -129.5t-171.5 -41.5h-124z" />
    <glyph glyph-name="scedilla" unicode="&#x15f;" horiz-adv-x="1025" 
d="M519 -24q-121 0 -217.5 38t-156 113t-70.5 186l209 9q12 -86 71 -131t161 -45t161 41.5t59 104.5q0 54 -40.5 87t-112.5 49l-178 39q-150 34 -227 110t-77 194q0 95 51.5 167t144.5 112.5t215 40.5q119 0 210 -40.5t144.5 -114.5t61.5 -176l-201 -9q-5 73 -61 122
t-151 49q-91 0 -146 -41.5t-55 -103.5q0 -54 41 -87.5t116 -50.5l180 -40q155 -34 228 -106t73 -188q0 -101 -55.5 -175t-153.5 -114t-224 -40zM403 -418v110h118q49 0 72 15.5t23 48.5t-23 48.5t-72 15.5h-83l33 227h101v-47l-1 -84q90 -3 139.5 -46.5t49.5 -116.5
q0 -88 -61.5 -129.5t-171.5 -41.5h-124z" />
    <glyph glyph-name="Scaron" unicode="&#x160;" horiz-adv-x="1293" 
d="M655 -24q-176 0 -304 59.5t-197.5 169.5t-71.5 263h223q2 -94 45 -161t121.5 -101.5t183.5 -34.5q100 0 174.5 29t116.5 83t42 126q0 59 -30.5 101.5t-93 73.5t-161.5 55l-166 40q-216 53 -319.5 149.5t-103.5 250.5q0 131 67 228.5t186.5 151.5t277.5 54
q159 0 276.5 -56t183.5 -158.5t70 -242.5h-216q-9 123 -94.5 192.5t-223.5 69.5q-89 0 -158 -29t-107.5 -80.5t-38.5 -117.5q0 -58 32 -98.5t94.5 -70t155.5 -51.5l156 -39q103 -24 184 -60.5t137 -86.5t85.5 -116t29.5 -151q0 -132 -68 -231.5t-193 -155t-295 -55.5z
M502 1928l141 -173l139 173h196v-2l-241 -281h-190l-238 281v2h193z" />
    <glyph glyph-name="scaron" unicode="&#x161;" horiz-adv-x="1025" 
d="M519 -24q-121 0 -217.5 38t-156 113t-70.5 186l209 9q12 -86 71 -131t161 -45t161 41.5t59 104.5q0 54 -40.5 87t-112.5 49l-178 39q-150 34 -227 110t-77 194q0 95 51.5 167t144.5 112.5t215 40.5q119 0 210 -40.5t144.5 -114.5t61.5 -176l-201 -9q-5 73 -61 122
t-151 49q-91 0 -146 -41.5t-55 -103.5q0 -54 41 -87.5t116 -50.5l180 -40q155 -34 228 -106t73 -188q0 -101 -55.5 -175t-153.5 -114t-224 -40zM375 1508l141 -173l139 173h196v-2l-241 -281h-190l-238 281v2h193z" />
    <glyph glyph-name="uni021A" unicode="&#x162;" horiz-adv-x="1283" 
d="M58 1295v195h1167v-195h-471v-1295h-224v1295h-472zM527 -418v110h118q49 0 72 15.5t23 48.5t-23 48.5t-72 15.5h-83l33 227h101v-47l-1 -84q90 -3 139.5 -46.5t49.5 -116.5q0 -88 -61.5 -129.5t-171.5 -41.5h-124z" />
    <glyph glyph-name="uni0163" unicode="&#x163;" horiz-adv-x="681" 
d="M628 1070v-176h-611v176h611zM198 1353h213v-1068q0 -61 25 -86t89 -25q22 0 51 1t50 2l9 -175q-29 -3 -66 -4t-72 -1q-150 0 -224.5 66t-74.5 196v1094zM313 -418v110h118q49 0 72 15.5t23 48.5t-23 48.5t-72 15.5h-83l33 227h101v-47l-1 -84q90 -3 139.5 -46.5
t49.5 -116.5q0 -88 -61.5 -129.5t-171.5 -41.5h-124z" />
    <glyph glyph-name="Tcaron" unicode="&#x164;" horiz-adv-x="1283" 
d="M58 1295v195h1167v-195h-471v-1295h-224v1295h-472zM501 1928l141 -173l139 173h196v-2l-241 -281h-190l-238 281v2h193z" />
    <glyph glyph-name="tcaron" unicode="&#x165;" horiz-adv-x="799" 
d="M628 1070v-176h-611v176h611zM198 1353h213v-1068q0 -61 25 -86t89 -25q22 0 51 1t50 2l9 -175q-29 -3 -66 -4t-72 -1q-150 0 -224.5 66t-74.5 196v1094zM536 1198v380h194l-52 -380h-142z" />
    <glyph glyph-name="Tbar" unicode="&#x166;" horiz-adv-x="1283" 
d="M58 1295v195h1167v-195h-471v-1295h-224v1295h-472zM230 661v176h824v-176h-824z" />
    <glyph glyph-name="tbar" unicode="&#x167;" horiz-adv-x="681" 
d="M628 734v-160h-611v160h611zM628 1070v-176h-611v176h611zM198 1353h213v-1068q0 -61 25 -86t89 -25q22 0 51 1t50 2l9 -175q-29 -3 -66 -4t-72 -1q-150 0 -224.5 66t-74.5 196v1094z" />
    <glyph glyph-name="Utilde" unicode="&#x168;" horiz-adv-x="1457" 
d="M729 -24q-179 0 -312 69t-206.5 189.5t-73.5 276.5v979h222v-961q0 -102 45 -181t128 -124.5t197 -45.5t197 45.5t127.5 124.5t44.5 181v961h222v-979q0 -156 -73 -276.5t-206 -189.5t-312 -69zM863 1678q-40 0 -76 13.5t-67.5 31t-57.5 31t-46 13.5q-27 0 -41 -26
t-15 -59h-138q3 101 47.5 162.5t127.5 61.5q42 0 76 -13.5t63 -31t55.5 -31t51.5 -13.5q28 0 41.5 20.5t17.5 64.5h134q-3 -103 -49.5 -163.5t-123.5 -60.5z" />
    <glyph glyph-name="utilde" unicode="&#x169;" 
d="M507 -19q-109 0 -195.5 47t-136.5 141t-50 231v670h214v-643q0 -126 61.5 -191.5t170.5 -65.5q72 0 130 30t92 92t34 158v620h213v-1070h-208v265h43q-51 -144 -144 -214t-224 -70zM717 1258q-40 0 -76 13.5t-67.5 31t-57.5 31t-46 13.5q-27 0 -41 -26t-15 -59h-138
q3 101 47.5 162.5t127.5 61.5q42 0 76 -13.5t63 -31t55.5 -31t51.5 -13.5q28 0 41.5 20.5t17.5 64.5h134q-3 -103 -49.5 -163.5t-123.5 -60.5z" />
    <glyph glyph-name="Umacron" unicode="&#x16a;" horiz-adv-x="1457" 
d="M729 -24q-179 0 -312 69t-206.5 189.5t-73.5 276.5v979h222v-961q0 -102 45 -181t128 -124.5t197 -45.5t197 45.5t127.5 124.5t44.5 181v961h222v-979q0 -156 -73 -276.5t-206 -189.5t-312 -69zM1009 1857v-157h-561v157h561z" />
    <glyph glyph-name="umacron" unicode="&#x16b;" 
d="M507 -19q-109 0 -195.5 47t-136.5 141t-50 231v670h214v-643q0 -126 61.5 -191.5t170.5 -65.5q72 0 130 30t92 92t34 158v620h213v-1070h-208v265h43q-51 -144 -144 -214t-224 -70zM863 1437v-157h-561v157h561z" />
    <glyph glyph-name="Ubreve" unicode="&#x16c;" horiz-adv-x="1457" 
d="M729 -24q-179 0 -312 69t-206.5 189.5t-73.5 276.5v979h222v-961q0 -102 45 -181t128 -124.5t197 -45.5t197 45.5t127.5 124.5t44.5 181v961h222v-979q0 -156 -73 -276.5t-206 -189.5t-312 -69zM728 1637q-86 0 -155 38.5t-109.5 104.5t-40.5 147h145q0 -68 45 -110.5
t115 -42.5t115 42.5t45 110.5h146q0 -81 -40.5 -146.5t-109.5 -104.5t-156 -39z" />
    <glyph glyph-name="ubreve" unicode="&#x16d;" 
d="M507 -19q-109 0 -195.5 47t-136.5 141t-50 231v670h214v-643q0 -126 61.5 -191.5t170.5 -65.5q72 0 130 30t92 92t34 158v620h213v-1070h-208v265h43q-51 -144 -144 -214t-224 -70zM582 1217q-86 0 -155 38.5t-109.5 104.5t-40.5 147h145q0 -68 45 -110.5t115 -42.5
t115 42.5t45 110.5h146q0 -81 -40.5 -146.5t-109.5 -104.5t-156 -39z" />
    <glyph glyph-name="Uring" unicode="&#x16e;" horiz-adv-x="1457" 
d="M729 -24q-179 0 -312 69t-206.5 189.5t-73.5 276.5v979h222v-961q0 -102 45 -181t128 -124.5t197 -45.5t197 45.5t127.5 124.5t44.5 181v961h222v-979q0 -156 -73 -276.5t-206 -189.5t-312 -69zM729 1570q-70 0 -126.5 32t-90 86t-33.5 119q0 67 33 120.5t90 85t127 31.5
t127 -31.5t90 -85t33 -120.5q0 -66 -33 -119.5t-89.5 -85.5t-127.5 -32zM729 1696q47 0 79.5 32.5t32.5 79.5q0 46 -32 78.5t-80 32.5q-47 0 -79.5 -32.5t-32.5 -78.5q0 -47 32.5 -79.5t79.5 -32.5z" />
    <glyph glyph-name="uring" unicode="&#x16f;" 
d="M507 -19q-109 0 -195.5 47t-136.5 141t-50 231v670h214v-643q0 -126 61.5 -191.5t170.5 -65.5q72 0 130 30t92 92t34 158v620h213v-1070h-208v265h43q-51 -144 -144 -214t-224 -70zM583 1155q-70 0 -126.5 31.5t-90 85.5t-33.5 121q0 66 33.5 120t90 86t126.5 32t127 -32
t90 -86t33 -120q0 -67 -33 -120.5t-90 -85.5t-127 -32zM583 1281q48 0 80 32.5t32 79.5t-32.5 79.5t-79.5 32.5q-46 0 -79 -32.5t-33 -79.5t33 -79.5t79 -32.5z" />
    <glyph glyph-name="Uhungarumlaut" unicode="&#x170;" horiz-adv-x="1457" 
d="M729 -24q-179 0 -312 69t-206.5 189.5t-73.5 276.5v979h222v-961q0 -102 45 -181t128 -124.5t197 -45.5t197 45.5t127.5 124.5t44.5 181v961h222v-979q0 -156 -73 -276.5t-206 -189.5t-312 -69zM590 1626h-165l122 302h219zM905 1626h-169l175 302h225z" />
    <glyph glyph-name="uhungarumlaut" unicode="&#x171;" 
d="M507 -19q-109 0 -195.5 47t-136.5 141t-50 231v670h214v-643q0 -126 61.5 -191.5t170.5 -65.5q72 0 130 30t92 92t34 158v620h213v-1070h-208v265h43q-51 -144 -144 -214t-224 -70zM444 1206h-165l122 302h219zM759 1206h-169l175 302h225z" />
    <glyph glyph-name="Uogonek" unicode="&#x172;" horiz-adv-x="1457" 
d="M729 -24q-179 0 -312 69t-206.5 189.5t-73.5 276.5v979h222v-961q0 -102 45 -181t128 -124.5t197 -45.5t197 45.5t127.5 124.5t44.5 181v961h222v-979q0 -156 -73 -276.5t-206 -189.5t-312 -69zM795 -422q-104 0 -169 50t-65 145q0 70 37 118t97.5 84t133.5 68t145.5 70
t133 89.5t97.5 126.5t37 182h78q0 -126 -39 -215.5t-101.5 -151t-132.5 -105t-132 -78.5t-101.5 -70t-39.5 -82q0 -33 20.5 -51.5t63.5 -18.5q17 0 35 2t32 4l14 -155q-31 -5 -68.5 -8.5t-75.5 -3.5z" />
    <glyph glyph-name="uogonek" unicode="&#x173;" 
d="M507 -19q-109 0 -195.5 47t-136.5 141t-50 231v670h214v-643q0 -126 61.5 -191.5t170.5 -65.5q72 0 130 30t92 92t34 158v620h213v-1070h-208v265h43q-51 -144 -144 -214t-224 -70zM910 -422q-104 0 -166.5 50t-62.5 145q0 78 46.5 143t148.5 128l164 -44
q-81 -65 -116 -106.5t-35 -84.5q0 -33 20.5 -51.5t63.5 -18.5q17 0 35 2t32 4l14 -155q-31 -5 -68.5 -8.5t-75.5 -3.5z" />
    <glyph glyph-name="Wcircumflex" unicode="&#x174;" horiz-adv-x="1994" 
d="M428 0l-404 1490h233l218 -864q20 -79 37.5 -159t34 -160.5t30.5 -161.5h-34q16 81 33 161.5t35.5 160.5t38.5 159l224 864h245l223 -864q20 -79 39 -159t36 -160.5t33 -161.5h-37q16 81 32.5 161.5t35 160.5t37.5 159l217 864h234l-405 -1490h-257l-242 905
q-26 98 -48.5 205t-46.5 227h52q-24 -118 -45.5 -224.5t-48.5 -207.5l-242 -905h-258zM856 1645h-193v2l238 281h190l241 -281v-2h-196l-139 173z" />
    <glyph glyph-name="wcircumflex" unicode="&#x175;" horiz-adv-x="1610" 
d="M360 0l-329 1070h224l122 -439q29 -108 57.5 -226t57.5 -240h-30q29 120 58.5 238.5t59.5 227.5l123 439h205l121 -439q30 -109 59 -227t58 -239h-31q29 121 57.5 239t58.5 227l123 439h225l-329 -1070h-221l-134 465q-20 69 -38.5 141.5t-37 146.5t-37.5 146h47
q-19 -71 -37.5 -145.5t-37.5 -147t-39 -141.5l-137 -465h-218zM664 1225h-193v2l238 281h190l241 -281v-2h-196l-139 173z" />
    <glyph glyph-name="Ycircumflex" unicode="&#x176;" horiz-adv-x="1366" 
d="M573 0v595l-549 895h258l283 -472q43 -70 81 -139t77 -146h-74q38 77 76 146.5t80 138.5l279 472h257l-546 -895v-595h-222zM542 1645h-193v2l238 281h190l241 -281v-2h-196l-139 173z" />
    <glyph glyph-name="ycircumflex" unicode="&#x177;" horiz-adv-x="1099" 
d="M133 -414l12 178l94 -2q39 -3 68 8.5t51.5 40t39.5 77.5l43 117l-412 1065h228l213 -592q32 -87 58.5 -174t52.5 -173h-60q26 86 53.5 173t58.5 174l212 592h225l-481 -1248q-30 -80 -75.5 -133.5t-106 -81t-136.5 -27.5q-37 0 -72.5 2t-65.5 4zM404 1225h-193v2l238 281
h190l241 -281v-2h-196l-139 173z" />
    <glyph glyph-name="Ydieresis" unicode="&#x178;" horiz-adv-x="1366" 
d="M573 0v595l-549 895h258l283 -472q43 -70 81 -139t77 -146h-74q38 77 76 146.5t80 138.5l279 472h257l-546 -895v-595h-222zM896 1670q-54 0 -92 38t-38 91q0 54 38 91.5t93 37.5q54 0 92 -37.5t38 -91.5t-38 -91.5t-93 -37.5zM469 1670q-55 0 -93 38t-38 91
q0 54 38 91.5t93 37.5t93 -37.5t38 -91.5t-38 -91.5t-93 -37.5z" />
    <glyph glyph-name="Zacute" unicode="&#x179;" horiz-adv-x="1280" 
d="M72 0v174l718 939q50 65 104 130.5t109 130.5l26 -77q-89 -1 -178 -1.5t-178 -0.5h-580v195h1109v-174l-704 -922q-54 -70 -110.5 -139.5t-115.5 -138.5l-26 77q88 1 176 1.5t176 0.5h611v-195h-1137zM551 1626l149 302h225l-209 -302h-165z" />
    <glyph glyph-name="zacute" unicode="&#x17a;" horiz-adv-x="1040" 
d="M101 0v152l569 731v5h-565v182h826v-161l-559 -722v-5h567v-182h-838zM427 1206l149 302h225l-209 -302h-165z" />
    <glyph glyph-name="Zdotaccent" unicode="&#x17b;" horiz-adv-x="1280" 
d="M72 0v174l718 939q50 65 104 130.5t109 130.5l26 -77q-89 -1 -178 -1.5t-178 -0.5h-580v195h1109v-174l-704 -922q-54 -70 -110.5 -139.5t-115.5 -138.5l-26 77q88 1 176 1.5t176 0.5h611v-195h-1137zM640 1669q-56 0 -95 38t-39 92t39 92t95 38q57 0 96 -37.5t39 -92.5
t-39 -92.5t-96 -37.5z" />
    <glyph glyph-name="zdotaccent" unicode="&#x17c;" horiz-adv-x="1040" 
d="M101 0v152l569 731v5h-565v182h826v-161l-559 -722v-5h567v-182h-838zM516 1249q-56 0 -95 38t-39 92t39 92t95 38q57 0 96 -37.5t39 -92.5t-39 -92.5t-96 -37.5z" />
    <glyph glyph-name="Zcaron" unicode="&#x17d;" horiz-adv-x="1280" 
d="M72 0v174l718 939q50 65 104 130.5t109 130.5l26 -77q-89 -1 -178 -1.5t-178 -0.5h-580v195h1109v-174l-704 -922q-54 -70 -110.5 -139.5t-115.5 -138.5l-26 77q88 1 176 1.5t176 0.5h611v-195h-1137zM499 1928l141 -173l139 173h196v-2l-241 -281h-190l-238 281v2h193z
" />
    <glyph glyph-name="zcaron" unicode="&#x17e;" horiz-adv-x="1040" 
d="M101 0v152l569 731v5h-565v182h826v-161l-559 -722v-5h567v-182h-838zM376 1508l141 -173l139 173h196v-2l-241 -281h-190l-238 281v2h193z" />
    <glyph glyph-name="longs" unicode="&#x17f;" horiz-adv-x="572" 
d="M126 0v1231q0 88 37.5 149.5t107 93.5t162.5 32q46 0 85 -2.5t54 -4.5l-11 -175q-12 1 -42 2t-53 1q-68 0 -97.5 -30.5t-29.5 -98.5v-1198h-213z" />
    <glyph glyph-name="bbar" unicode="&#x180;" horiz-adv-x="1199" 
d="M666 -21q-76 0 -138 23t-109 64.5t-79 97.5h-6v-164h-209v1490h214v-579h4q31 53 77 93t108 62.5t138 22.5q137 0 240 -69t161 -193.5t58 -291.5t-57.5 -292t-161 -194.5t-240.5 -69.5zM622 162q87 0 151.5 44.5t100 128t35.5 200.5q0 118 -35.5 200.5t-100 127
t-151.5 44.5q-92 0 -158 -46.5t-101.5 -129.5t-35.5 -196q0 -112 35.5 -196t102 -130.5t157.5 -46.5zM-21 1192v158h678v-158h-678z" />
    <glyph glyph-name="uni0181" unicode="&#x181;" horiz-adv-x="1635" 
d="M43 1056v151q0 139 75.5 211t226.5 72h113v-193h-92q-60 0 -87 -24.5t-27 -78.5v-138h-209zM458 0v1490h556q155 0 262.5 -49t164 -137t56.5 -205q0 -88 -31 -152t-87.5 -106t-132.5 -65v-4q85 -11 155 -54t112.5 -119t42.5 -184q0 -123 -58 -217t-174 -146t-292 -52
h-574zM680 189h336q154 0 233.5 60t79.5 169q0 75 -36 130.5t-104 86.5t-165 31h-344v-477zM680 847h327q82 0 142.5 28t93 79.5t32.5 121.5q0 102 -69.5 163.5t-197.5 61.5h-328v-454z" />
    <glyph glyph-name="uni0182" unicode="&#x182;" horiz-adv-x="1294" 
d="M142 0v1490h928v-191h-706v-411h336q166 0 282 -54t177 -152t61 -231t-61 -234.5t-177 -159t-282 -57.5h-558zM364 188h336q97 0 164 37.5t101.5 98.5t34.5 129q0 102 -77.5 174t-222.5 72h-336v-511z" />
    <glyph glyph-name="uni0183" unicode="&#x183;" horiz-adv-x="1199" 
d="M235 1311l-110 179h836v-179h-726zM666 -21q-76 0 -138 23t-109 64.5t-79 97.5h-6v-164h-209v1490h214v-579h4q31 53 77 93t108 62.5t138 22.5q137 0 240 -69t161 -193.5t58 -291.5t-57.5 -292t-161 -194.5t-240.5 -69.5zM622 162q87 0 151.5 44.5t100 128t35.5 200.5
q0 118 -35.5 200.5t-100 127t-151.5 44.5q-92 0 -158 -46.5t-101.5 -129.5t-35.5 -196q0 -112 35.5 -196t102 -130.5t157.5 -46.5z" />
    <glyph glyph-name="uni0184" unicode="&#x184;" horiz-adv-x="1565" 
d="M199 944l-175 100l254 446h233zM570 919h405q161 0 276.5 -55t178 -157t62.5 -241q0 -143 -61.5 -247.5t-175.5 -161.5t-273 -57h-568v1490h224v-1298h329q140 0 221.5 74.5t81.5 200.5q0 81 -37 139.5t-105 90t-161 31.5h-397v191z" />
    <glyph glyph-name="uni0185" unicode="&#x185;" horiz-adv-x="1346" 
d="M191 599l-162 92l216 379h216zM535 710h325q125 0 217.5 -44.5t143.5 -123.5t51 -184t-51 -186t-143.5 -126.5t-217.5 -45.5h-489v1070h213v-884h270q95 0 151 46.5t56 124.5q0 77 -56 122.5t-151 45.5h-319v185z" />
    <glyph glyph-name="uni0186" unicode="&#x186;" horiz-adv-x="1486" 
d="M708 1513q203 0 358.5 -95.5t243.5 -268.5t88 -403q0 -231 -87.5 -404.5t-243 -269t-359.5 -95.5q-121 0 -226 35.5t-187.5 103.5t-137 163t-74.5 214h227q16 -75 52 -133t88 -98.5t117 -60.5t140 -20q142 0 247 69.5t162.5 196.5t57.5 299q0 171 -57.5 298t-162 196
t-247.5 69q-75 0 -140 -20.5t-116.5 -60t-88 -97.5t-52.5 -133h-227q19 117 73 212t137 163t188 104t227 36z" />
    <glyph glyph-name="uni0187" unicode="&#x187;" horiz-adv-x="1486" 
d="M1194 997v409q0 135 77.5 204t229.5 69q40 0 69.5 -1t51.5 -2v-176q-17 0 -47.5 0.5t-50.5 0.5q-64 0 -92.5 -23.5t-28.5 -74.5v-406h-209zM778 -23q-203 0 -358.5 95.5t-243.5 268.5t-88 403q0 232 87.5 405t243.5 268.5t359 95.5q121 0 226 -35.5t188 -103.5t137 -163
t74 -214h-227q-16 75 -52 133t-87.5 98.5t-117 60.5t-139.5 20q-143 0 -248 -69.5t-162.5 -196.5t-57.5 -299q0 -171 57.5 -297.5t162.5 -196t248 -69.5q74 0 139 20.5t117 60t88 97.5t53 133h226q-19 -117 -73 -212t-136.5 -163t-188 -104t-227.5 -36z" />
    <glyph glyph-name="uni0188" unicode="&#x188;" horiz-adv-x="1280" 
d="M862 714l-26 275q-18 143 55 213.5t227 70.5q38 0 66.5 -0.5t49.5 -1.5v-177q-18 1 -50 1.5t-52 0.5q-58 0 -82.5 -25t-19.5 -79l14 -273zM581 -24q-152 0 -266 70.5t-177.5 196t-63.5 289.5q0 165 63.5 291.5t177.5 197.5t266 71q93 0 172.5 -27.5t140.5 -77t99.5 -118
t50.5 -150.5l-209 -11q-9 44 -29.5 81t-52.5 63.5t-74.5 41.5t-96.5 15q-93 0 -158.5 -47.5t-99.5 -132.5t-34 -197q0 -110 34 -194.5t99.5 -131.5t158.5 -47q54 0 96 14.5t73 41.5t52 64.5t31 82.5l211 -11q-11 -82 -50 -150t-100 -118.5t-141 -78.5t-173 -28z" />
    <glyph glyph-name="Dbar1" unicode="&#x189;" horiz-adv-x="1504" 
d="M696 0h-368v195h355q172 0 285 65t169 189t56 298q0 173 -55.5 295.5t-165.5 187.5t-276 65h-375v195h390q219 0 377 -89.5t243 -256t85 -397.5q0 -232 -85.5 -399.5t-246 -257.5t-388.5 -90zM437 1490v-1490h-224v1490h224zM22 657v176h779v-176h-779z" />
    <glyph glyph-name="uni018A" unicode="&#x18a;" horiz-adv-x="1749" 
d="M43 1056v151q0 139 75.5 211t226.5 72h113v-193h-92q-60 0 -87 -24.5t-27 -78.5v-138h-209zM941 0h-368v195h355q172 0 285 65t169 189t56 298q0 173 -55.5 295.5t-165.5 187.5t-276 65h-375v195h390q219 0 377 -89.5t243 -256t85 -397.5q0 -232 -85.5 -399.5
t-246.5 -257.5t-388 -90zM682 1490v-1490h-224v1490h224z" />
    <glyph glyph-name="uni018B" unicode="&#x18b;" horiz-adv-x="1272" 
d="M1175 0h-556q-165 0 -281.5 57.5t-178 159t-61.5 234.5t61.5 232t178 154.5t281.5 55.5h315v375h-684v198h925v-1466zM934 194v504h-315q-147 -1 -213 -72t-66 -172q0 -69 29 -128.5t90.5 -95.5t159.5 -36h315z" />
    <glyph glyph-name="uni018C" unicode="&#x18c;" horiz-adv-x="1199" 
d="M964 1311h-726v179h836zM534 -21q-137 0 -241 69.5t-161.5 194.5t-57.5 292t58 291.5t161.5 193.5t239.5 69q77 0 138.5 -22.5t108 -62.5t76.5 -93h5v579h213v-1490h-209v164h-6q-31 -56 -78.5 -97.5t-109 -64.5t-137.5 -23zM578 162q91 0 157 46.5t101.5 130.5t35.5 196
q0 113 -35.5 196t-101.5 129.5t-157 46.5q-88 0 -152.5 -44.5t-100 -127t-35.5 -200.5q0 -117 35.5 -200.5t100.5 -128t152 -44.5z" />
    <glyph glyph-name="deltaturn" unicode="&#x18d;" horiz-adv-x="1132" 
d="M928 -376h-742v182h436q-13 15 -45.5 45t-72.5 64t-75 62q-158 133 -258.5 269.5t-100.5 303.5v20q0 166 58.5 292.5t169 198t268.5 71.5q157 0 269 -70t171 -194t59 -287v-20q0 -125 -53.5 -228t-151.5 -170t-231 -85q-14 -2 -20 -3t-18 -1q41 -36 86.5 -76.5t91 -82
t86.5 -81.5t73 -78v-132zM832 550v20q0 106 -26 191t-84.5 135t-155.5 50q-94 0 -152.5 -49t-85.5 -134t-27 -193v-20q0 -116 53 -201t121 -128q18 -6 36.5 -8.5t41.5 -2.5q98 0 159.5 47.5t90.5 124.5t29 168z" />
    <glyph glyph-name="Eturn" unicode="&#x18e;" horiz-adv-x="1213" 
d="M1070 1490v-1490h-987v195h764v441h-708v193h708v466h-766v195h989z" />
    <glyph glyph-name="uni018F" unicode="&#x18f;" horiz-adv-x="1505" 
d="M740 -23q-136 0 -253.5 45t-205.5 127t-137 194.5t-49 247.5v170h1175v-185h-1017l62 5q0 -120 57 -210t153.5 -140t213.5 -50q139 0 241.5 69t157.5 195.5t55 298.5t-57 299t-160.5 196.5t-242.5 69.5q-76 0 -141.5 -21.5t-118 -61.5t-88.5 -96t-52 -124h-228
q18 113 73 205.5t138.5 160.5t190 104.5t227.5 36.5q199 0 353 -95.5t242 -268.5t88 -405q0 -228 -84.5 -401t-237 -269.5t-355.5 -96.5z" />
    <glyph glyph-name="Epsilon1" unicode="&#x190;" horiz-adv-x="1250" 
d="M620 -23q-154 0 -274 56.5t-189 156t-69 228.5q0 89 38.5 162.5t109.5 123t170 64.5v5q-123 33 -196.5 119.5t-73.5 205.5q0 120 63 213.5t173.5 147.5t252.5 54q146 0 258.5 -57.5t176.5 -159t65 -233.5h-214q-1 83 -37 142t-99.5 91t-147.5 32q-83 0 -145 -30
t-96.5 -85t-34.5 -131q0 -69 37 -120.5t104 -79.5t156 -28h125v-183h-125q-102 0 -178.5 -31t-118.5 -86.5t-42 -129.5q0 -78 40 -137t111 -90.5t163 -31.5q96 0 165 34.5t107 100t39 157.5h222q-1 -139 -67.5 -247.5t-186.5 -170.5t-282 -62z" />
    <glyph glyph-name="uni0191" unicode="&#x191;" 
d="M-71 -418v185q17 -1 48 -1h50q64 0 89.5 23t25.5 74v263h224v-274q0 -134 -78.5 -203.5t-231.5 -69.5q-39 0 -72 1t-55 2zM142 0v1490h961v-195h-737v-454h678v-193h-678v-648h-224z" />
    <glyph glyph-name="florin" unicode="&#x192;" horiz-adv-x="799" 
d="M690 1082v-171h-208v-968q0 -176 -88 -268.5t-249 -92.5q-33 0 -62 2.5t-62 11.5l14 182q16 -5 49.5 -7.5t47.5 -2.5q63 0 97.5 46.5t34.5 128.5v968h-178v171h178v104q0 180 94.5 275t246.5 95q44 0 92.5 -7t79.5 -18l-39 -180q-17 5 -37.5 7.5t-49.5 2.5
q-82 0 -125.5 -43.5t-43.5 -131.5v-104h208z" />
    <glyph glyph-name="uni0193" unicode="&#x193;" horiz-adv-x="1507" 
d="M1192 1006v399q0 135 77.5 204t229.5 69q40 0 69.5 -1t51.5 -2v-176q-16 0 -47 0.5t-51 0.5q-64 0 -92.5 -23.5t-28.5 -74.5v-396h-209zM776 -23q-203 0 -357.5 96.5t-242.5 269.5t-88 401q0 232 88.5 405t243.5 268.5t352 95.5q122 0 228.5 -36.5t190 -104.5
t138.5 -160.5t72 -205.5h-227q-17 68 -52.5 124t-87.5 96t-117.5 61.5t-141.5 21.5q-138 0 -242 -69.5t-162.5 -196.5t-58.5 -299q0 -171 58.5 -297.5t163.5 -196t244 -69.5q118 0 211.5 50t147.5 140t54 210l63 -5h-430v185h587v-170q0 -180 -83 -318.5t-226.5 -217
t-325.5 -78.5z" />
    <glyph glyph-name="Gamma1" unicode="&#x194;" horiz-adv-x="1319" 
d="M11 1490h247l485 -1132q66 -149 114.5 -253t75 -174.5t26.5 -119.5q0 -79 -36.5 -135.5t-103.5 -87t-160 -30.5q-139 0 -220 66.5t-81 188.5q0 29 8 61.5t24.5 74.5t42 99t60 133t79.5 177l488 1132h247l-614 -1366q-34 -77 -59.5 -134.5t-39.5 -99.5t-14 -73
q0 -34 21.5 -56.5t57.5 -22.5t58 23t22 56q0 32 -13 72.5t-38 98t-60 136.5z" />
    <glyph glyph-name="uni0195" unicode="&#x195;" horiz-adv-x="1911" 
d="M1240 -21q-116 0 -205.5 50.5t-140.5 152.5t-51 258v204q0 126 -65 192t-177 66q-72 0 -132 -30t-95 -91.5t-35 -157.5v-623h-214v1490h213v-598h6q36 85 115.5 141t205.5 56q110 0 198.5 -47.5t141 -141t52.5 -231.5v-229q0 -114 31 -173t76.5 -80t87.5 -21
q89 0 161.5 80.5t115.5 258.5t43 470v95h213v-95q0 -353 -67.5 -572.5t-190 -321.5t-287.5 -102z" />
    <glyph glyph-name="Iota" unicode="&#x196;" horiz-adv-x="519" 
d="M416 -2q-154 0 -222.5 61t-68.5 197v1234h214v-1208q0 -63 20.5 -85.5t78.5 -22.5q12 0 25 0.5t22 1.5l9 -173q-17 -2 -37.5 -3.5t-40.5 -1.5z" />
    <glyph glyph-name="uni0197" unicode="&#x197;" horiz-adv-x="669" 
d="M446 1490v-1490h-224v1490h224zM16 701v142h637v-142h-637z" />
    <glyph glyph-name="uni0198" unicode="&#x198;" horiz-adv-x="1368" 
d="M142 0v1490h222v-709h19l558 610q65 69 138 96.5t149 17.5t146 -56l-81 -162q-52 31 -100.5 21t-102.5 -67l-401 -428l621 -813h-268l-493 657l-185 -206v-451h-222z" />
    <glyph glyph-name="uni0199" unicode="&#x199;" horiz-adv-x="1085" 
d="M125 854v367q0 134 79.5 203t232.5 69q39 0 68.5 -0.5t52.5 -1.5v-177q-17 1 -48 1h-50q-65 0 -93 -23t-28 -75v-363h-214zM322 360v254h23l449 456h262l-503 -517h-34zM125 0v1070h214v-1070h-214zM824 0l-397 505l146 149l513 -654h-262z" />
    <glyph glyph-name="uni019A" unicode="&#x19a;" horiz-adv-x="464" 
d="M339 1490v-1490h-214v1490h214zM-108 689v158h678v-158h-678z" />
    <glyph glyph-name="lambdabar" unicode="&#x19b;" horiz-adv-x="1228" 
d="M237 1046l-36 140l546 200l38 -140zM29 0l413 1066l-47 122q-18 49 -40.5 77.5t-51.5 39.5t-68 8l-91 -1l-12 178q30 2 66.5 3.5t72.5 1.5q74 0 134.5 -26.5t106.5 -80t76 -134.5l366 -951q19 -49 41 -77.5t50.5 -40t66.5 -9.5l79 1l12 -177q-27 -2 -59 -3.5t-65 -1.5
q-74 0 -134 26.5t-104.5 80t-74.5 134.5l-133 356q-31 87 -58.5 173.5t-53.5 173.5h60q-26 -86 -52.5 -173t-58.5 -174l-213 -592h-228z" />
    <glyph glyph-name="mcapturn" unicode="&#x19c;" horiz-adv-x="1837" 
d="M1464 226v1264h232v-1490h-215zM1486 504l94 2q0 -151 -43.5 -270t-135.5 -187.5t-238 -68.5q-107 0 -188.5 43t-126.5 143t-45 271v1053h231v-1053q0 -104 25.5 -162t66.5 -81t88 -23q102 0 161.5 45t85 121t25.5 167zM827 504l94 2q1 -152 -43 -271t-137 -187t-240 -68
q-112 0 -192.5 43.5t-123.5 143.5t-43 270v1053h232v-1053q1 -104 25.5 -162t65 -81t86.5 -23q79 0 132.5 27t85 73.5t45 106.5t13.5 126z" />
    <glyph glyph-name="Nhook" unicode="&#x19d;" horiz-adv-x="1483" 
d="M-71 -418v185q17 -1 48 -1h50q64 0 89.5 23t25.5 74v263h224v-274q0 -134 -78.5 -203.5t-231.5 -69.5q-39 0 -72 1t-55 2zM142 0v1490h250l567 -898q22 -34 54.5 -89.5t69 -121t70.5 -131.5l-24 -39q-4 64 -7 142t-4 148.5t-1 110.5v878h224v-1490h-251l-508 802
q-27 44 -65.5 108t-88 149.5t-109.5 189.5l33 34q6 -113 9 -206.5t4.5 -163t1.5 -109.5v-804h-225z" />
    <glyph glyph-name="uni019E" unicode="&#x19e;" 
d="M339 620v-620h-214v1070h208l1 -265h-43q50 144 143 214t224 70q110 0 196.5 -47.5t136 -140.5t49.5 -232v-1087h-213v1061q0 126 -61 191.5t-172 65.5q-72 0 -130 -30t-91.5 -92t-33.5 -158z" />
    <glyph glyph-name="Obar" unicode="&#x19f;" horiz-adv-x="1541" 
d="M1266 831v-173h-1004v173h1004zM771 -23q-197 0 -351.5 96t-243 268.5t-88.5 402.5q0 232 88.5 404.5t243 268.5t351.5 96t351 -96t242.5 -268.5t88.5 -404.5q0 -230 -88.5 -402.5t-242.5 -268.5t-351 -96zM771 181q128 0 232 65t165 191t61 307q0 182 -61 308.5
t-165 191.5t-232 65t-232 -65t-165.5 -191.5t-61.5 -308.5q0 -181 61.5 -307t165.5 -191t232 -65z" />
    <glyph glyph-name="Ohorn" unicode="&#x1a0;" horiz-adv-x="1542" 
d="M771 1354v159q57 0 97.5 -3.5t84 -8t107.5 -8t170 -3.5q21 0 21 21v212h202v-212q0 -90 -48 -134t-138 -44q-45 0 -84 3t-89 7.5t-126.5 7.5t-196.5 3zM771 -23q-197 0 -351.5 96t-243 268.5t-88.5 402.5q0 232 88.5 404.5t243 268.5t351.5 96t351 -96t242.5 -268.5
t88.5 -404.5q0 -230 -88.5 -402.5t-242.5 -268.5t-351 -96zM771 181q128 0 232 65t165 191t61 307q0 182 -61 308.5t-165 191.5t-232 65t-232 -65t-165.5 -191.5t-61.5 -308.5q0 -181 61.5 -307t165.5 -191t232 -65z" />
    <glyph glyph-name="ohorn" unicode="&#x1a1;" 
d="M582 956v136q47 0 77 -3t58.5 -6t68.5 -5.5t106 -2.5q37 0 37 34v203h187v-191q0 -83 -47.5 -124t-143.5 -41h-171h-172zM583 -24q-152 0 -267 70.5t-178.5 196t-63.5 289.5q0 166 63.5 292t178.5 197t267 71q153 0 267.5 -71t178 -197t63.5 -292q0 -164 -63.5 -289.5
t-178 -196t-267.5 -70.5zM583 159q93 0 158.5 47t100 131.5t34.5 194.5q0 112 -34.5 196.5t-100 132t-158.5 47.5q-92 0 -158 -47t-100.5 -131.5t-34.5 -197.5q0 -111 34.5 -195t100 -131t158.5 -47z" />
    <glyph glyph-name="OI" unicode="&#x1a2;" horiz-adv-x="1769" 
d="M1248 799v-605q-44 -64 -121.5 -112t-179 -75t-218.5 -27q-150 0 -267.5 48.5t-200 139.5t-125 220.5t-42.5 291.5v117l242 3v-120q1 -158 44.5 -272t133.5 -174.5t228 -60.5q86 0 158 24.5t117 69.5v532h231zM1248 1296v-593l-231 -1v518q-42 45 -114.5 70t-157.5 25
q-139 0 -229.5 -57.5t-135 -170t-44.5 -277.5v-114h-242v114q0 165 44 294.5t128 220t204.5 138t273.5 47.5q113 0 212 -28t174.5 -76.5t117.5 -109.5zM1627 1490v-1908h-232v1658l-261 -103v218l315 135h178z" />
    <glyph glyph-name="uni01A3" unicode="&#x1a3;" horiz-adv-x="1319" 
d="M545 167q45 0 79 11.5t63 32.5v360h233v-414q-39 -51 -93.5 -91t-125.5 -63t-163 -23q-160 0 -268.5 74t-163.5 198t-55 270v38q0 162 54 291t164 205t277 76q86 0 157 -25t126 -66.5t91 -91.5v-422l-233 7v362q-28 23 -64 36.5t-84 13.5q-102 0 -157.5 -54.5t-77 -142.5
t-21.5 -189v-38q1 -108 30.5 -188t87.5 -123.5t144 -43.5zM1268 1118v-1536h-232v1250l-224 -118v266l282 138h174z" />
    <glyph glyph-name="uni01A4" unicode="&#x1a4;" horiz-adv-x="1593" 
d="M44 1056v151q0 139 75.5 211t226.5 72h113v-193h-93q-60 0 -87 -24.5t-27 -78.5v-138h-208zM458 0v1490h548q163 0 279 -58t178 -163.5t62 -247.5q0 -141 -63.5 -246.5t-181 -164t-279.5 -58.5h-415v193h407q99 0 168 34t105.5 96.5t36.5 145.5q0 85 -36.5 146.5
t-105.5 95.5t-169 34h-310v-1297h-224z" />
    <glyph glyph-name="uni01A5" unicode="&#x1a5;" horiz-adv-x="1199" 
d="M125 854v367q0 134 79.5 203t232.5 69q39 0 68.5 -0.5t52.5 -1.5v-177q-17 1 -48 1h-50q-65 0 -93 -23t-28 -75v-363h-214zM125 -418v1488h209v-159h6q31 53 78 93t109.5 62.5t138.5 22.5q137 0 240 -69t161 -193.5t58 -291.5t-57.5 -292t-161 -194.5t-240.5 -69.5
q-76 0 -137 23t-107.5 64.5t-78.5 96.5h-4v-581h-214zM622 162q87 0 151.5 44.5t100 128t35.5 200.5q0 118 -35.5 200.5t-100 127t-151.5 44.5q-92 0 -158 -46.5t-101.5 -129.5t-35.5 -196q0 -112 35.5 -196t102 -130.5t157.5 -46.5z" />
    <glyph glyph-name="YR" unicode="&#x1a6;" horiz-adv-x="1459" 
d="M84 1390v202h244v-202h-244zM84 1490h511q168 1 285 -50t178.5 -148.5t61.5 -240.5q0 -106 -40 -189t-114.5 -140t-178.5 -88l-70 -32h-454l-1 192h333q95 1 158 33t95 88.5t32 126.5q0 77 -29.5 133.5t-92 87.5t-163.5 31h-266v-1294h-245v1490zM1116 -357l-539 1016
h255l543 -1005v-11h-259z" />
    <glyph glyph-name="uni01A7" unicode="&#x1a7;" horiz-adv-x="1293" 
d="M638 -24q-170 0 -295 55.5t-193 155t-68 231.5q0 85 29.5 151t85.5 116t136.5 86.5t184.5 60.5l156 39q93 22 155.5 51.5t94.5 70t32 98.5q0 66 -39 117.5t-107 80.5t-158 29q-138 0 -223.5 -69.5t-94.5 -192.5h-216q4 140 70 242.5t183.5 158.5t276.5 56
q158 0 277.5 -54t186 -151.5t66.5 -228.5q0 -154 -103 -250.5t-319 -149.5l-166 -40q-98 -24 -161.5 -55t-93.5 -73.5t-30 -101.5q0 -72 42 -126t116.5 -83t174.5 -29q106 0 183.5 34.5t121 101.5t44.5 161h224q-2 -153 -72 -263t-197.5 -169.5t-303.5 -59.5z" />
    <glyph glyph-name="uni01A8" unicode="&#x1a8;" horiz-adv-x="1024" 
d="M96 758q11 153 123.5 242t291.5 89q123 0 215.5 -40t144.5 -111.5t52 -166.5q0 -118 -77 -195.5t-227 -110.5l-178 -40q-71 -15 -112 -47t-41 -86q0 -63 59.5 -101.5t160.5 -38.5q102 0 161 42t70 127l210 -7q-10 -111 -69.5 -185.5t-156 -112.5t-218.5 -38
q-126 0 -223.5 40t-153 113.5t-55.5 173.5q0 111 72.5 185t227.5 109l180 39q76 18 117.5 51.5t41.5 87.5q0 62 -56 100.5t-147 38.5q-95 0 -150.5 -46t-61.5 -120z" />
    <glyph glyph-name="uni01A9" unicode="&#x1a9;" horiz-adv-x="1269" 
d="M71 0v169l459 477q28 30 59.5 61t62.5 60t57 54v-110q-26 25 -56.5 53.5t-62 59t-60.5 59.5l-425 436v171h1115v-195h-571q-76 0 -149.5 0.5t-144.5 1.5l-4 45q33 -32 67.5 -63.5t69.5 -65.5t70 -70l326 -337v-79l-325 -341q-40 -42 -81 -82.5t-80.5 -79t-74.5 -72.5
l4 41q79 1 158.5 1.5t163.5 0.5h582v-195h-1160z" />
    <glyph glyph-name="eshlooprev" unicode="&#x1aa;" horiz-adv-x="1132" 
d="M593 1089l233 107v-1251q0 -97 35.5 -137.5t101.5 -40.5q33 0 72 10v-184q-26 -8 -61.5 -12t-65.5 -4q-155 0 -235 94.5t-80 273.5v1144zM97 1196q0 100 49 182t131.5 131t184.5 49q100 0 182.5 -49t132 -131t49.5 -182q0 -98 -49.5 -181t-132 -132t-182.5 -49
q-101 0 -184 49t-131.5 131.5t-49.5 181.5zM463 1042q61 0 105.5 39t43.5 119q0 77 -44 116.5t-105 39.5q-66 0 -110 -39.5t-44 -116.5q0 -80 44 -119t110 -39z" />
    <glyph glyph-name="uni01AB" unicode="&#x1ab;" horiz-adv-x="681" 
d="M206 -418v176q17 0 50 -0.5t53 -0.5q71 0 99.5 27.5t24.5 85.5l-4 151h206l4 -153q7 -137 -72 -213t-240 -76q-39 0 -68.5 1t-52.5 2zM628 1070v-176h-611v176h611zM198 1353h213v-1068q0 -61 25 -86t89 -25q22 0 51 1t50 2l9 -175q-29 -3 -66 -4t-72 -1
q-150 0 -224.5 66t-74.5 196v1094z" />
    <glyph glyph-name="uni01AC" unicode="&#x1ac;" horiz-adv-x="1307" 
d="M60 1056v151q0 139 75 211t226 72h113v-193h-92q-60 0 -87 -24.5t-27 -78.5v-138h-208zM474 1295v195h776v-195h-465v-1295h-223v1295h-88z" />
    <glyph glyph-name="uni01AD" unicode="&#x1ad;" horiz-adv-x="658" 
d="M174 1070h211v-766q0 -69 29 -99t96 -30q22 0 45.5 0.5t44.5 1.5l9 -175q-28 -3 -62.5 -4t-68.5 -1q-143 0 -223.5 71.5t-80.5 198.5v803zM604 1070v-174h-587v174h587zM174 854v367q0 134 79.5 203t231.5 69q40 0 69.5 -0.5t51.5 -1.5v-177q-16 1 -47 1h-51
q-64 0 -92.5 -23t-28.5 -75v-363h-213z" />
    <glyph glyph-name="Trthook" unicode="&#x1ae;" horiz-adv-x="1283" 
d="M838 -421q-153 0 -230.5 69.5t-77.5 203.5v312h224v-307q0 -52 26.5 -74.5t90.5 -22.5h50t48 1v-179q-23 -1 -57 -2t-74 -1zM58 1295v195h1167v-195h-471v-1295h-224v1295h-472z" />
    <glyph glyph-name="Uhorn" unicode="&#x1af;" horiz-adv-x="1456" 
d="M1099 1332v158h176q21 0 21 21v212h202v-212q0 -90 -48 -134.5t-138 -44.5h-213zM729 -24q-179 0 -312 69t-206.5 189.5t-73.5 276.5v979h222v-961q0 -102 45 -181t128 -124.5t197 -45.5t197 45.5t127.5 124.5t44.5 181v961h222v-979q0 -156 -73 -276.5t-206 -189.5
t-312 -69z" />
    <glyph glyph-name="uhorn" unicode="&#x1b0;" horiz-adv-x="1264" 
d="M933 929v141h66q33 0 33 33v209h185v-204q0 -90 -47.5 -134.5t-137.5 -44.5h-99zM507 -19q-109 0 -195.5 47t-136.5 141t-50 231v670h214v-643q0 -126 61.5 -191.5t170.5 -65.5q72 0 130 30t92 92t34 158v620h213v-1070h-208v265h43q-51 -144 -144 -214t-224 -70z" />
    <glyph glyph-name="Upsilon2" unicode="&#x1b1;" horiz-adv-x="1526" 
d="M90 697q1 204 81.5 352t220.5 238v12h-302v191h550v-242q-91 -38 -166 -117t-119.5 -188t-44.5 -239q0 -146 58 -264.5t160.5 -187.5t234.5 -69q133 0 235 69t159.5 187.5t57.5 264.5q0 130 -44.5 239t-119 188t-164.5 117v242h549v-191h-302v-12q139 -88 220.5 -237
t81.5 -353q0 -210 -86.5 -372t-238.5 -253.5t-348 -91.5q-147 0 -270 52.5t-213 148t-140 227t-50 289.5z" />
    <glyph glyph-name="Vcursive" unicode="&#x1b2;" horiz-adv-x="1271" 
d="M636 -20q-156 0 -279 56t-194.5 167.5t-71.5 277.5v1009h240v-1009q1 -157 82 -232.5t223 -75.5q141 0 221.5 75.5t80.5 232.5v660q0 95 -39 132t-115 37q-15 0 -36.5 -1t-38.5 -5v188q27 8 61.5 13t69.5 5q150 0 246 -95.5t96 -273.5v-660q0 -165 -74 -277t-198 -168
t-274 -56z" />
    <glyph glyph-name="uni01B3" unicode="&#x1b3;" horiz-adv-x="1454" 
d="M676 777v34h36v-34h-36zM33 1490h248l413 -693l318 533q53 88 123 131.5t149 46.5t156 -31l-54 -175q-59 22 -105.5 8t-87.5 -79l-388 -629v-602h-222v602z" />
    <glyph glyph-name="uni01B4" unicode="&#x1b4;" horiz-adv-x="1383" 
d="M845 1070l57 151q30 85 64.5 145.5t92.5 93.5t159 33q39 0 71.5 -0.5t56.5 -1.5v-176q-17 1 -48 1h-50q-40 0 -63 -12t-37 -37t-29 -63l-51 -134h-223zM133 -414l12 178l94 -2q39 -3 68 8.5t51.5 40t39.5 77.5l43 117l-412 1065h228l213 -592q32 -87 58.5 -174t52.5 -173
h-60q26 86 53.5 173t58.5 174l212 592h225l-481 -1248q-30 -80 -75.5 -133.5t-106 -81t-136.5 -27.5q-37 0 -72.5 2t-65.5 4z" />
    <glyph glyph-name="Zbar" unicode="&#x1b5;" horiz-adv-x="1280" 
d="M72 0v174l718 939q50 65 104 130.5t109 130.5l26 -77q-89 -1 -178 -1.5t-178 -0.5h-580v195h1109v-174l-704 -922q-54 -70 -110.5 -139.5t-115.5 -138.5l-26 77q88 1 176 1.5t176 0.5h611v-195h-1137zM228 657v176h824v-176h-824z" />
    <glyph glyph-name="zbar" unicode="&#x1b6;" horiz-adv-x="1040" 
d="M101 0v152l569 731v5h-565v182h826v-161l-559 -722v-5h567v-182h-838zM214 483v142h637v-142h-637z" />
    <glyph glyph-name="uni01B7" unicode="&#x1b7;" horiz-adv-x="1342" 
d="M58 78h225q7 -96 59 -169t135 -114t182 -41q118 0 203 57t131 154.5t46 219.5q0 137 -58 238t-160 155.5t-235 54.5h-127v175l472 474v12h-788v196h1082v-162l-512 -520v-14q162 -9 286.5 -88.5t194 -212.5t69.5 -305q0 -137 -43.5 -252t-124 -199t-191.5 -130.5
t-247 -46.5q-165 0 -297.5 65.5t-213 182.5t-88.5 270z" />
    <glyph glyph-name="uni01B8" unicode="&#x1b8;" horiz-adv-x="1343" 
d="M1285 78q-7 -153 -88 -270t-214 -182.5t-297 -65.5q-136 0 -247.5 46.5t-191.5 130.5t-124 199t-44 252q0 172 70.5 305t194.5 212.5t286 88.5v14l-513 520v162h1084v-196h-790v-12l472 -474v-175h-125q-133 0 -235.5 -54.5t-160.5 -155.5t-58 -238q0 -122 46 -219.5
t131.5 -154.5t201.5 -57q100 0 183 41t135 114t58 169h226z" />
    <glyph glyph-name="uni01B9" unicode="&#x1b9;" horiz-adv-x="1251" 
d="M621 -443q-155 0 -275.5 58t-189 159t-68.5 231q0 117 56.5 211.5t160.5 153.5t246 69v4l-408 465v162h924v-193h-641v-4l363 -421v-169h-132q-112 0 -189.5 -33t-117.5 -94t-40 -145q0 -81 39.5 -141t110.5 -93t163 -33q95 0 164 35t107.5 100.5t40.5 157.5h222
q-2 -140 -68.5 -248.5t-186.5 -170t-281 -61.5z" />
    <glyph glyph-name="uni01BA" unicode="&#x1ba;" horiz-adv-x="1083" 
d="M128 1070h880v-141l-562 -456h-127v142l346 268h-537v187zM302 -130q0 -65 55 -101t146 -36q57 0 110.5 16.5t89.5 57t40 110.5h226q0 -90 -52.5 -172.5t-155 -135.5t-252.5 -53q-130 0 -228 41.5t-152 115.5t-54 172q0 82 36 139t96 94t132.5 60.5t143.5 38.5
q68 15 117.5 29.5t76.5 40.5t27 72q0 54 -44.5 84t-144.5 30h-95l10 176h85q128 0 222.5 -35.5t146 -100.5t51.5 -156q0 -73 -31.5 -125.5t-87.5 -89.5t-129.5 -62.5t-157.5 -44.5q-87 -18 -136.5 -43.5t-70 -56.5t-20.5 -65z" />
    <glyph glyph-name="uni01BB" unicode="&#x1bb;" horiz-adv-x="1194" 
d="M97 0v173l529 489q83 78 139 139.5t84 121.5t28 132q0 83 -34.5 143.5t-96.5 93t-148 32.5q-91 0 -156 -38.5t-100 -108.5t-35 -166h-209q0 149 62.5 262.5t175.5 176.5t263 63q144 0 254 -57t172.5 -158t62.5 -233q0 -95 -35 -178.5t-108 -170t-188 -193.5l-356 -328v-5
h699v-190h-1003zM271 532v176h824v-176h-824z" />
    <glyph glyph-name="uni01BC" unicode="&#x1bc;" horiz-adv-x="1274" 
d="M345 1490v-191h-287v191h287zM670 -21q-146 0 -261.5 58.5t-183.5 160t-74 231.5h218q6 -75 46.5 -134.5t106.5 -93.5t149 -34q89 0 156.5 41.5t105.5 113.5t38 165q0 94 -37.5 166.5t-103.5 114t-153 41.5q-105 0 -183.5 -41.5t-112.5 -118.5l-209 7l56 834h876v-191
h-678l-36 -434h3q61 64 142.5 97t178.5 33q102 0 188 -37t150 -105t99 -160t35 -202q0 -149 -65 -264.5t-181 -181.5t-270 -66z" />
    <glyph glyph-name="uni01BD" unicode="&#x1bd;" horiz-adv-x="1133" 
d="M409 469l-204 13l74 600h706v-193h-513l-30 -219q35 22 94.5 39.5t120.5 18.5q122 3 209 -40.5t133 -127.5t46 -203q0 -106 -45 -190.5t-143 -134.5t-256 -50q-77 0 -154.5 20t-142 60.5t-104 102.5t-39.5 146l227 16q2 -73 61.5 -114t151.5 -41q112 0 162.5 53.5
t50.5 137.5q0 86 -53 139t-157 53q-79 0 -124 -26t-71 -60zM394 1082v-193h-306v193h306z" />
    <glyph glyph-name="glottalstopbarinv" unicode="&#x1be;" horiz-adv-x="1084" 
d="M760 292q0 48 -26.5 79.5t-68 57.5t-89 54.5t-89.5 67.5t-68.5 97.5t-26.5 145.5v551h235v-548q0 -64 26 -104.5t67.5 -68t88.5 -52.5t88.5 -57t68 -81t26.5 -126q0 -95 -54.5 -169.5t-153 -116.5t-230.5 -42q-149 0 -251.5 53t-155 136t-52.5 173h228q3 -70 38.5 -110.5
t88.5 -57.5t106 -17q98 0 151 38t53 97zM822 1082v-171h-613v171h613z" />
    <glyph glyph-name="uni01BF" unicode="&#x1bf;" horiz-adv-x="1274" 
d="M395 910v-1326h-233v1534h214zM349 663l-106 -67q13 121 45 220t85.5 169.5t131 108.5t180.5 38q139 0 234.5 -69.5t144.5 -194t49 -288.5v-50q0 -156 -54.5 -270t-157.5 -195.5t-250 -141t-332 -109.5l-8 185q164 34 292 98.5t202 170t74 262.5v50q0 98 -26.5 180
t-84.5 131.5t-151 49.5q-84 0 -139 -37t-86 -100t-43 -141z" />
    <glyph glyph-name="pipe" unicode="&#x1c0;" horiz-adv-x="520" 
d="M343 1482v-1482h-166v1482h166z" />
    <glyph glyph-name="pipedbl" unicode="&#x1c1;" horiz-adv-x="711" 
d="M294 1482v-1482h-166v1482h166zM565 1482v-1482h-166v1482h166z" />
    <glyph glyph-name="pipedblbar" unicode="&#x1c2;" horiz-adv-x="464" 
d="M315 1482v-1482h-166v1482h166zM-108 961v158h678v-158h-678zM-108 473v158h678v-158h-678z" />
    <glyph glyph-name="exclam1" unicode="&#x1c3;" horiz-adv-x="503" 
d="M152 427l-17 1063h232l-17 -1063h-198zM251 -17q-59 0 -100.5 41t-41.5 100q0 60 41.5 101t100.5 41q60 0 101 -41t41 -101q0 -59 -41 -100t-101 -41z" />
    <glyph glyph-name="Dzcaron_" unicode="&#x1c5;" horiz-adv-x="2473" 
d="M625 0h-368v195h355q172 0 285 65t169 189t56 298q0 173 -55.5 295.5t-165.5 187.5t-276 65h-375v195h390q219 0 377 -89.5t243 -256t85 -397.5q0 -232 -85.5 -399.5t-246 -257.5t-388.5 -90zM366 1490v-1490h-224v1490h224zM1534 0v152l569 731v5h-565v182h826v-161
l-559 -722v-5h567v-182h-838zM1808 1508l141 -173l139 173h196v-2l-241 -281h-190l-238 281v2h193z" />
    <glyph glyph-name="uni01C6" unicode="&#x1c6;" horiz-adv-x="2239" 
d="M534 -21q-137 0 -241 69.5t-161.5 194.5t-57.5 292t58 291.5t161.5 193.5t239.5 69q77 0 138.5 -22.5t108 -62.5t76.5 -93h5v579h213v-1490h-209v164h-6q-31 -56 -78.5 -97.5t-109 -64.5t-137.5 -23zM578 162q91 0 157 46.5t101.5 130.5t35.5 196q0 113 -35.5 196
t-101.5 129.5t-157 46.5q-88 0 -152.5 -44.5t-100 -127t-35.5 -200.5q0 -117 35.5 -200.5t100.5 -128t152 -44.5zM1300 0v152l569 731v5h-565v182h826v-161l-559 -722v-5h567v-182h-838zM1575 1508l141 -173l139 173h196v-2l-241 -281h-190l-238 281v2h193z" />
    <glyph glyph-name="uni01C7" unicode="&#x1c7;" horiz-adv-x="2249" 
d="M142 0v1490h224v-1295h698v-195h-922zM1652 -21q-205 0 -331 118t-126 336v86h219v-87q0 -127 65 -193t172 -66q108 0 172.5 66t64.5 193v1058h224v-1058q0 -218 -126.5 -335.5t-333.5 -117.5z" />
    <glyph glyph-name="uni01C8" unicode="&#x1c8;" horiz-adv-x="1585" 
d="M142 0v1490h224v-1295h698v-195h-922zM1246 1070h214v-1186q0 -91 -36.5 -159.5t-106.5 -105.5t-173 -37h-78v180h55q66 0 95.5 35t29.5 109v1164zM1353 1249q-56 0 -95 38t-39 92t39 92t95 38q57 0 96 -37.5t39 -92.5t-39 -92.5t-96 -37.5z" />
    <glyph glyph-name="uni01C9" unicode="&#x1c9;" horiz-adv-x="928" 
d="M339 1490v-1490h-214v1490h214zM589 1070h214v-1186q0 -91 -36.5 -159.5t-106.5 -105.5t-173 -37h-78v180h55q66 0 95.5 35t29.5 109v1164zM696 1249q-56 0 -95 38t-39 92t39 92t95 38q57 0 96 -37.5t39 -92.5t-39 -92.5t-96 -37.5z" />
    <glyph glyph-name="uni01CA" unicode="&#x1ca;" horiz-adv-x="2611" 
d="M142 0v1490h250l567 -898q22 -34 54.5 -89.5t69 -121t70.5 -131.5l-24 -39q-4 64 -7 142t-4 148.5t-1 110.5v878h224v-1490h-251l-508 802q-27 44 -65.5 108t-88 149.5t-109.5 189.5l33 34q6 -113 9 -206.5t4.5 -163t1.5 -109.5v-804h-225zM2014 -21q-205 0 -331 118
t-126 336v86h219v-87q0 -127 65 -193t172 -66q108 0 172.5 66t64.5 193v1058h224v-1058q0 -218 -126.5 -335.5t-333.5 -117.5z" />
    <glyph glyph-name="uni01CB" unicode="&#x1cb;" horiz-adv-x="1947" 
d="M142 0v1490h250l567 -898q22 -34 54.5 -89.5t69 -121t70.5 -131.5l-24 -39q-4 64 -7 142t-4 148.5t-1 110.5v878h224v-1490h-251l-508 802q-27 44 -65.5 108t-88 149.5t-109.5 189.5l33 34q6 -113 9 -206.5t4.5 -163t1.5 -109.5v-804h-225zM1608 1070h214v-1186
q0 -91 -36.5 -159.5t-106.5 -105.5t-173 -37h-78v180h55q66 0 95.5 35t29.5 109v1164zM1715 1249q-56 0 -95 38t-39 92t39 92t95 38q57 0 96 -37.5t39 -92.5t-39 -92.5t-96 -37.5z" />
    <glyph glyph-name="uni01CC" unicode="&#x1cc;" horiz-adv-x="1629" 
d="M339 620v-620h-214v1070h208l1 -265h-43q50 144 143 214t224 70q110 0 196.5 -47.5t136 -140.5t49.5 -232v-669h-213v643q0 126 -61 191.5t-172 65.5q-72 0 -130 -30t-91.5 -92t-33.5 -158zM1290 1070h214v-1186q0 -91 -36.5 -159.5t-106.5 -105.5t-173 -37h-78v180h55
q66 0 95.5 35t29.5 109v1164zM1397 1249q-56 0 -95 38t-39 92t39 92t95 38q57 0 96 -37.5t39 -92.5t-39 -92.5t-96 -37.5z" />
    <glyph glyph-name="uni01CD" unicode="&#x1cd;" horiz-adv-x="1395" 
d="M24 0l539 1490h270l538 -1490h-243l-287 838q-35 105 -75.5 234.5t-97.5 318.5h59q-56 -190 -96.5 -319.5t-75.5 -233.5l-292 -838h-239zM321 388v189h753v-189h-753zM558 1928l141 -173l139 173h196v-2l-241 -281h-190l-238 281v2h193z" />
    <glyph glyph-name="uni01CE" unicode="&#x1ce;" horiz-adv-x="1102" 
d="M446 -18q-106 0 -189.5 36.5t-132 108.5t-48.5 178q0 92 35.5 150.5t95 92.5t135 52t155.5 27q99 12 157.5 19.5t84.5 24.5t26 55v8q0 54 -25 94.5t-73 63.5t-116 23t-119.5 -22.5t-82.5 -60t-38 -83.5l-207 11q13 101 72 174.5t155.5 114t221.5 40.5q90 0 167.5 -23
t135 -68.5t89 -113t31.5 -156.5v-728h-209v150h-5q-22 -42 -61.5 -81t-102 -63t-152.5 -24zM490 153q92 0 153.5 34t92 89.5t30.5 120.5v128q-11 -9 -38 -17t-63.5 -15t-77 -13.5t-79.5 -11.5q-58 -8 -108.5 -26.5t-81 -52t-30.5 -88.5q0 -47 25 -80t70.5 -50.5t106.5 -17.5
zM402 1508l141 -173l139 173h196v-2l-241 -281h-190l-238 281v2h193z" />
    <glyph glyph-name="uni01CF" unicode="&#x1cf;" horiz-adv-x="508" 
d="M366 1490v-1490h-224v1490h224zM113 1928l141 -173l139 173h196v-2l-241 -281h-190l-238 281v2h193z" />
    <glyph glyph-name="uni01D0" unicode="&#x1d0;" horiz-adv-x="464" 
d="M125 0v1070h214v-1070h-214zM91 1508l141 -173l139 173h196v-2l-241 -281h-190l-238 281v2h193z" />
    <glyph glyph-name="uni01D1" unicode="&#x1d1;" horiz-adv-x="1541" 
d="M771 -23q-197 0 -351.5 96t-243 268.5t-88.5 402.5q0 232 88.5 404.5t243 268.5t351.5 96t351 -96t242.5 -268.5t88.5 -404.5q0 -230 -88.5 -402.5t-242.5 -268.5t-351 -96zM771 181q128 0 232 65t165 191t61 307q0 182 -61 308.5t-165 191.5t-232 65t-232 -65
t-165.5 -191.5t-61.5 -308.5q0 -181 61.5 -307t165.5 -191t232 -65zM630 1928l141 -173l139 173h196v-2l-241 -281h-190l-238 281v2h193z" />
    <glyph glyph-name="uni01D2" unicode="&#x1d2;" horiz-adv-x="1166" 
d="M583 -24q-152 0 -267 70.5t-178.5 196t-63.5 289.5q0 166 63.5 292t178.5 197t267 71q153 0 267.5 -71t178 -197t63.5 -292q0 -164 -63.5 -289.5t-178 -196t-267.5 -70.5zM583 159q93 0 158.5 47t100 131.5t34.5 194.5q0 112 -34.5 196.5t-100 132t-158.5 47.5
q-92 0 -158 -47t-100.5 -131.5t-34.5 -197.5q0 -111 34.5 -195t100 -131t158.5 -47zM442 1508l141 -173l139 173h196v-2l-241 -281h-190l-238 281v2h193z" />
    <glyph glyph-name="uni01D3" unicode="&#x1d3;" horiz-adv-x="1457" 
d="M729 -24q-179 0 -312 69t-206.5 189.5t-73.5 276.5v979h222v-961q0 -102 45 -181t128 -124.5t197 -45.5t197 45.5t127.5 124.5t44.5 181v961h222v-979q0 -156 -73 -276.5t-206 -189.5t-312 -69zM588 1928l141 -173l139 173h196v-2l-241 -281h-190l-238 281v2h193z" />
    <glyph glyph-name="uni01D4" unicode="&#x1d4;" 
d="M507 -19q-109 0 -195.5 47t-136.5 141t-50 231v670h214v-643q0 -126 61.5 -191.5t170.5 -65.5q72 0 130 30t92 92t34 158v620h213v-1070h-208v265h43q-51 -144 -144 -214t-224 -70zM442 1508l141 -173l139 173h196v-2l-241 -281h-190l-238 281v2h193z" />
    <glyph glyph-name="uni01D5" unicode="&#x1d5;" horiz-adv-x="1457" 
d="M729 -24q-179 0 -312 69t-206.5 189.5t-73.5 276.5v979h222v-961q0 -102 45 -181t128 -124.5t197 -45.5t197 45.5t127.5 124.5t44.5 181v961h222v-979q0 -156 -73 -276.5t-206 -189.5t-312 -69zM936 1632q-54 0 -92 38t-38 91q0 54 38 91.5t93 37.5q54 0 92 -37.5
t38 -91.5t-38 -91.5t-93 -37.5zM509 1632q-55 0 -93 38t-38 91q0 54 38 91.5t93 37.5t93 -37.5t38 -91.5t-38 -91.5t-93 -37.5zM1010 2148v-140h-561v140h561z" />
    <glyph glyph-name="uni01D6" unicode="&#x1d6;" 
d="M507 -19q-109 0 -195.5 47t-136.5 141t-50 231v670h214v-643q0 -126 61.5 -191.5t170.5 -65.5q72 0 130 30t92 92t34 158v620h213v-1070h-208v265h43q-51 -144 -144 -214t-224 -70zM790 1212q-54 0 -92 38t-38 91q0 54 38 91.5t93 37.5q54 0 92 -37.5t38 -91.5t-38 -91.5
t-93 -37.5zM363 1212q-55 0 -93 38t-38 91q0 54 38 91.5t93 37.5t93 -37.5t38 -91.5t-38 -91.5t-93 -37.5zM864 1728v-140h-561v140h561z" />
    <glyph glyph-name="uni01D7" unicode="&#x1d7;" horiz-adv-x="1457" 
d="M729 -24q-179 0 -312 69t-206.5 189.5t-73.5 276.5v979h222v-961q0 -102 45 -181t128 -124.5t197 -45.5t197 45.5t127.5 124.5t44.5 181v961h222v-979q0 -156 -73 -276.5t-206 -189.5t-312 -69zM936 1632q-54 0 -92 38t-38 91q0 54 38 91.5t93 37.5q54 0 92 -37.5
t38 -91.5t-38 -91.5t-93 -37.5zM509 1632q-55 0 -93 38t-38 91q0 54 38 91.5t93 37.5t93 -37.5t38 -91.5t-38 -91.5t-93 -37.5zM646 1966l145 277h217l-203 -277h-159z" />
    <glyph glyph-name="uni01D8" unicode="&#x1d8;" 
d="M507 -19q-109 0 -195.5 47t-136.5 141t-50 231v670h214v-643q0 -126 61.5 -191.5t170.5 -65.5q72 0 130 30t92 92t34 158v620h213v-1070h-208v265h43q-51 -144 -144 -214t-224 -70zM790 1212q-54 0 -92 38t-38 91q0 54 38 91.5t93 37.5q54 0 92 -37.5t38 -91.5t-38 -91.5
t-93 -37.5zM363 1212q-55 0 -93 38t-38 91q0 54 38 91.5t93 37.5t93 -37.5t38 -91.5t-38 -91.5t-93 -37.5zM500 1546l145 277h217l-203 -277h-159z" />
    <glyph glyph-name="uni01D9" unicode="&#x1d9;" horiz-adv-x="1457" 
d="M729 -24q-179 0 -312 69t-206.5 189.5t-73.5 276.5v979h222v-961q0 -102 45 -181t128 -124.5t197 -45.5t197 45.5t127.5 124.5t44.5 181v961h222v-979q0 -156 -73 -276.5t-206 -189.5t-312 -69zM936 1632q-54 0 -92 38t-38 91q0 54 38 91.5t93 37.5q54 0 92 -37.5
t38 -91.5t-38 -91.5t-93 -37.5zM509 1632q-55 0 -93 38t-38 91q0 54 38 91.5t93 37.5t93 -37.5t38 -91.5t-38 -91.5t-93 -37.5zM592 2227l137 -170l137 170h189v-3l-235 -274h-183l-233 274v3h188z" />
    <glyph glyph-name="uni01DA" unicode="&#x1da;" 
d="M507 -19q-109 0 -195.5 47t-136.5 141t-50 231v670h214v-643q0 -126 61.5 -191.5t170.5 -65.5q72 0 130 30t92 92t34 158v620h213v-1070h-208v265h43q-51 -144 -144 -214t-224 -70zM790 1212q-54 0 -92 38t-38 91q0 54 38 91.5t93 37.5q54 0 92 -37.5t38 -91.5t-38 -91.5
t-93 -37.5zM363 1212q-55 0 -93 38t-38 91q0 54 38 91.5t93 37.5t93 -37.5t38 -91.5t-38 -91.5t-93 -37.5zM446 1807l137 -170l137 170h189v-3l-235 -274h-183l-233 274v3h188z" />
    <glyph glyph-name="uni01DB" unicode="&#x1db;" horiz-adv-x="1457" 
d="M729 -24q-179 0 -312 69t-206.5 189.5t-73.5 276.5v979h222v-961q0 -102 45 -181t128 -124.5t197 -45.5t197 45.5t127.5 124.5t44.5 181v961h222v-979q0 -156 -73 -276.5t-206 -189.5t-312 -69zM935 1632q-54 0 -92 38t-38 92q0 53 38 90.5t93 37.5q54 0 92 -37t38 -92
q0 -54 -38 -91.5t-93 -37.5zM508 1632q-55 0 -93 38t-38 92q0 53 38 90.5t93 37.5t93 -37t38 -92q0 -54 -38 -91.5t-93 -37.5zM642 1966l-203 277h218l144 -277h-159z" />
    <glyph glyph-name="uni01DC" unicode="&#x1dc;" 
d="M507 -19q-109 0 -195.5 47t-136.5 141t-50 231v670h214v-643q0 -126 61.5 -191.5t170.5 -65.5q72 0 130 30t92 92t34 158v620h213v-1070h-208v265h43q-51 -144 -144 -214t-224 -70zM789 1212q-54 0 -92 38t-38 92q0 53 38 90.5t93 37.5q54 0 92 -37t38 -92
q0 -54 -38 -91.5t-93 -37.5zM362 1212q-55 0 -93 38t-38 92q0 53 38 90.5t93 37.5t93 -37t38 -92q0 -54 -38 -91.5t-93 -37.5zM496 1546l-203 277h218l144 -277h-159z" />
    <glyph glyph-name="eturn" unicode="&#x1dd;" horiz-adv-x="1135" 
d="M551 1094q159 0 273 -71t175.5 -196.5t61.5 -288.5t-63 -289.5t-175 -198.5t-259 -72q-108 0 -198.5 38t-157 110.5t-102.5 174.5t-36 231v62h890v-161h-779l95 50q0 -98 34.5 -172t99 -114.5t153.5 -40.5q88 0 152.5 40.5t100 113.5t35.5 168v96q0 104 -36 180.5
t-103.5 119t-162.5 42.5q-68 0 -120.5 -20.5t-87.5 -58t-51 -88.5l-204 11q21 99 86 174t162.5 117.5t216.5 42.5z" />
    <glyph glyph-name="uni01DE" unicode="&#x1de;" horiz-adv-x="1395" 
d="M24 0l539 1490h270l538 -1490h-243l-287 838q-35 105 -75.5 234.5t-97.5 318.5h59q-56 -190 -96.5 -319.5t-75.5 -233.5l-292 -838h-239zM321 388v189h753v-189h-753zM906 1632q-54 0 -92 38t-38 91q0 54 38 91.5t93 37.5q54 0 92 -37.5t38 -91.5t-38 -91.5t-93 -37.5z
M479 1632q-55 0 -93 38t-38 91q0 54 38 91.5t93 37.5t93 -37.5t38 -91.5t-38 -91.5t-93 -37.5zM980 2148v-140h-561v140h561z" />
    <glyph glyph-name="uni01DF" unicode="&#x1df;" horiz-adv-x="1102" 
d="M446 -18q-106 0 -189.5 36.5t-132 108.5t-48.5 178q0 92 35.5 150.5t95 92.5t135 52t155.5 27q99 12 157.5 19.5t84.5 24.5t26 55v8q0 54 -25 94.5t-73 63.5t-116 23t-119.5 -22.5t-82.5 -60t-38 -83.5l-207 11q13 101 72 174.5t155.5 114t221.5 40.5q90 0 167.5 -23
t135 -68.5t89 -113t31.5 -156.5v-728h-209v150h-5q-22 -42 -61.5 -81t-102 -63t-152.5 -24zM490 153q92 0 153.5 34t92 89.5t30.5 120.5v128q-11 -9 -38 -17t-63.5 -15t-77 -13.5t-79.5 -11.5q-58 -8 -108.5 -26.5t-81 -52t-30.5 -88.5q0 -47 25 -80t70.5 -50.5t106.5 -17.5
zM750 1212q-54 0 -92 38t-38 91q0 54 38 91.5t93 37.5q54 0 92 -37.5t38 -91.5t-38 -91.5t-93 -37.5zM323 1212q-55 0 -93 38t-38 91q0 54 38 91.5t93 37.5t93 -37.5t38 -91.5t-38 -91.5t-93 -37.5zM824 1728v-140h-561v140h561z" />
    <glyph glyph-name="uni01E0" unicode="&#x1e0;" horiz-adv-x="1395" 
d="M24 0l539 1490h270l538 -1490h-243l-287 838q-35 105 -75.5 234.5t-97.5 318.5h59q-56 -190 -96.5 -319.5t-75.5 -233.5l-292 -838h-239zM321 388v189h753v-189h-753zM699 1631q-56 0 -95 38t-39 92q0 55 39 92.5t95 37.5q57 0 96 -37.5t39 -92.5t-39 -92.5t-96 -37.5z
M979 2148v-140h-561v140h561z" />
    <glyph glyph-name="uni01E1" unicode="&#x1e1;" horiz-adv-x="1102" 
d="M446 -18q-106 0 -189.5 36.5t-132 108.5t-48.5 178q0 92 35.5 150.5t95 92.5t135 52t155.5 27q99 12 157.5 19.5t84.5 24.5t26 55v8q0 54 -25 94.5t-73 63.5t-116 23t-119.5 -22.5t-82.5 -60t-38 -83.5l-207 11q13 101 72 174.5t155.5 114t221.5 40.5q90 0 167.5 -23
t135 -68.5t89 -113t31.5 -156.5v-728h-209v150h-5q-22 -42 -61.5 -81t-102 -63t-152.5 -24zM490 153q92 0 153.5 34t92 89.5t30.5 120.5v128q-11 -9 -38 -17t-63.5 -15t-77 -13.5t-79.5 -11.5q-58 -8 -108.5 -26.5t-81 -52t-30.5 -88.5q0 -47 25 -80t70.5 -50.5t106.5 -17.5
zM544 1211q-56 0 -95 38t-39 92q0 55 39 92.5t95 37.5q57 0 96 -37.5t39 -92.5t-39 -92.5t-96 -37.5zM824 1728v-140h-561v140h561z" />
    <glyph glyph-name="uni01E2" unicode="&#x1e2;" horiz-adv-x="2023" 
d="M24 0l666 1490h1251v-195h-764v-449h708v-193h-708v-458h765v-195h-984v1306h-126l-572 -1306h-236zM362 413v183h695v-183h-695zM1603 1857v-157h-561v157h561z" />
    <glyph glyph-name="uni01E3" unicode="&#x1e3;" horiz-adv-x="1812" 
d="M468 -17q-121 0 -209 39.5t-135.5 112t-47.5 170.5q0 84 37 146t104 103t159 61.5t203 20.5h1045l-90 -51q3 99 -31.5 173t-99 115t-153.5 41t-153.5 -40.5t-100 -113t-35.5 -168.5v-96q0 -103 36 -180t103.5 -119.5t162.5 -42.5q67 0 119.5 20.5t88 58t51.5 87.5l204 -8
q-21 -100 -85.5 -175.5t-162.5 -118t-218 -42.5q-112 0 -201.5 37.5t-152.5 106t-94 158.5l6 518q38 90 100 156.5t145 103t185 36.5q108 0 198.5 -38t157 -110.5t102.5 -175t36 -230.5v-63h-1174q-87 0 -150 -19t-96.5 -57t-33.5 -92q0 -77 55 -115t147 -38t153 33.5
t91.5 89t30.5 120.5v337q0 54 -25 94.5t-73 63.5t-116 23t-119.5 -22.5t-82.5 -60t-38 -83.5l-207 11q12 99 71 172.5t155 115t219 41.5q115 0 199.5 -39.5t132 -114t53.5 -180.5l-21 -522h-28q-22 -64 -61.5 -111t-94 -77.5t-120.5 -46t-141 -15.5zM1161 1437v-157h-561
v157h561z" />
    <glyph glyph-name="Gbar" unicode="&#x1e4;" horiz-adv-x="1507" 
d="M776 -23q-203 0 -357.5 96.5t-242.5 269.5t-88 401q0 232 88.5 405t243.5 268.5t352 95.5q122 0 228.5 -36.5t190 -104.5t138.5 -160.5t72 -205.5h-227q-17 68 -52.5 124t-87.5 96t-117.5 61.5t-141.5 21.5q-138 0 -242 -69.5t-162.5 -196.5t-58.5 -299
q0 -171 58.5 -297.5t163.5 -196t244 -69.5q118 0 211.5 50t147.5 140t54 210l63 -5h-430v185h587v-170q0 -180 -83 -318.5t-226.5 -217t-325.5 -78.5zM823 332v134h667v-134h-667z" />
    <glyph glyph-name="gbar" unicode="&#x1e5;" horiz-adv-x="1336" 
d="M588 -434q-130 0 -227.5 37t-158 106.5t-78.5 164.5l205 20q15 -47 49.5 -82t87 -54t121.5 -19q128 0 202 67t74 195v173h-5q-33 -55 -79 -96t-107.5 -63t-138.5 -22q-136 0 -239.5 68t-161.5 190.5t-58 286.5q0 165 58 289t162 193t239 69q77 0 139 -22.5t109.5 -64
t79.5 -98.5h4v166h209v-1063q0 -157 -65 -254t-175.5 -142t-245.5 -45zM578 174q91 0 157 45t102 127.5t36 193.5t-36 193.5t-102 128.5t-157 46q-87 0 -152 -44t-100.5 -126t-35.5 -198q0 -117 35.5 -198.5t100.5 -124.5t152 -43zM652 494v142h637v-142h-637z" />
    <glyph glyph-name="Gcaron" unicode="&#x1e6;" horiz-adv-x="1507" 
d="M776 -23q-203 0 -357.5 96.5t-242.5 269.5t-88 401q0 232 88.5 405t243.5 268.5t352 95.5q122 0 228.5 -36.5t190 -104.5t138.5 -160.5t72 -205.5h-227q-17 68 -52.5 124t-87.5 96t-117.5 61.5t-141.5 21.5q-138 0 -242 -69.5t-162.5 -196.5t-58.5 -299
q0 -171 58.5 -297.5t163.5 -196t244 -69.5q118 0 211.5 50t147.5 140t54 210l63 -5h-430v185h587v-170q0 -180 -83 -318.5t-226.5 -217t-325.5 -78.5zM621 1928l141 -173l139 173h196v-2l-241 -281h-190l-238 281v2h193z" />
    <glyph glyph-name="gcaron" unicode="&#x1e7;" horiz-adv-x="1200" 
d="M588 -434q-130 0 -227.5 37t-158 106.5t-78.5 164.5l205 20q15 -47 49.5 -82t87 -54t121.5 -19q128 0 202 67t74 195v173h-5q-33 -55 -79 -96t-107.5 -63t-138.5 -22q-136 0 -239.5 68t-161.5 190.5t-58 286.5q0 165 58 289t162 193t239 69q77 0 139 -22.5t109.5 -64
t79.5 -98.5h4v166h209v-1063q0 -157 -65 -254t-175.5 -142t-245.5 -45zM578 174q91 0 157 45t102 127.5t36 193.5t-36 193.5t-102 128.5t-157 46q-87 0 -152 -44t-100.5 -126t-35.5 -198q0 -117 35.5 -198.5t100.5 -124.5t152 -43zM435 1508l141 -173l139 173h196v-2
l-241 -281h-190l-238 281v2h193z" />
    <glyph glyph-name="uni01E8" unicode="&#x1e8;" horiz-adv-x="1350" 
d="M299 390v271q51 63 102 123t103.5 119.5t106.5 119.5l422 467h284l-634 -695l-14 1zM142 0v1490h224v-482l-1 -337l1 -108v-563h-224zM1060 0l-512 734l137 173l637 -907h-262zM543 1928l141 -173l139 173h196v-2l-241 -281h-190l-238 281v2h193z" />
    <glyph glyph-name="uni01E9" unicode="&#x1e9;" horiz-adv-x="1085" 
d="M322 360v254h23l449 456h262l-503 -517h-34zM125 0v1490h214v-1490h-214zM824 0l-397 505l146 149l513 -654h-262zM91 1928l141 -173l139 173h196v-2l-241 -281h-190l-238 281v2h193z" />
    <glyph glyph-name="uni01EA" unicode="&#x1ea;" horiz-adv-x="1541" 
d="M771 -23q-197 0 -351.5 96t-243 268.5t-88.5 402.5q0 232 88.5 404.5t243 268.5t351.5 96t351 -96t242.5 -268.5t88.5 -404.5q0 -230 -88.5 -402.5t-242.5 -268.5t-351 -96zM771 181q128 0 232 65t165 191t61 307q0 182 -61 308.5t-165 191.5t-232 65t-232 -65
t-165.5 -191.5t-61.5 -308.5q0 -181 61.5 -307t165.5 -191t232 -65zM826 -422q-104 0 -169 50t-65 145q0 78 42.5 131t112.5 93t153.5 80t167 90.5t153 124.5t112 184t42.5 268h78q0 -160 -35 -276.5t-92.5 -199.5t-127 -140.5t-138.5 -98.5t-126.5 -74.5t-93 -67.5
t-35.5 -78q0 -33 20.5 -51.5t63.5 -18.5q17 0 35 2t32 4l14 -155q-31 -5 -68.5 -8.5t-75.5 -3.5z" />
    <glyph glyph-name="uni01EB" unicode="&#x1eb;" horiz-adv-x="1166" 
d="M583 -24q-152 0 -267 70.5t-178.5 196t-63.5 289.5q0 166 63.5 292t178.5 197t267 71q153 0 267.5 -71t178 -197t63.5 -292q0 -164 -63.5 -289.5t-178 -196t-267.5 -70.5zM583 159q93 0 158.5 47t100 131.5t34.5 194.5q0 112 -34.5 196.5t-100 132t-158.5 47.5
q-92 0 -158 -47t-100.5 -131.5t-34.5 -197.5q0 -111 34.5 -195t100 -131t158.5 -47zM647 -423q-115 0 -177 49t-62 143q0 70 31.5 119.5t83.5 89t114.5 75.5t124.5 77t114.5 95t83.5 129t31 178h101q0 -135 -34.5 -228.5t-88.5 -156t-115.5 -105.5t-116 -77.5t-89 -70
t-34.5 -86.5q0 -33 21 -51.5t74 -18.5q14 0 26.5 2t24.5 4l14 -155q-27 -5 -60 -8.5t-67 -3.5z" />
    <glyph glyph-name="uni01EC" unicode="&#x1ec;" horiz-adv-x="1541" 
d="M771 -23q-197 0 -351.5 96t-243 268.5t-88.5 402.5q0 232 88.5 404.5t243 268.5t351.5 96t351 -96t242.5 -268.5t88.5 -404.5q0 -230 -88.5 -402.5t-242.5 -268.5t-351 -96zM771 181q128 0 232 65t165 191t61 307q0 182 -61 308.5t-165 191.5t-232 65t-232 -65
t-165.5 -191.5t-61.5 -308.5q0 -181 61.5 -307t165.5 -191t232 -65zM826 -422q-104 0 -169 50t-65 145q0 78 42.5 131t112.5 93t153.5 80t167 90.5t153 124.5t112 184t42.5 268h78q0 -160 -35 -276.5t-92.5 -199.5t-127 -140.5t-138.5 -98.5t-126.5 -74.5t-93 -67.5
t-35.5 -78q0 -33 20.5 -51.5t63.5 -18.5q17 0 35 2t32 4l14 -155q-31 -5 -68.5 -8.5t-75.5 -3.5zM1051 1857v-157h-561v157h561z" />
    <glyph glyph-name="uni01ED" unicode="&#x1ed;" horiz-adv-x="1166" 
d="M583 -24q-152 0 -267 70.5t-178.5 196t-63.5 289.5q0 166 63.5 292t178.5 197t267 71q153 0 267.5 -71t178 -197t63.5 -292q0 -164 -63.5 -289.5t-178 -196t-267.5 -70.5zM583 159q93 0 158.5 47t100 131.5t34.5 194.5q0 112 -34.5 196.5t-100 132t-158.5 47.5
q-92 0 -158 -47t-100.5 -131.5t-34.5 -197.5q0 -111 34.5 -195t100 -131t158.5 -47zM647 -423q-115 0 -177 49t-62 143q0 70 31.5 119.5t83.5 89t114.5 75.5t124.5 77t114.5 95t83.5 129t31 178h101q0 -135 -34.5 -228.5t-88.5 -156t-115.5 -105.5t-116 -77.5t-89 -70
t-34.5 -86.5q0 -33 21 -51.5t74 -18.5q14 0 26.5 2t24.5 4l14 -155q-27 -5 -60 -8.5t-67 -3.5zM863 1437v-157h-561v157h561z" />
    <glyph glyph-name="uni01EE" unicode="&#x1ee;" horiz-adv-x="1342" 
d="M58 78h225q7 -96 59 -169t135 -114t182 -41q118 0 203 57t131 154.5t46 219.5q0 137 -58 238t-160 155.5t-235 54.5h-127v175l472 474v12h-788v196h1082v-162l-512 -520v-14q162 -9 286.5 -88.5t194 -212.5t69.5 -305q0 -137 -43.5 -252t-124 -199t-191.5 -130.5
t-247 -46.5q-165 0 -297.5 65.5t-213 182.5t-88.5 270zM526 1928l141 -173l139 173h196v-2l-241 -281h-190l-238 281v2h193z" />
    <glyph glyph-name="uni01EF" unicode="&#x1ef;" horiz-adv-x="1241" 
d="M629 -443q-158 0 -278.5 62t-187.5 170.5t-69 247.5h221q2 -90 40.5 -155.5t108.5 -101t162 -35.5q91 0 160 35.5t108 100.5t39 152t-41.5 150.5t-120 98.5t-190.5 35h-179v161l399 397v4h-618v191h898v-182l-484 -478v45q180 14 304 -38.5t187.5 -153.5t63.5 -234
q0 -139 -66.5 -245.5t-184.5 -166.5t-272 -60zM486 1508l141 -173l139 173h196v-2l-241 -281h-190l-238 281v2h193z" />
    <glyph glyph-name="uni01F0" unicode="&#x1f0;" horiz-adv-x="464" 
d="M125 1070h214v-1186q0 -91 -36.5 -159.5t-106.5 -105.5t-173 -37h-78v180h55q66 0 95.5 35t29.5 109v1164zM91 1508l141 -173l139 173h196v-2l-241 -281h-190l-238 281v2h193z" />
    <glyph glyph-name="uni01F1" unicode="&#x1f1;" horiz-adv-x="2713" 
d="M625 0h-368v195h355q172 0 285 65t169 189t56 298q0 173 -55.5 295.5t-165.5 187.5t-276 65h-375v195h390q219 0 377 -89.5t243 -256t85 -397.5q0 -232 -85.5 -399.5t-246 -257.5t-388.5 -90zM366 1490v-1490h-224v1490h224zM1505 0v174l718 939q50 65 104 130.5
t109 130.5l26 -77q-89 -1 -178 -1.5t-178 -0.5h-580v195h1109v-174l-704 -922q-54 -70 -110.5 -139.5t-115.5 -138.5l-26 77q88 1 176 1.5t176 0.5h611v-195h-1137z" />
    <glyph glyph-name="uni01F2" unicode="&#x1f2;" horiz-adv-x="2473" 
d="M625 0h-368v195h355q172 0 285 65t169 189t56 298q0 173 -55.5 295.5t-165.5 187.5t-276 65h-375v195h390q219 0 377 -89.5t243 -256t85 -397.5q0 -232 -85.5 -399.5t-246 -257.5t-388.5 -90zM366 1490v-1490h-224v1490h224zM1534 0v152l569 731v5h-565v182h826v-161
l-559 -722v-5h567v-182h-838z" />
    <glyph glyph-name="uni01F3" unicode="&#x1f3;" horiz-adv-x="2239" 
d="M534 -21q-137 0 -241 69.5t-161.5 194.5t-57.5 292t58 291.5t161.5 193.5t239.5 69q77 0 138.5 -22.5t108 -62.5t76.5 -93h5v579h213v-1490h-209v164h-6q-31 -56 -78.5 -97.5t-109 -64.5t-137.5 -23zM578 162q91 0 157 46.5t101.5 130.5t35.5 196q0 113 -35.5 196
t-101.5 129.5t-157 46.5q-88 0 -152.5 -44.5t-100 -127t-35.5 -200.5q0 -117 35.5 -200.5t100.5 -128t152 -44.5zM1300 0v152l569 731v5h-565v182h826v-161l-559 -722v-5h567v-182h-838z" />
    <glyph glyph-name="uni01F4" unicode="&#x1f4;" horiz-adv-x="1507" 
d="M776 -23q-203 0 -357.5 96.5t-242.5 269.5t-88 401q0 232 88.5 405t243.5 268.5t352 95.5q122 0 228.5 -36.5t190 -104.5t138.5 -160.5t72 -205.5h-227q-17 68 -52.5 124t-87.5 96t-117.5 61.5t-141.5 21.5q-138 0 -242 -69.5t-162.5 -196.5t-58.5 -299
q0 -171 58.5 -297.5t163.5 -196t244 -69.5q118 0 211.5 50t147.5 140t54 210l63 -5h-430v185h587v-170q0 -180 -83 -318.5t-226.5 -217t-325.5 -78.5zM673 1626l149 302h225l-209 -302h-165z" />
    <glyph glyph-name="uni01F5" unicode="&#x1f5;" horiz-adv-x="1200" 
d="M588 -434q-130 0 -227.5 37t-158 106.5t-78.5 164.5l205 20q15 -47 49.5 -82t87 -54t121.5 -19q128 0 202 67t74 195v173h-5q-33 -55 -79 -96t-107.5 -63t-138.5 -22q-136 0 -239.5 68t-161.5 190.5t-58 286.5q0 165 58 289t162 193t239 69q77 0 139 -22.5t109.5 -64
t79.5 -98.5h4v166h209v-1063q0 -157 -65 -254t-175.5 -142t-245.5 -45zM578 174q91 0 157 45t102 127.5t36 193.5t-36 193.5t-102 128.5t-157 46q-87 0 -152 -44t-100.5 -126t-35.5 -198q0 -117 35.5 -198.5t100.5 -124.5t152 -43zM487 1206l149 302h225l-209 -302h-165z
" />
    <glyph glyph-name="uni01F6" unicode="&#x1f6;" horiz-adv-x="2174" 
d="M1579 -21q-143 0 -249.5 54t-165 154t-58.5 238v236h-740v-661h-224v1490h224v-634h740v634h224v-1057q0 -85 28.5 -144t84.5 -89.5t136 -30.5q81 0 138 30.5t86.5 89.5t29.5 144v634h216v-642q0 -138 -58.5 -238t-164 -154t-247.5 -54z" />
    <glyph glyph-name="uni01F7" unicode="&#x1f7;" horiz-adv-x="1321" 
d="M350 1490v-1908h-241v1908h241zM230 -182v194q191 36 330 117.5t230 193t135.5 240t44.5 258.5v56q0 108 -21 190t-64 137t-109 83t-157 28q-110 0 -180 -39t-108.5 -108t-56.5 -162v396q58 49 142 78.5t201 29.5q178 0 312.5 -70.5t209 -211.5t74.5 -355v-52
q0 -189 -72 -356t-203.5 -299.5t-311.5 -222.5t-396 -125z" />
    <glyph glyph-name="uni01F8" unicode="&#x1f8;" horiz-adv-x="1483" 
d="M142 0v1490h250l567 -898q22 -34 54.5 -89.5t69 -121t70.5 -131.5l-24 -39q-4 64 -7 142t-4 148.5t-1 110.5v878h224v-1490h-251l-508 802q-27 44 -65.5 108t-88 149.5t-109.5 189.5l33 34q6 -113 9 -206.5t4.5 -163t1.5 -109.5v-804h-225zM665 1626l-209 302h225
l149 -302h-165z" />
    <glyph glyph-name="uni01F9" unicode="&#x1f9;" 
d="M339 620v-620h-214v1070h208l1 -265h-43q50 144 143 214t224 70q110 0 196.5 -47.5t136 -140.5t49.5 -232v-669h-213v643q0 126 -61 191.5t-172 65.5q-72 0 -130 -30t-91.5 -92t-33.5 -158zM506 1206l-209 302h225l149 -302h-165z" />
    <glyph glyph-name="Aringacute" unicode="&#x1fa;" horiz-adv-x="1395" 
d="M24 0l539 1490h270l538 -1490h-243l-287 838q-35 105 -75.5 234.5t-97.5 318.5h59q-56 -190 -96.5 -319.5t-75.5 -233.5l-292 -838h-239zM321 388v189h753v-189h-753zM622 2096l146 189h204l-193 -189h-157zM699 1570q-70 0 -126.5 31.5t-90 85t-33.5 118.5q0 66 33 119
t90 84.5t127 31.5t127 -31.5t90 -84.5t33 -119q0 -65 -33 -118.5t-89.5 -85t-127.5 -31.5zM699 1694q47 0 79.5 32.5t32.5 78.5q0 47 -32 79t-80 32q-47 0 -79.5 -32t-32.5 -79q0 -46 32.5 -78.5t79.5 -32.5z" />
    <glyph glyph-name="aringacute" unicode="&#x1fb;" horiz-adv-x="1102" 
d="M446 -18q-106 0 -189.5 36.5t-132 108.5t-48.5 178q0 92 35.5 150.5t95 92.5t135 52t155.5 27q99 12 157.5 19.5t84.5 24.5t26 55v8q0 54 -25 94.5t-73 63.5t-116 23t-119.5 -22.5t-82.5 -60t-38 -83.5l-207 11q13 101 72 174.5t155.5 114t221.5 40.5q90 0 167.5 -23
t135 -68.5t89 -113t31.5 -156.5v-728h-209v150h-5q-22 -42 -61.5 -81t-102 -63t-152.5 -24zM490 153q92 0 153.5 34t92 89.5t30.5 120.5v128q-11 -9 -38 -17t-63.5 -15t-77 -13.5t-79.5 -11.5q-58 -8 -108.5 -26.5t-81 -52t-30.5 -88.5q0 -47 25 -80t70.5 -50.5t106.5 -17.5
zM467 1693l146 189h205l-194 -189h-157zM543 1155q-70 0 -126.5 31.5t-90 85.5t-33.5 121q0 66 33.5 120t90 86t126.5 32t127 -32t90 -86t33 -120q0 -67 -33 -120.5t-90 -85.5t-127 -32zM543 1281q48 0 80 32.5t32 79.5t-32.5 79.5t-79.5 32.5q-46 0 -79 -32.5t-33 -79.5
t33 -79.5t79 -32.5z" />
    <glyph glyph-name="AEacute" unicode="&#x1fc;" horiz-adv-x="2023" 
d="M24 0l666 1490h1251v-195h-764v-449h708v-193h-708v-458h765v-195h-984v1306h-126l-572 -1306h-236zM362 413v183h695v-183h-695zM1234 1626l149 302h225l-209 -302h-165z" />
    <glyph glyph-name="aeacute" unicode="&#x1fd;" horiz-adv-x="1812" 
d="M468 -17q-121 0 -209 39.5t-135.5 112t-47.5 170.5q0 84 37 146t104 103t159 61.5t203 20.5h1045l-90 -51q3 99 -31.5 173t-99 115t-153.5 41t-153.5 -40.5t-100 -113t-35.5 -168.5v-96q0 -103 36 -180t103.5 -119.5t162.5 -42.5q67 0 119.5 20.5t88 58t51.5 87.5l204 -8
q-21 -100 -85.5 -175.5t-162.5 -118t-218 -42.5q-112 0 -201.5 37.5t-152.5 106t-94 158.5l6 518q38 90 100 156.5t145 103t185 36.5q108 0 198.5 -38t157 -110.5t102.5 -175t36 -230.5v-63h-1174q-87 0 -150 -19t-96.5 -57t-33.5 -92q0 -77 55 -115t147 -38t153 33.5
t91.5 89t30.5 120.5v337q0 54 -25 94.5t-73 63.5t-116 23t-119.5 -22.5t-82.5 -60t-38 -83.5l-207 11q12 99 71 172.5t155 115t219 41.5q115 0 199.5 -39.5t132 -114t53.5 -180.5l-21 -522h-28q-22 -64 -61.5 -111t-94 -77.5t-120.5 -46t-141 -15.5zM791 1206l149 302h225
l-209 -302h-165z" />
    <glyph glyph-name="Oslashacute" unicode="&#x1fe;" horiz-adv-x="1541" 
d="M771 -23q-197 0 -351.5 96t-243 268.5t-88.5 402.5q0 232 88.5 404.5t243 268.5t351.5 96t351 -96t242.5 -268.5t88.5 -404.5q0 -230 -88.5 -402.5t-242.5 -268.5t-351 -96zM771 181q128 0 232 65t165 191t61 307q0 182 -61 308.5t-165 191.5t-232 65t-232 -65
t-165.5 -191.5t-61.5 -308.5q0 -181 61.5 -307t165.5 -191t232 -65zM235 -59l-141 116l1213 1492l141 -116zM681 1626l149 302h225l-209 -302h-165z" />
    <glyph glyph-name="oslashacute" unicode="&#x1ff;" horiz-adv-x="1166" 
d="M583 -24q-152 0 -267 70.5t-178.5 196t-63.5 289.5q0 166 63.5 292t178.5 197t267 71q153 0 267.5 -71t178 -197t63.5 -292q0 -164 -63.5 -289.5t-178 -196t-267.5 -70.5zM583 159q93 0 158.5 47t100 131.5t34.5 194.5q0 112 -34.5 196.5t-100 132t-158.5 47.5
q-92 0 -158 -47t-100.5 -131.5t-34.5 -197.5q0 -111 34.5 -195t100 -131t158.5 -47zM163 -47l-107 94l947 1069l106 -93zM494 1206l149 302h225l-209 -302h-165z" />
    <glyph glyph-name="uni0200" unicode="&#x200;" horiz-adv-x="1395" 
d="M24 0l539 1490h270l538 -1490h-243l-287 838q-35 105 -75.5 234.5t-97.5 318.5h59q-56 -190 -96.5 -319.5t-75.5 -233.5l-292 -838h-239zM321 388v189h753v-189h-753zM780 1626l-177 302h219l122 -302h-164zM465 1626l-231 302h225l175 -302h-169z" />
    <glyph glyph-name="uni0201" unicode="&#x201;" horiz-adv-x="1102" 
d="M446 -18q-106 0 -189.5 36.5t-132 108.5t-48.5 178q0 92 35.5 150.5t95 92.5t135 52t155.5 27q99 12 157.5 19.5t84.5 24.5t26 55v8q0 54 -25 94.5t-73 63.5t-116 23t-119.5 -22.5t-82.5 -60t-38 -83.5l-207 11q13 101 72 174.5t155.5 114t221.5 40.5q90 0 167.5 -23
t135 -68.5t89 -113t31.5 -156.5v-728h-209v150h-5q-22 -42 -61.5 -81t-102 -63t-152.5 -24zM490 153q92 0 153.5 34t92 89.5t30.5 120.5v128q-11 -9 -38 -17t-63.5 -15t-77 -13.5t-79.5 -11.5q-58 -8 -108.5 -26.5t-81 -52t-30.5 -88.5q0 -47 25 -80t70.5 -50.5t106.5 -17.5
zM624 1206l-177 302h219l122 -302h-164zM309 1206l-231 302h225l175 -302h-169z" />
    <glyph glyph-name="uni0202" unicode="&#x202;" horiz-adv-x="1395" 
d="M24 0l539 1490h270l538 -1490h-243l-287 838q-35 105 -75.5 234.5t-97.5 318.5h59q-56 -190 -96.5 -319.5t-75.5 -233.5l-292 -838h-239zM321 388v189h753v-189h-753zM700 1933q90 0 159 -38.5t109 -103.5t40 -146h-146q0 66 -46 108t-116 42q-71 0 -117 -42t-46 -108
h-145q0 81 39.5 146t109 103.5t159.5 38.5z" />
    <glyph glyph-name="uni0203" unicode="&#x203;" horiz-adv-x="1102" 
d="M446 -18q-106 0 -189.5 36.5t-132 108.5t-48.5 178q0 92 35.5 150.5t95 92.5t135 52t155.5 27q99 12 157.5 19.5t84.5 24.5t26 55v8q0 54 -25 94.5t-73 63.5t-116 23t-119.5 -22.5t-82.5 -60t-38 -83.5l-207 11q13 101 72 174.5t155.5 114t221.5 40.5q90 0 167.5 -23
t135 -68.5t89 -113t31.5 -156.5v-728h-209v150h-5q-22 -42 -61.5 -81t-102 -63t-152.5 -24zM490 153q92 0 153.5 34t92 89.5t30.5 120.5v128q-11 -9 -38 -17t-63.5 -15t-77 -13.5t-79.5 -11.5q-58 -8 -108.5 -26.5t-81 -52t-30.5 -88.5q0 -47 25 -80t70.5 -50.5t106.5 -17.5
zM544 1513q90 0 159 -38.5t109 -103.5t40 -146h-146q0 66 -46 108t-116 42q-71 0 -117 -42t-46 -108h-145q0 81 39.5 146t109 103.5t159.5 38.5z" />
    <glyph glyph-name="uni0204" unicode="&#x204;" horiz-adv-x="1213" 
d="M142 0v1490h988v-195h-764v-441h708v-193h-708v-466h766v-195h-990zM718 1626l-177 302h219l122 -302h-164zM403 1626l-231 302h225l175 -302h-169z" />
    <glyph glyph-name="uni0205" unicode="&#x205;" horiz-adv-x="1135" 
d="M583 -24q-158 0 -272.5 71t-175.5 196.5t-61 288.5t63 289.5t175 198.5t258 72q109 0 199.5 -38t156.5 -110.5t102.5 -175t36.5 -230.5v-63h-890v161h779l-96 -50q0 100 -34.5 173.5t-98.5 114t-153 40.5q-88 0 -152.5 -40.5t-100 -113t-35.5 -168.5v-96q0 -103 36 -180
t103.5 -119.5t162.5 -42.5q68 0 120 20.5t87.5 58t51.5 87.5l204 -11q-21 -98 -86 -173t-162.5 -117.5t-217.5 -42.5zM650 1206l-177 302h219l122 -302h-164zM335 1206l-231 302h225l175 -302h-169z" />
    <glyph glyph-name="uni0206" unicode="&#x206;" horiz-adv-x="1213" 
d="M142 0v1490h988v-195h-764v-441h708v-193h-708v-466h766v-195h-990zM637 1933q90 0 159 -38.5t109 -103.5t40 -146h-146q0 66 -46 108t-116 42q-71 0 -117 -42t-46 -108h-145q0 81 39.5 146t109 103.5t159.5 38.5z" />
    <glyph glyph-name="uni0207" unicode="&#x207;" horiz-adv-x="1135" 
d="M583 -24q-158 0 -272.5 71t-175.5 196.5t-61 288.5t63 289.5t175 198.5t258 72q109 0 199.5 -38t156.5 -110.5t102.5 -175t36.5 -230.5v-63h-890v161h779l-96 -50q0 100 -34.5 173.5t-98.5 114t-153 40.5q-88 0 -152.5 -40.5t-100 -113t-35.5 -168.5v-96q0 -103 36 -180
t103.5 -119.5t162.5 -42.5q68 0 120 20.5t87.5 58t51.5 87.5l204 -11q-21 -98 -86 -173t-162.5 -117.5t-217.5 -42.5zM570 1513q90 0 159 -38.5t109 -103.5t40 -146h-146q0 66 -46 108t-116 42q-71 0 -117 -42t-46 -108h-145q0 81 39.5 146t109 103.5t159.5 38.5z" />
    <glyph glyph-name="uni0208" unicode="&#x208;" horiz-adv-x="508" 
d="M366 1490v-1490h-224v1490h224zM335 1626l-177 302h219l122 -302h-164zM20 1626l-231 302h225l175 -302h-169z" />
    <glyph glyph-name="uni0209" unicode="&#x209;" horiz-adv-x="464" 
d="M125 0v1070h214v-1070h-214zM313 1206l-177 302h219l122 -302h-164zM-2 1206l-231 302h225l175 -302h-169z" />
    <glyph glyph-name="uni020A" unicode="&#x20a;" horiz-adv-x="508" 
d="M366 1490v-1490h-224v1490h224zM255 1933q90 0 159 -38.5t109 -103.5t40 -146h-146q0 66 -46 108t-116 42q-71 0 -117 -42t-46 -108h-145q0 81 39.5 146t109 103.5t159.5 38.5z" />
    <glyph glyph-name="uni020B" unicode="&#x20b;" horiz-adv-x="464" 
d="M125 0v1070h214v-1070h-214zM232 1513q90 0 159 -38.5t109 -103.5t40 -146h-146q0 66 -46 108t-116 42q-71 0 -117 -42t-46 -108h-145q0 81 39.5 146t109 103.5t159.5 38.5z" />
    <glyph glyph-name="uni020C" unicode="&#x20c;" horiz-adv-x="1541" 
d="M771 -23q-197 0 -351.5 96t-243 268.5t-88.5 402.5q0 232 88.5 404.5t243 268.5t351.5 96t351 -96t242.5 -268.5t88.5 -404.5q0 -230 -88.5 -402.5t-242.5 -268.5t-351 -96zM771 181q128 0 232 65t165 191t61 307q0 182 -61 308.5t-165 191.5t-232 65t-232 -65
t-165.5 -191.5t-61.5 -308.5q0 -181 61.5 -307t165.5 -191t232 -65zM852 1626l-177 302h219l122 -302h-164zM537 1626l-231 302h225l175 -302h-169z" />
    <glyph glyph-name="uni020D" unicode="&#x20d;" horiz-adv-x="1166" 
d="M583 -24q-152 0 -267 70.5t-178.5 196t-63.5 289.5q0 166 63.5 292t178.5 197t267 71q153 0 267.5 -71t178 -197t63.5 -292q0 -164 -63.5 -289.5t-178 -196t-267.5 -70.5zM583 159q93 0 158.5 47t100 131.5t34.5 194.5q0 112 -34.5 196.5t-100 132t-158.5 47.5
q-92 0 -158 -47t-100.5 -131.5t-34.5 -197.5q0 -111 34.5 -195t100 -131t158.5 -47zM664 1206l-177 302h219l122 -302h-164zM349 1206l-231 302h225l175 -302h-169z" />
    <glyph glyph-name="uni020E" unicode="&#x20e;" horiz-adv-x="1541" 
d="M771 -23q-197 0 -351.5 96t-243 268.5t-88.5 402.5q0 232 88.5 404.5t243 268.5t351.5 96t351 -96t242.5 -268.5t88.5 -404.5q0 -230 -88.5 -402.5t-242.5 -268.5t-351 -96zM771 181q128 0 232 65t165 191t61 307q0 182 -61 308.5t-165 191.5t-232 65t-232 -65
t-165.5 -191.5t-61.5 -308.5q0 -181 61.5 -307t165.5 -191t232 -65zM771 1933q90 0 159 -38.5t109 -103.5t40 -146h-146q0 66 -46 108t-116 42q-71 0 -117 -42t-46 -108h-145q0 81 39.5 146t109 103.5t159.5 38.5z" />
    <glyph glyph-name="uni020F" unicode="&#x20f;" horiz-adv-x="1166" 
d="M583 -24q-152 0 -267 70.5t-178.5 196t-63.5 289.5q0 166 63.5 292t178.5 197t267 71q153 0 267.5 -71t178 -197t63.5 -292q0 -164 -63.5 -289.5t-178 -196t-267.5 -70.5zM583 159q93 0 158.5 47t100 131.5t34.5 194.5q0 112 -34.5 196.5t-100 132t-158.5 47.5
q-92 0 -158 -47t-100.5 -131.5t-34.5 -197.5q0 -111 34.5 -195t100 -131t158.5 -47zM583 1513q90 0 159 -38.5t109 -103.5t40 -146h-146q0 66 -46 108t-116 42q-71 0 -117 -42t-46 -108h-145q0 81 39.5 146t109 103.5t159.5 38.5z" />
    <glyph glyph-name="uni0210" unicode="&#x210;" horiz-adv-x="1312" 
d="M142 0v1490h560q163 0 279 -57t178 -162t62 -246t-65 -245t-184 -160.5t-282 -56.5h-419v191h419q99 0 168 33t105 93.5t36 144.5t-36.5 145t-105.5 94t-169 33h-322v-1297h-224zM999 0l-355 672h246l361 -672h-252zM731 1626l-177 302h219l122 -302h-164zM416 1626
l-231 302h225l175 -302h-169z" />
    <glyph glyph-name="uni0211" unicode="&#x211;" horiz-adv-x="716" 
d="M125 0v1070h205v-173h6q29 88 95 137t166 49q23 0 45 -1.5t36 -3.5v-199q-12 2 -44 6t-69 4q-62 0 -114 -28.5t-82 -84.5t-30 -140v-636h-214zM477 1206l-177 302h219l122 -302h-164zM162 1206l-231 302h225l175 -302h-169z" />
    <glyph glyph-name="uni0212" unicode="&#x212;" horiz-adv-x="1312" 
d="M142 0v1490h560q163 0 279 -57t178 -162t62 -246t-65 -245t-184 -160.5t-282 -56.5h-419v191h419q99 0 168 33t105 93.5t36 144.5t-36.5 145t-105.5 94t-169 33h-322v-1297h-224zM999 0l-355 672h246l361 -672h-252zM651 1933q90 0 159 -38.5t109 -103.5t40 -146h-146
q0 66 -46 108t-116 42q-71 0 -117 -42t-46 -108h-145q0 81 39.5 146t109 103.5t159.5 38.5z" />
    <glyph glyph-name="uni0213" unicode="&#x213;" horiz-adv-x="716" 
d="M125 0v1070h205v-173h6q29 88 95 137t166 49q23 0 45 -1.5t36 -3.5v-199q-12 2 -44 6t-69 4q-62 0 -114 -28.5t-82 -84.5t-30 -140v-636h-214zM397 1513q90 0 159 -38.5t109 -103.5t40 -146h-146q0 66 -46 108t-116 42q-71 0 -117 -42t-46 -108h-145q0 81 39.5 146
t109 103.5t159.5 38.5z" />
    <glyph glyph-name="uni0214" unicode="&#x214;" horiz-adv-x="1457" 
d="M729 -24q-179 0 -312 69t-206.5 189.5t-73.5 276.5v979h222v-961q0 -102 45 -181t128 -124.5t197 -45.5t197 45.5t127.5 124.5t44.5 181v961h222v-979q0 -156 -73 -276.5t-206 -189.5t-312 -69zM810 1626l-177 302h219l122 -302h-164zM495 1626l-231 302h225l175 -302
h-169z" />
    <glyph glyph-name="uni0215" unicode="&#x215;" 
d="M507 -19q-109 0 -195.5 47t-136.5 141t-50 231v670h214v-643q0 -126 61.5 -191.5t170.5 -65.5q72 0 130 30t92 92t34 158v620h213v-1070h-208v265h43q-51 -144 -144 -214t-224 -70zM664 1206l-177 302h219l122 -302h-164zM349 1206l-231 302h225l175 -302h-169z" />
    <glyph glyph-name="uni0216" unicode="&#x216;" horiz-adv-x="1457" 
d="M729 -24q-179 0 -312 69t-206.5 189.5t-73.5 276.5v979h222v-961q0 -102 45 -181t128 -124.5t197 -45.5t197 45.5t127.5 124.5t44.5 181v961h222v-979q0 -156 -73 -276.5t-206 -189.5t-312 -69zM729 1933q90 0 159 -38.5t109 -103.5t40 -146h-146q0 66 -46 108t-116 42
q-71 0 -117 -42t-46 -108h-145q0 81 39.5 146t109 103.5t159.5 38.5z" />
    <glyph glyph-name="uni0217" unicode="&#x217;" 
d="M507 -19q-109 0 -195.5 47t-136.5 141t-50 231v670h214v-643q0 -126 61.5 -191.5t170.5 -65.5q72 0 130 30t92 92t34 158v620h213v-1070h-208v265h43q-51 -144 -144 -214t-224 -70zM583 1513q90 0 159 -38.5t109 -103.5t40 -146h-146q0 66 -46 108t-116 42
q-71 0 -117 -42t-46 -108h-145q0 81 39.5 146t109 103.5t159.5 38.5z" />
    <glyph glyph-name="uni0218" unicode="&#x218;" horiz-adv-x="1293" 
d="M655 -24q-176 0 -304 59.5t-197.5 169.5t-71.5 263h223q2 -94 45 -161t121.5 -101.5t183.5 -34.5q100 0 174.5 29t116.5 83t42 126q0 59 -30.5 101.5t-93 73.5t-161.5 55l-166 40q-216 53 -319.5 149.5t-103.5 250.5q0 131 67 228.5t186.5 151.5t277.5 54
q159 0 276.5 -56t183.5 -158.5t70 -242.5h-216q-9 123 -94.5 192.5t-223.5 69.5q-89 0 -158 -29t-107.5 -80.5t-38.5 -117.5q0 -58 32 -98.5t94.5 -70t155.5 -51.5l156 -39q103 -24 184 -60.5t137 -86.5t85.5 -116t29.5 -151q0 -132 -68 -231.5t-193 -155t-295 -55.5z
M461 -489l83 371h211l-136 -371h-158z" />
    <glyph glyph-name="uni0219" unicode="&#x219;" horiz-adv-x="1025" 
d="M519 -24q-121 0 -217.5 38t-156 113t-70.5 186l209 9q12 -86 71 -131t161 -45t161 41.5t59 104.5q0 54 -40.5 87t-112.5 49l-178 39q-150 34 -227 110t-77 194q0 95 51.5 167t144.5 112.5t215 40.5q119 0 210 -40.5t144.5 -114.5t61.5 -176l-201 -9q-5 73 -61 122
t-151 49q-91 0 -146 -41.5t-55 -103.5q0 -54 41 -87.5t116 -50.5l180 -40q155 -34 228 -106t73 -188q0 -101 -55.5 -175t-153.5 -114t-224 -40zM327 -489l83 371h211l-136 -371h-158z" />
    <glyph glyph-name="uni021A.1" unicode="&#x21a;" horiz-adv-x="1283" 
d="M58 1295v195h1167v-195h-471v-1295h-224v1295h-472zM453 -489l83 371h211l-136 -371h-158z" />
    <glyph glyph-name="uni021B" unicode="&#x21b;" horiz-adv-x="681" 
d="M628 1070v-176h-611v176h611zM198 1353h213v-1068q0 -61 25 -86t89 -25q22 0 51 1t50 2l9 -175q-29 -3 -66 -4t-72 -1q-150 0 -224.5 66t-74.5 196v1094zM213 -489l83 371h211l-136 -371h-158z" />
    <glyph glyph-name="uni021C" unicode="&#x21c;" horiz-adv-x="1272" 
d="M204 332v177q176 53 307.5 108t218.5 119t130.5 142t43.5 175q0 128 -70.5 195t-203.5 67q-86 0 -149 -27t-98 -74.5t-35 -110.5h-241q0 124 67.5 215t185.5 141.5t270 50.5q151 0 266.5 -49t181.5 -145t66 -236q0 -135 -66 -251.5t-190 -211t-297 -166t-387 -119.5z
M763 621l90 136q97 -22 167.5 -76t108.5 -140.5t38 -208.5q0 -174 -71 -302t-200.5 -218t-305.5 -150t-386 -98v193q170 34 303.5 81t226 116t141 164.5t48.5 226.5q0 121 -36 187t-124 89z" />
    <glyph glyph-name="uni021D" unicode="&#x21d;" horiz-adv-x="1084" 
d="M204 193v170q172 45 287.5 106t174.5 138t59 168q0 86 -46.5 131t-137.5 45q-61 0 -106 -21.5t-70 -60.5t-25 -92h-232q0 108 53.5 188t152.5 123.5t235 43.5q191 0 299.5 -91t108.5 -251q0 -137 -90 -254t-258.5 -205t-404.5 -138zM613 436l95 110q132 -34 200.5 -126.5
t68.5 -238.5q0 -250 -193 -404t-580 -213v177q196 50 314 112t172 145t54 197q0 95 -35 158t-96 83z" />
    <glyph glyph-name="uni021E" unicode="&#x21e;" horiz-adv-x="1472" 
d="M142 0v1490h224v-631h740v631h224v-1490h-224v664h-740v-664h-224zM595 1928l141 -173l139 173h196v-2l-241 -281h-190l-238 281v2h193z" />
    <glyph glyph-name="uni021F" unicode="&#x21f;" 
d="M339 620v-620h-214v1490h213v-685h-47q50 144 143 214t224 70q110 0 196.5 -47.5t136 -140.5t49.5 -232v-669h-213v643q0 126 -61 191.5t-172 65.5q-72 0 -130 -30t-91.5 -92t-33.5 -158zM90 1928l141 -173l139 173h196v-2l-241 -281h-190l-238 281v2h193z" />
    <glyph glyph-name="uni0220" unicode="&#x220;" horiz-adv-x="1272" 
d="M1173 -416h-236v1447q1 101 -35.5 164.5t-106 94t-168.5 30.5q-111 0 -209.5 -40.5t-178.5 -110.5v197q77 63 183 103.5t230 40.5q138 0 257 -54t191.5 -160.5t72.5 -264.5v-1447zM335 1490v-1490h-232v1490h232z" />
    <glyph glyph-name="uni0221" unicode="&#x221;" horiz-adv-x="1519" 
d="M1199 -418q-122 0 -196.5 46.5t-109 122.5t-34.5 162v321h213v-354q0 -67 38.5 -102t90.5 -35q48 0 78 29.5t30 75.5q0 42 -25.5 70.5t-71.5 34.5q-34 5 -65.5 -3t-62 -27t-63.5 -47l-283 -267l-120 134l248 234q71 67 161 105t178 38q137 0 223.5 -76t86.5 -199
q0 -120 -84.5 -191.5t-231.5 -71.5zM534 -21q-137 0 -241 69.5t-161.5 194.5t-57.5 292t58 291.5t161.5 193.5t239.5 69q77 0 138.5 -22.5t108 -62.5t76.5 -93h5v579h213v-1490h-209v164h-6q-31 -56 -78.5 -97.5t-109 -64.5t-137.5 -23zM578 162q91 0 157 46.5t101.5 130.5
t35.5 196q0 113 -35.5 196t-101.5 129.5t-157 46.5q-88 0 -152.5 -44.5t-100 -127t-35.5 -200.5q0 -117 35.5 -200.5t100.5 -128t152 -44.5z" />
    <glyph glyph-name="uni0222" unicode="&#x222;" horiz-adv-x="1272" 
d="M625 896h23q161 0 287 -51.5t198 -151.5t72 -248q0 -154 -72.5 -257t-198.5 -155.5t-286 -52.5h-23q-160 0 -286 52t-199 155t-73 256q0 148 72 249t198.5 152.5t287.5 51.5zM648 716h-24q-143 0 -229 -67.5t-86 -205.5q0 -137 86.5 -201.5t228.5 -64.5h24q143 -1 229 64
t86 204q0 136 -86 203.5t-229 67.5zM618 915h36q87 0 157 14.5t111.5 60t41.5 135.5q0 87 -42 133.5t-127 66.5v185q119 -4 212 -47.5t146 -127.5t53 -210q0 -146 -74.5 -231t-200 -121t-277.5 -36h-36q-152 0 -277.5 36t-199.5 121t-74 231q0 126 53.5 210t146.5 127.5
t210 47.5v-185q-85 -20 -126.5 -66.5t-41.5 -133.5q0 -91 41.5 -136t111.5 -59.5t156 -14.5z" />
    <glyph glyph-name="uni0223" unicode="&#x223;" horiz-adv-x="1271" 
d="M624 887h23q158 1 283.5 -47.5t198 -147.5t72.5 -249q0 -155 -72.5 -257.5t-197.5 -154t-284 -51.5h-23q-157 0 -283 51t-198.5 154t-72.5 256q0 151 72.5 250.5t198.5 148t283 47.5zM647 716h-23q-145 0 -232 -69.5t-87 -204.5q0 -136 86.5 -205.5t232.5 -69.5h23
q145 0 232 69.5t87 206.5q0 134 -87 203t-232 70zM653 903q88 0 159 20.5t113 73t42 145.5q0 100 -44.5 154t-127.5 85v175q115 -3 207 -51t145.5 -139t53.5 -222q0 -152 -75 -242.5t-199.5 -130t-273.5 -39.5h-35q-149 1 -273.5 40t-199.5 129.5t-75 242.5
q0 131 53.5 221.5t146 139t206.5 51.5v-175q-82 -31 -126.5 -85t-44.5 -154q0 -94 42 -146t113 -72.5t158 -20.5h35z" />
    <glyph glyph-name="uni0224" unicode="&#x224;" horiz-adv-x="1280" 
d="M772 -418v185q17 -1 48 -1h50q64 0 89.5 23t25.5 74v137h224v-148q0 -134 -78.5 -203.5t-231.5 -69.5q-39 0 -71.5 1t-55.5 2zM72 0v174l718 939q50 65 104 130.5t109 130.5l26 -77q-89 -1 -178 -1.5t-178 -0.5h-580v195h1109v-174l-704 -922q-54 -70 -110.5 -139.5
t-115.5 -138.5l-26 77q88 1 176 1.5t176 0.5h611v-195h-1137z" />
    <glyph glyph-name="uni0225" unicode="&#x225;" horiz-adv-x="1040" 
d="M852 -216v47q0 71 -27 120t-109 49h-615v152l569 731v5h-565v182h826v-161l-559 -722v-5h355q149 0 231 -88t82 -229v-81h-188z" />
    <glyph glyph-name="uni0226" unicode="&#x226;" horiz-adv-x="1395" 
d="M24 0l539 1490h270l538 -1490h-243l-287 838q-35 105 -75.5 234.5t-97.5 318.5h59q-56 -190 -96.5 -319.5t-75.5 -233.5l-292 -838h-239zM321 388v189h753v-189h-753zM699 1669q-56 0 -95 38t-39 92t39 92t95 38q57 0 96 -37.5t39 -92.5t-39 -92.5t-96 -37.5z" />
    <glyph glyph-name="uni0227" unicode="&#x227;" horiz-adv-x="1102" 
d="M446 -18q-106 0 -189.5 36.5t-132 108.5t-48.5 178q0 92 35.5 150.5t95 92.5t135 52t155.5 27q99 12 157.5 19.5t84.5 24.5t26 55v8q0 54 -25 94.5t-73 63.5t-116 23t-119.5 -22.5t-82.5 -60t-38 -83.5l-207 11q13 101 72 174.5t155.5 114t221.5 40.5q90 0 167.5 -23
t135 -68.5t89 -113t31.5 -156.5v-728h-209v150h-5q-22 -42 -61.5 -81t-102 -63t-152.5 -24zM490 153q92 0 153.5 34t92 89.5t30.5 120.5v128q-11 -9 -38 -17t-63.5 -15t-77 -13.5t-79.5 -11.5q-58 -8 -108.5 -26.5t-81 -52t-30.5 -88.5q0 -47 25 -80t70.5 -50.5t106.5 -17.5
zM543 1249q-56 0 -95 38t-39 92t39 92t95 38q57 0 96 -37.5t39 -92.5t-39 -92.5t-96 -37.5z" />
    <glyph glyph-name="uni0228" unicode="&#x228;" horiz-adv-x="1213" 
d="M142 0v1490h988v-195h-764v-441h708v-193h-708v-466h766v-195h-990zM527 -418v110h118q49 0 72 15.5t23 48.5t-23 48.5t-72 15.5h-83l33 227h101v-47l-1 -84q90 -3 139.5 -46.5t49.5 -116.5q0 -88 -61.5 -129.5t-171.5 -41.5h-124z" />
    <glyph glyph-name="uni0229" unicode="&#x229;" horiz-adv-x="1135" 
d="M583 -24q-158 0 -272.5 71t-175.5 196.5t-61 288.5t63 289.5t175 198.5t258 72q109 0 199.5 -38t156.5 -110.5t102.5 -175t36.5 -230.5v-63h-890v161h779l-96 -50q0 100 -34.5 173.5t-98.5 114t-153 40.5q-88 0 -152.5 -40.5t-100 -113t-35.5 -168.5v-96q0 -103 36 -180
t103.5 -119.5t162.5 -42.5q68 0 120 20.5t87.5 58t51.5 87.5l204 -11q-21 -98 -86 -173t-162.5 -117.5t-217.5 -42.5zM459 -418v110h118q49 0 72 15.5t23 48.5t-23 48.5t-72 15.5h-83l33 227h101v-47l-1 -84q90 -3 139.5 -46.5t49.5 -116.5q0 -88 -61.5 -129.5t-171.5 -41.5
h-124z" />
    <glyph glyph-name="uni022A" unicode="&#x22a;" horiz-adv-x="1541" 
d="M771 -23q-197 0 -351.5 96t-243 268.5t-88.5 402.5q0 232 88.5 404.5t243 268.5t351.5 96t351 -96t242.5 -268.5t88.5 -404.5q0 -230 -88.5 -402.5t-242.5 -268.5t-351 -96zM771 181q128 0 232 65t165 191t61 307q0 182 -61 308.5t-165 191.5t-232 65t-232 -65
t-165.5 -191.5t-61.5 -308.5q0 -181 61.5 -307t165.5 -191t232 -65zM978 1632q-54 0 -92 38t-38 91q0 54 38 91.5t93 37.5q54 0 92 -37.5t38 -91.5t-38 -91.5t-93 -37.5zM551 1632q-55 0 -93 38t-38 91q0 54 38 91.5t93 37.5t93 -37.5t38 -91.5t-38 -91.5t-93 -37.5z
M1052 2148v-140h-561v140h561z" />
    <glyph glyph-name="uni022B" unicode="&#x22b;" horiz-adv-x="1166" 
d="M583 -24q-152 0 -267 70.5t-178.5 196t-63.5 289.5q0 166 63.5 292t178.5 197t267 71q153 0 267.5 -71t178 -197t63.5 -292q0 -164 -63.5 -289.5t-178 -196t-267.5 -70.5zM583 159q93 0 158.5 47t100 131.5t34.5 194.5q0 112 -34.5 196.5t-100 132t-158.5 47.5
q-92 0 -158 -47t-100.5 -131.5t-34.5 -197.5q0 -111 34.5 -195t100 -131t158.5 -47zM790 1212q-54 0 -92 38t-38 91q0 54 38 91.5t93 37.5q54 0 92 -37.5t38 -91.5t-38 -91.5t-93 -37.5zM363 1212q-55 0 -93 38t-38 91q0 54 38 91.5t93 37.5t93 -37.5t38 -91.5t-38 -91.5
t-93 -37.5zM864 1728v-140h-561v140h561z" />
    <glyph glyph-name="uni022C" unicode="&#x22c;" horiz-adv-x="1541" 
d="M771 -23q-197 0 -351.5 96t-243 268.5t-88.5 402.5q0 232 88.5 404.5t243 268.5t351.5 96t351 -96t242.5 -268.5t88.5 -404.5q0 -230 -88.5 -402.5t-242.5 -268.5t-351 -96zM771 181q128 0 232 65t165 191t61 307q0 182 -61 308.5t-165 191.5t-232 65t-232 -65
t-165.5 -191.5t-61.5 -308.5q0 -181 61.5 -307t165.5 -191t232 -65zM906 1641q-40 0 -76 13t-67.5 31t-57.5 31t-46 13q-27 0 -41 -25.5t-15 -58.5h-138q3 101 47.5 162.5t127.5 61.5q42 0 76 -13.5t63 -31.5t55.5 -31.5t51.5 -13.5q28 0 41.5 21t17.5 65h134
q-3 -103 -49.5 -163.5t-123.5 -60.5zM1052 2148v-140h-561v140h561z" />
    <glyph glyph-name="uni022D" unicode="&#x22d;" horiz-adv-x="1166" 
d="M583 -24q-152 0 -267 70.5t-178.5 196t-63.5 289.5q0 166 63.5 292t178.5 197t267 71q153 0 267.5 -71t178 -197t63.5 -292q0 -164 -63.5 -289.5t-178 -196t-267.5 -70.5zM583 159q93 0 158.5 47t100 131.5t34.5 194.5q0 112 -34.5 196.5t-100 132t-158.5 47.5
q-92 0 -158 -47t-100.5 -131.5t-34.5 -197.5q0 -111 34.5 -195t100 -131t158.5 -47zM718 1221q-40 0 -76 13t-67.5 31t-57.5 31t-46 13q-27 0 -41 -25.5t-15 -58.5h-138q3 101 47.5 162.5t127.5 61.5q42 0 76 -13.5t63 -31.5t55.5 -31.5t51.5 -13.5q28 0 41.5 21t17.5 65
h134q-3 -103 -49.5 -163.5t-123.5 -60.5zM864 1728v-140h-561v140h561z" />
    <glyph glyph-name="uni022E" unicode="&#x22e;" horiz-adv-x="1541" 
d="M771 -23q-197 0 -351.5 96t-243 268.5t-88.5 402.5q0 232 88.5 404.5t243 268.5t351.5 96t351 -96t242.5 -268.5t88.5 -404.5q0 -230 -88.5 -402.5t-242.5 -268.5t-351 -96zM771 181q128 0 232 65t165 191t61 307q0 182 -61 308.5t-165 191.5t-232 65t-232 -65
t-165.5 -191.5t-61.5 -308.5q0 -181 61.5 -307t165.5 -191t232 -65zM770 1669q-56 0 -95 38t-39 92t39 92t95 38q57 0 96 -37.5t39 -92.5t-39 -92.5t-96 -37.5z" />
    <glyph glyph-name="uni022F" unicode="&#x22f;" horiz-adv-x="1166" 
d="M583 -24q-152 0 -267 70.5t-178.5 196t-63.5 289.5q0 166 63.5 292t178.5 197t267 71q153 0 267.5 -71t178 -197t63.5 -292q0 -164 -63.5 -289.5t-178 -196t-267.5 -70.5zM583 159q93 0 158.5 47t100 131.5t34.5 194.5q0 112 -34.5 196.5t-100 132t-158.5 47.5
q-92 0 -158 -47t-100.5 -131.5t-34.5 -197.5q0 -111 34.5 -195t100 -131t158.5 -47zM582 1249q-56 0 -95 38t-39 92t39 92t95 38q57 0 96 -37.5t39 -92.5t-39 -92.5t-96 -37.5z" />
    <glyph glyph-name="uni0230" unicode="&#x230;" horiz-adv-x="1541" 
d="M771 -23q-197 0 -351.5 96t-243 268.5t-88.5 402.5q0 232 88.5 404.5t243 268.5t351.5 96t351 -96t242.5 -268.5t88.5 -404.5q0 -230 -88.5 -402.5t-242.5 -268.5t-351 -96zM771 181q128 0 232 65t165 191t61 307q0 182 -61 308.5t-165 191.5t-232 65t-232 -65
t-165.5 -191.5t-61.5 -308.5q0 -181 61.5 -307t165.5 -191t232 -65zM771 1631q-56 0 -95 38t-39 92q0 55 39 92.5t95 37.5q57 0 96 -37.5t39 -92.5t-39 -92.5t-96 -37.5zM1051 2148v-140h-561v140h561z" />
    <glyph glyph-name="uni0231" unicode="&#x231;" horiz-adv-x="1166" 
d="M583 -24q-152 0 -267 70.5t-178.5 196t-63.5 289.5q0 166 63.5 292t178.5 197t267 71q153 0 267.5 -71t178 -197t63.5 -292q0 -164 -63.5 -289.5t-178 -196t-267.5 -70.5zM583 159q93 0 158.5 47t100 131.5t34.5 194.5q0 112 -34.5 196.5t-100 132t-158.5 47.5
q-92 0 -158 -47t-100.5 -131.5t-34.5 -197.5q0 -111 34.5 -195t100 -131t158.5 -47zM583 1211q-56 0 -95 38t-39 92q0 55 39 92.5t95 37.5q57 0 96 -37.5t39 -92.5t-39 -92.5t-96 -37.5zM863 1728v-140h-561v140h561z" />
    <glyph glyph-name="uni0232" unicode="&#x232;" horiz-adv-x="1366" 
d="M573 0v595l-549 895h258l283 -472q43 -70 81 -139t77 -146h-74q38 77 76 146.5t80 138.5l279 472h257l-546 -895v-595h-222zM963 1857v-157h-561v157h561z" />
    <glyph glyph-name="uni0233" unicode="&#x233;" horiz-adv-x="1099" 
d="M133 -414l12 178l94 -2q39 -3 68 8.5t51.5 40t39.5 77.5l43 117l-412 1065h228l213 -592q32 -87 58.5 -174t52.5 -173h-60q26 86 53.5 173t58.5 174l212 592h225l-481 -1248q-30 -80 -75.5 -133.5t-106 -81t-136.5 -27.5q-37 0 -72.5 2t-65.5 4zM826 1437v-157h-561v157
h561z" />
    <glyph glyph-name="uni0234" unicode="&#x234;" horiz-adv-x="784" 
d="M465 -418q-122 0 -196.5 46.5t-109 122.5t-34.5 162v321h214v-354q0 -67 38 -102t90 -35q48 0 78.5 29.5t30.5 75.5q0 42 -26 70.5t-72 34.5q-34 5 -65 -3t-61.5 -27t-64.5 -47l-282 -267l-121 134l249 234q70 67 160 105t178 38q137 0 224 -76t87 -199
q0 -120 -84.5 -191.5t-232.5 -71.5zM339 1490v-1490h-214v1490h214z" />
    <glyph glyph-name="uni0235" unicode="&#x235;" horiz-adv-x="1485" 
d="M1166 -418q-121 0 -196 46.5t-109 122.5t-34 162v321h213v-354q0 -67 38.5 -102t89.5 -35q49 0 79 29.5t30 75.5q0 42 -25.5 70.5t-71.5 34.5q-34 5 -65.5 -3t-62 -27t-63.5 -47l-283 -267l-120 134l248 234q71 67 160.5 105t178.5 38q136 0 223 -76t87 -199
q0 -120 -84.5 -191.5t-232.5 -71.5zM339 620v-620h-214v1070h208l1 -265h-43q50 144 143 214t224 70q110 0 196.5 -47.5t136 -140.5t49.5 -232v-669h-213v643q0 126 -61 191.5t-172 65.5q-72 0 -130 -30t-91.5 -92t-33.5 -158z" />
    <glyph glyph-name="uni0236" unicode="&#x236;" horiz-adv-x="860" 
d="M513 -19q-121 0 -196 47t-109 122.5t-34 162.5v321h213v-355q0 -67 38.5 -102t90.5 -35q48 0 78 29.5t30 75.5q0 42 -25.5 70.5t-71.5 34.5q-34 5 -65.5 -3t-62 -26.5t-63.5 -47.5l-283 -267l-120 135l248 233q71 67 160.5 105t177.5 38q137 0 224 -76t87 -199
q0 -120 -84.5 -191.5t-232.5 -71.5zM174 399v954h213v-954h-213zM17 894v176h588v-176h-588z" />
    <glyph glyph-name="uni0237" unicode="&#x237;" horiz-adv-x="464" 
d="M125 1070h214v-1186q0 -91 -36.5 -159.5t-106.5 -105.5t-173 -37h-78v180h55q66 0 95.5 35t29.5 109v1164z" />
    <glyph glyph-name="uni0238" unicode="&#x238;" horiz-adv-x="1834" 
d="M1750 564v-20q0 -164 -53 -291.5t-151.5 -200t-233.5 -72.5q-98 0 -172.5 38t-127.5 109.5t-85 172.5t-44 227v53q16 170 68 294t142.5 191t222.5 67q135 0 232 -70.5t149.5 -198t52.5 -299.5zM1515 544v20q1 107 -24.5 192t-82 135t-149.5 50q-122 0 -187.5 -83.5
t-84.5 -208.5v-189q25 -125 88.5 -207t186.5 -82q95 0 150 50t79 134.5t24 188.5zM800 220v1270h234v-1490h-213zM84 544v20q1 172 53 299.5t149 198t233 70.5q133 0 223 -67t141 -191t67 -294v-53q-11 -126 -43 -227t-85 -172.5t-128 -109.5t-173 -38q-135 0 -233 72.5
t-150.5 200t-53.5 291.5zM318 564v-20q1 -104 25 -188.5t79.5 -134.5t149.5 -50q124 0 186.5 82t86.5 207v189q-17 125 -82 208.5t-187 83.5q-94 0 -150.5 -50t-81.5 -135t-26 -192z" />
    <glyph glyph-name="uni0239" unicode="&#x239;" horiz-adv-x="1834" 
d="M800 -416v1321l23 213h191l20 -208v-1326h-234zM84 544v20q1 172 53 299.5t149 198t233 70.5q133 0 223 -67t141 -191t67 -294v-53q-11 -126 -43 -227t-85 -172.5t-128 -109.5t-173 -38q-135 0 -233 72.5t-150.5 200t-53.5 291.5zM318 564v-20q1 -104 25 -188.5
t79.5 -134.5t149.5 -50q124 0 186.5 82t86.5 207v189q-17 125 -82 208.5t-187 83.5q-94 0 -150.5 -50t-81.5 -135t-26 -192zM1750 564v-20q0 -164 -53 -291.5t-151.5 -200t-233.5 -72.5q-98 0 -172.5 38t-127.5 109.5t-85 172.5t-44 227v53q16 170 68 294t142.5 191
t222.5 67q135 0 232 -70.5t149.5 -198t52.5 -299.5zM1515 544v20q1 107 -24.5 192t-82 135t-149.5 50q-122 0 -187.5 -83.5t-84.5 -208.5v-189q25 -125 88.5 -207t186.5 -82q95 0 150 50t79 134.5t24 188.5z" />
    <glyph glyph-name="uni023A" unicode="&#x23a;" horiz-adv-x="1395" 
d="M1120 1678l-646 -1868h-150l646 1868h150zM24 0l539 1490h270l538 -1490h-243l-287 838q-35 105 -75.5 234.5t-97.5 318.5h59q-56 -190 -96.5 -319.5t-75.5 -233.5l-292 -838h-239zM321 388v189h753v-189h-753z" />
    <glyph glyph-name="uni023B" unicode="&#x23b;" horiz-adv-x="1486" 
d="M327 -190l645 1868h173l-645 -1868h-173zM778 -23q-203 0 -358.5 95.5t-243.5 268.5t-88 403q0 232 87.5 405t243.5 268.5t359 95.5q121 0 226 -35.5t188 -103.5t137 -163t74 -214h-227q-16 75 -52 133t-87.5 98.5t-117 60.5t-139.5 20q-143 0 -248 -69.5t-162.5 -196.5
t-57.5 -299q0 -171 57.5 -297.5t162.5 -196t248 -69.5q74 0 139 20.5t117 60t88 97.5t53 133h226q-19 -117 -73 -212t-136.5 -163t-188 -104t-227.5 -36z" />
    <glyph glyph-name="uni023C" unicode="&#x23c;" horiz-adv-x="1113" 
d="M140 -418l707 1908h147l-705 -1908h-149zM581 -24q-152 0 -266 70.5t-177.5 196t-63.5 289.5q0 165 63.5 291.5t177.5 197.5t266 71q93 0 172.5 -27.5t140.5 -77t99.5 -118t50.5 -150.5l-209 -11q-9 44 -29.5 81t-52.5 63.5t-74.5 41.5t-96.5 15q-93 0 -158.5 -47.5
t-99.5 -132.5t-34 -197q0 -110 34 -194.5t99.5 -131.5t158.5 -47q54 0 96 14.5t73 41.5t52 64.5t31 82.5l211 -11q-11 -82 -50 -150t-100 -118.5t-141 -78.5t-173 -28z" />
    <glyph glyph-name="uni023D" unicode="&#x23d;" horiz-adv-x="1192" 
d="M213 0v1490h224v-1295h698v-195h-922zM22 657v176h779v-176h-779z" />
    <glyph glyph-name="uni023E" unicode="&#x23e;" horiz-adv-x="1283" 
d="M187 -209l762 1908h149l-762 -1908h-149zM58 1295v195h1167v-195h-471v-1295h-224v1295h-472z" />
    <glyph glyph-name="uni023F" unicode="&#x23f;" horiz-adv-x="1025" 
d="M253 274q92 -167 152 -271t99.5 -160t69 -76.5t59.5 -20.5q47 0 86.5 24.5t66.5 48.5l74 -130q-37 -36 -98.5 -71.5t-131.5 -35.5q-71 0 -126 31.5t-100 87t-87 127.5l-204 357zM519 -24q-121 0 -217.5 38t-156 113t-70.5 186l209 9q12 -86 71 -131t161 -45t161 41.5
t59 104.5q0 54 -40.5 87t-112.5 49l-178 39q-150 34 -227 110t-77 194q0 95 51.5 167t144.5 112.5t215 40.5q119 0 210 -40.5t144.5 -114.5t61.5 -176l-201 -9q-5 73 -61 122t-151 49q-91 0 -146 -41.5t-55 -103.5q0 -54 41 -87.5t116 -50.5l180 -40q155 -34 228 -106
t73 -188q0 -101 -55.5 -175t-153.5 -114t-224 -40z" />
    <glyph glyph-name="uni0240" unicode="&#x240;" horiz-adv-x="1040" 
d="M101 0v152l569 731v5h-565v182h826v-161l-559 -722v-187h-271zM1009 -418q-62 0 -117.5 26t-108.5 84.5t-112 155.5q-45 67 -77 99.5t-70 42.5t-103 10h-131v182h143q97 0 162 -20t117.5 -71.5t112.5 -146.5q47 -76 77.5 -115.5t54.5 -53.5t53 -14q28 0 53.5 7.5
t55.5 23.5l81 -157q-44 -25 -93.5 -39t-97.5 -14z" />
    <glyph glyph-name="uni0241" unicode="&#x241;" horiz-adv-x="1084" 
d="M453 472h64q104 1 160.5 49.5t78 126.5t21.5 166v151q0 82 -21 161t-77 131t-162 52q-103 0 -161.5 -61t-63.5 -157h-228q3 122 61 216.5t158.5 148.5t232.5 54q167 0 279 -74.5t168 -198.5t56 -272v-151q0 -147 -56 -270t-168 -197.5t-280 -74.5h-62v200zM650 472v-472
h-245v472h245z" />
    <glyph glyph-name="uni0242" unicode="&#x242;" horiz-adv-x="1084" 
d="M114 698q0 137 55.5 234t153.5 148.5t226 51.5q195 0 308 -109t113 -314q0 -114 -41 -201t-130 -136.5t-234 -49.5h-81v139h50q111 0 157.5 65t46.5 173q0 107 -43.5 177t-146.5 70q-98 0 -149 -66t-51 -182h-234zM436 461h233v-461h-233v461z" />
    <glyph glyph-name="uni0243" unicode="&#x243;" horiz-adv-x="1350" 
d="M173 0v1490h556q155 0 262.5 -49t164 -137t56.5 -205q0 -88 -31 -152t-87.5 -106t-132.5 -65v-4q85 -11 155 -54t112.5 -119t42.5 -184q0 -123 -58 -217t-174 -146t-292 -52h-574zM395 189h336q154 0 233.5 60t79.5 169q0 75 -36 130.5t-104 86.5t-165 31h-344v-477z
M395 847h327q82 0 142.5 28t93 79.5t32.5 121.5q0 102 -69.5 163.5t-197.5 61.5h-328v-454zM5 357v142h637v-142h-637z" />
    <glyph glyph-name="uni0244" unicode="&#x244;" horiz-adv-x="1484" 
d="M1514 859v-138h-1544v138h1544zM740 -24q-179 0 -312 69t-206.5 189.5t-73.5 276.5v979h222v-961q0 -102 45 -181t128 -124.5t197 -45.5q115 0 197.5 45.5t127 124.5t44.5 181v961h222v-979q0 -156 -73 -276.5t-206 -189.5t-312 -69z" />
    <glyph glyph-name="uni0245" unicode="&#x245;" horiz-adv-x="1459" 
d="M1112 0l-399 1230l-52 260h183l534 -1490h-266zM745 1230l-395 -1230h-267l532 1490h183z" />
    <glyph glyph-name="uni0246" unicode="&#x246;" horiz-adv-x="1213" 
d="M299 -190l540 1868h164l-538 -1868h-166zM142 0v1490h988v-195h-764v-441h708v-193h-708v-466h766v-195h-990z" />
    <glyph glyph-name="uni0247" unicode="&#x247;" horiz-adv-x="1135" 
d="M136 -418l731 1908h138l-730 -1908h-139zM583 -24q-158 0 -272.5 71t-175.5 196.5t-61 288.5t63 289.5t175 198.5t258 72q109 0 199.5 -38t156.5 -110.5t102.5 -175t36.5 -230.5v-63h-890v161h779l-96 -50q0 100 -34.5 173.5t-98.5 114t-153 40.5q-88 0 -152.5 -40.5
t-100 -113t-35.5 -168.5v-96q0 -103 36 -180t103.5 -119.5t162.5 -42.5q68 0 120 20.5t87.5 58t51.5 87.5l204 -11q-21 -98 -86 -173t-162.5 -117.5t-217.5 -42.5z" />
    <glyph glyph-name="uni0248" unicode="&#x248;" horiz-adv-x="1208" 
d="M531 -21q-205 0 -331 118t-126 336v86h219v-87q0 -127 65 -193t172 -66q108 0 172.5 66t64.5 193v1058h224v-1058q0 -218 -126.5 -335.5t-333.5 -117.5zM560 813v142h637v-142h-637z" />
    <glyph glyph-name="uni0249" unicode="&#x249;" horiz-adv-x="464" 
d="M125 1070h214v-1186q0 -91 -36.5 -159.5t-106.5 -105.5t-173 -37h-78v180h55q66 0 95.5 35t29.5 109v1164zM-108 576v158h678v-158h-678zM232 1249q-56 0 -95 38t-39 92t39 92t95 38q57 0 96 -37.5t39 -92.5t-39 -92.5t-96 -37.5z" />
    <glyph glyph-name="Q_rthook" unicode="&#x24a;" horiz-adv-x="1544" 
d="M1402 1490v-1490h-213v230h-5q-55 -117 -175.5 -185t-274.5 -68q-140 0 -258 57t-205 160.5t-135 244t-48 307.5q0 166 48 306t135 243t205 160.5t258 57.5q153 0 274 -67.5t176 -180.5h5v225h213zM753 180q137 0 235 71t150 198.5t52 295.5q0 171 -52 298t-149.5 197.5
t-234.5 70.5q-132 0 -231.5 -71.5t-155.5 -199t-56 -295.5q0 -170 55.5 -297.5t155 -197.5t231.5 -70zM1496 -421q-152 0 -229.5 69.5t-77.5 203.5v148h213v-145q0 -51 26.5 -74t90.5 -23h50t48 1v-177q-22 -1 -52 -2t-69 -1z" />
    <glyph glyph-name="qrthook" unicode="&#x24b;" horiz-adv-x="1200" 
d="M1168 -421q-152 0 -228.5 69.5t-76.5 203.5v331h211v-328q0 -51 26.5 -74t90.5 -23h51t47 1v-177q-22 -1 -51.5 -2t-69.5 -1zM533 -21q-136 0 -240 69.5t-161.5 194.5t-57.5 292t58 291.5t162 193.5t239 69q77 0 139.5 -22.5t109.5 -62.5t77 -93h5v159h210v-1070h-210
v163h-5q-32 -55 -79 -96.5t-108.5 -64.5t-138.5 -23zM578 162q91 0 157 46.5t102 130.5t36 196q0 113 -36 196t-102 129.5t-157 46.5q-87 0 -152 -44t-100.5 -127t-35.5 -201q0 -117 35.5 -200.5t100.5 -128t152 -44.5z" />
    <glyph glyph-name="uni024C" unicode="&#x24c;" horiz-adv-x="1298" 
d="M292 572h-293v184h293v-184zM165 0v1490h560q163 0 279 -57t177.5 -162t61.5 -246t-64.5 -245t-183.5 -160.5t-283 -56.5h-418v191h419q99 0 167.5 33t105 93.5t36.5 144.5t-36.5 145t-105.5 94t-169 33h-322v-1297h-224zM1022 0l-356 672h246l362 -672h-252z" />
    <glyph glyph-name="uni024D" unicode="&#x24d;" horiz-adv-x="716" 
d="M125 0v1070h205v-173h6q29 88 95 137t166 49q23 0 45 -1.5t36 -3.5v-199q-12 2 -44 6t-69 4q-62 0 -114 -28.5t-82 -84.5t-30 -140v-636h-214zM-107 456v158h678v-158h-678z" />
    <glyph glyph-name="uni024E" unicode="&#x24e;" horiz-adv-x="1358" 
d="M1371 1183v-133h-1384v133h1384zM573 0v595l-549 895h258l283 -472q43 -70 81 -139t77 -146h-74q38 77 76 146.5t80 138.5l279 472h257l-546 -895v-595h-222z" />
    <glyph glyph-name="uni024F" unicode="&#x24f;" horiz-adv-x="1102" 
d="M1062 785v-141h-1024v141h1024zM134 -414l12 178l94 -2q39 -3 68.5 8.5t51.5 40t39 77.5l43 117l-412 1065h229l213 -592q31 -87 57.5 -174t53.5 -173h-60q26 86 53 173t58 174l212 592h226l-481 -1248q-31 -80 -76 -133.5t-105.5 -81t-136.5 -27.5q-38 0 -73 2t-66 4z
" />
    <glyph glyph-name="aturn" unicode="&#x250;" horiz-adv-x="1102" 
d="M656 1088q106 0 189 -36.5t131.5 -108t48.5 -178.5q0 -92 -35 -150.5t-94.5 -92.5t-134.5 -51.5t-156 -27.5q-99 -12 -158 -19.5t-84.5 -24t-25.5 -55.5v-8q0 -54 25 -94.5t73 -63.5t115 -23q70 0 121 22t82 60t37 84l208 -12q-12 -100 -72 -173.5t-156.5 -114
t-220.5 -40.5q-91 0 -168.5 23t-134.5 68t-89 112.5t-32 157.5v728h209v-151h6q22 43 61.5 82t102 63t152.5 24zM612 917q-92 0 -153.5 -34t-92 -89.5t-30.5 -120.5v-128q11 9 37.5 17t63.5 15t77.5 13.5t78.5 11.5q59 9 109 27t81 51.5t31 87.5q0 48 -25 81t-70.5 50.5
t-106.5 17.5z" />
    <glyph glyph-name="ascript" unicode="&#x251;" horiz-adv-x="1200" 
d="M533 -21q-136 0 -240 69.5t-161.5 194.5t-57.5 292t58 291.5t162 193.5t239 69q77 0 139.5 -22.5t109.5 -62.5t77 -93h5v159h210v-1070h-210v163h-5q-32 -55 -79 -96.5t-108.5 -64.5t-138.5 -23zM578 162q91 0 157 46.5t102 130.5t36 196q0 113 -36 196t-102 129.5
t-157 46.5q-87 0 -152 -44t-100.5 -127t-35.5 -201q0 -117 35.5 -200.5t100.5 -128t152 -44.5z" />
    <glyph glyph-name="ascriptturn" unicode="&#x252;" horiz-adv-x="1200" 
d="M666 -21q-76 0 -137.5 23t-109 64.5t-79.5 96.5h-5v-163h-210v1070h211v-159h5q30 53 77 93t109.5 62.5t138.5 22.5q137 0 240.5 -69t161.5 -193.5t58 -291.5t-58 -292t-161 -194.5t-241 -69.5zM622 162q87 0 151.5 44.5t100.5 128t36 200.5q0 118 -36 201t-100 127
t-152 44q-91 0 -157.5 -46.5t-102 -129.5t-35.5 -196q0 -112 35.5 -196t102 -130.5t157.5 -46.5z" />
    <glyph glyph-name="uni0253" unicode="&#x253;" horiz-adv-x="1198" 
d="M664 -21q-76 0 -137.5 23t-109 64.5t-79.5 96.5h-6v-163h-207v1070h212v-163l5 1q30 52 76 92t108 62.5t138 22.5q137 0 240.5 -69t161.5 -193t58 -290t-57.5 -290.5t-161 -194t-241.5 -69.5zM621 161q88 0 152.5 44.5t100.5 128t36 200.5t-36 200t-100.5 127t-152.5 44
q-92 0 -158 -46t-102 -129.5t-36 -195.5t36 -196t102.5 -130.5t157.5 -46.5zM125 854v367q0 134 79.5 203t232.5 69q39 0 68.5 -0.5t52.5 -1.5v-177q-17 1 -48 1h-50q-65 0 -93 -23t-28 -75v-363h-214z" />
    <glyph glyph-name="uni0254" unicode="&#x254;" horiz-adv-x="1083" 
d="M73 355h219q4 -54 34 -97t81 -67t118 -24q99 0 154 53t77 135t22 170v49q1 91 -22 176.5t-79 140.5t-157 55q-110 0 -165.5 -68.5t-62.5 -178.5h-219q4 131 59 228.5t153.5 151t232.5 53.5q164 0 273.5 -75.5t164 -201.5t54.5 -281v-49q0 -148 -56 -272t-164.5 -198.5
t-267.5 -74.5q-128 0 -228 51t-158.5 136.5t-62.5 187.5z" />
    <glyph glyph-name="drthook" unicode="&#x256;" horiz-adv-x="1199" 
d="M1167 -421q-153 0 -229.5 69.5t-76.5 203.5v331h211v-328q0 -51 26.5 -74t90.5 -23h51t47 1v-177q-22 -1 -51.5 -2t-68.5 -1zM534 -21q-137 0 -241 69.5t-161.5 194.5t-57.5 292t58 291.5t161.5 193.5t239.5 69q77 0 138.5 -22.5t108 -62.5t76.5 -93h5v579h213v-1490
h-209v164h-6q-31 -56 -78.5 -97.5t-109 -64.5t-137.5 -23zM578 162q91 0 157 46.5t101.5 130.5t35.5 196q0 113 -35.5 196t-101.5 129.5t-157 46.5q-88 0 -152.5 -44.5t-100 -127t-35.5 -200.5q0 -117 35.5 -200.5t100.5 -128t152 -44.5z" />
    <glyph glyph-name="uni0257" unicode="&#x257;" horiz-adv-x="1200" 
d="M861 854v367q0 134 79.5 203t231.5 69q40 0 69.5 -0.5t51.5 -1.5v-177q-16 1 -47 1h-51q-64 0 -92.5 -23t-28.5 -75v-363h-213zM533 -21q-136 0 -240 69.5t-161.5 194.5t-57.5 292t58 291.5t162 193.5t239 69q77 0 139.5 -22.5t109.5 -62.5t77 -93h5v159h210v-1070h-210
v163h-5q-32 -55 -79 -96.5t-108.5 -64.5t-138.5 -23zM578 162q91 0 157 46.5t102 130.5t36 196q0 113 -36 196t-102 129.5t-157 46.5q-87 0 -152 -44t-100.5 -127t-35.5 -201q0 -117 35.5 -200.5t100.5 -128t152 -44.5z" />
    <glyph glyph-name="erev" unicode="&#x258;" horiz-adv-x="1083" 
d="M501 -20q-140 0 -246.5 54.5t-174.5 151.5l131 117q55 -70 127.5 -103t150.5 -33q140 0 217.5 95t77.5 256v40q0 85 -15 156t-46 123t-79.5 80.5t-114.5 28.5q-100 0 -162 -69.5t-72 -205.5v-15h600v-173h-831v100q0 258 121 403.5t335 145.5q153 0 265 -73t173 -202
t61 -299v-40q0 -159 -63.5 -280.5t-180 -189.5t-274.5 -68z" />
    </font>
</defs>
</svg>
