<?xml version="1.0" standalone="no"?>
<!DOCTYPE svg PUBLIC "-//W3C//DTD SVG 1.1//EN" "http://www.w3.org/Graphics/SVG/1.1/DTD/svg11.dtd" >
<svg xmlns="http://www.w3.org/2000/svg" xmlns:xlink="http://www.w3.org/1999/xlink" version="1.1">
<metadata>
Created by FontForge 20201107 at Tue Feb 26 19:07:35 2002
 By 
Version 2. Walburn is a trademark of Shinn Type Foundry. Copyright  2002 by Nick Shinn. Published 2002 by Shinn Type Foundry.
</metadata>
<defs>
<font id="Walburn" horiz-adv-x="210" >
  <font-face 
    font-family="Walburn"
    font-weight="400"
    font-stretch="normal"
    units-per-em="1000"
    panose-1="0 0 4 0 0 0 0 0 0 0"
    ascent="800"
    descent="-200"
    x-height="483"
    cap-height="706"
    bbox="-129 -262 923 934"
    underline-thickness="30"
    underline-position="-148"
    unicode-range="U+0020-F002"
  />
<missing-glyph horiz-adv-x="500" 
d="M63 0v753h375v-753h-375zM125 63h250v628h-250v-628z" />
    <glyph glyph-name=".notdef" horiz-adv-x="500" 
d="M63 0v753h375v-753h-375zM125 63h250v628h-250v-628z" />
    <glyph glyph-name=".null" horiz-adv-x="0" 
 />
    <glyph glyph-name="nonmarkingreturn" 
 />
    <glyph glyph-name="space" unicode=" " 
 />
    <glyph glyph-name="exclam" unicode="!" horiz-adv-x="264" 
d="M194 625q0 -43 -20 -161q-24 -143 -27 -273q-7 1 -16 1t-15 -1q-2 120 -27 273q-18 109 -18 159q0 40 16 65.5t46 25.5q35 0 51 -39q10 -24 10 -50zM196 61q0 -28 -17 -49t-47 -21q-31 0 -47.5 21t-16.5 49q0 29 17 50t47 21t47 -21.5t17 -49.5z" />
    <glyph glyph-name="quotedbl" unicode="&#x22;" horiz-adv-x="317" 
d="M279 708q0 -2 -1 -10l-31 -253h-21l-28 240v13q0 51 42 51q39 0 39 -41zM119 708q0 -2 -1 -10l-30 -253h-21l-28 240q-1 8 -1 12q0 52 42 52q39 0 39 -41z" />
    <glyph glyph-name="numbersign" unicode="#" horiz-adv-x="558" 
d="M532 514q-5 -16 -5 -34v-8q-49 7 -123 7q-20 0 -22 -19l-10 -89q-1 -9 -1 -7q0 -10 8 -10q62 0 135 8q-5 -17 -5 -29q0 -5 1 -11q-50 5 -123 5q-14 0 -17 -3t-5 -17q-9 -68 -11 -133q-11 2 -22 2q-10 0 -23 -2q18 86 24 135l1 8q0 9 -22 9h-80q-15 0 -18.5 -3.5
t-5.5 -20.5q-10 -74 -12 -128q-11 2 -21 2q-9 0 -22 -2q8 42 22 130q2 14 2 13q0 10 -15 10q-71 0 -130 -6q6 17 6 27q0 1 -2 13q45 -6 126 -6q14 0 17 3t5 19l9 84q1 9 1 10q0 7 -13 7q-71 0 -131 -6q6 20 6 31q0 -2 -2 11q78 -7 124 -7q15 0 18.5 3.5t4.5 20.5
q4 51 11 151q13 -2 26 -2q6 0 21 2q-16 -69 -25 -151q-1 -9 -1 -12q0 -12 20 -12h76q19 0 23 3t6 19q7 70 11 153q12 -2 22 -2q8 0 22 2q-12 -67 -23 -153q-2 -16 -2 -13q0 -9 16 -9q64 0 128 7zM351 469q0 9 -24 9h-74q-15 0 -19.5 -3t-6.5 -17l-10 -82q-1 -8 -1 -12
q0 -9 19 -9h77q18 0 22 2.5t5 14.5l11 91q1 8 1 6z" />
    <glyph glyph-name="dollar" unicode="$" horiz-adv-x="441" 
d="M411 208q0 -91 -33.5 -140.5t-107.5 -69.5q-12 -3 -27 -8q-4 -2 -4 -13q0 10 3 -96q-15 4 -20 4q-7 0 -18 -4l2 81q0 5 1 12t1 9q0 5 -4 6t-32 4.5t-35 4.5q-21 4 -35 12q-29 17 -49 48q-23 36 -23 80q0 70 49 70q44 0 44 -61q0 -3 -1 -22t-1 -22q0 -85 80 -85q6 0 6 6
q2 97 2 164q0 57 -2 103q0 9 -1.5 13.5t-7.5 7.5q-10 4 -41 21q-112 70 -112 177q0 147 139 177q24 5 24 9q0 1 -1 7.5t-1 12.5l-2 77q15 -3 20 -3q6 0 18 3l-3 -78q0 -4 -1 -10v-6q0 -5 7 -6q16 -1 48 -6q22 -6 43 -18q52 -30 52 -89q0 -23 -12.5 -37.5t-31.5 -14.5
q-38 0 -45 48q-1 12 -3 38q-4 38 -29 49q-10 4 -20 4q-9 0 -9 -7q0 -219 1.5 -227.5t10 -12.5t33.5 -17q64 -38 92 -75q36 -48 36 -120zM210 445q0 1 -1 2t-1 2v211q0 5 -3 5q-32 0 -57 -23q-29 -28 -29 -77q0 -40 24 -69q13 -15 55 -46q8 -6 10 -6t2 1zM351 156
q0 63 -73 109q-12 8 -36 23q-3 2 -4 2v-6q-1 -85 -1 -77q0 -115 1 -180v-5t3 -3q4 0 21 7q89 37 89 130z" />
    <glyph glyph-name="percent" unicode="%" horiz-adv-x="630" 
d="M623 194q0 -201 -134 -201q-60 0 -96 47q-40 54 -40 158q0 99 35.5 151t98.5 52q136 0 136 -207zM485 689q-149 -324 -293 -690q-14 4 -22 4t-27 -4q132 284 294 690q13 -4 19 -4q7 0 29 4zM277 489q0 -201 -134 -201q-60 0 -96 47q-40 54 -40 158q0 102 39 155
q36 48 95 48q60 0 95 -45q41 -53 41 -162zM542 192q0 111 -17 153q-13 32 -39 32q-53 0 -53 -179q0 -182 56 -182q27 0 38 30q15 40 15 146zM196 488q0 110 -16 152q-12 32 -40 32q-25 0 -38 -32q-15 -42 -15 -147q0 -104 16 -146q12 -35 40 -35q25 0 37 30q16 40 16 146z
" />
    <glyph glyph-name="ampersand" unicode="&#x26;" horiz-adv-x="618" 
d="M591 171q0 -80 -43 -132q-39 -47 -89 -47q-54 0 -101 59q-9 12 -12 12q-1 0 -12 -12q-53 -59 -131 -59q-85 0 -134 68q-42 58 -42 135q0 121 117 212q8 6 8 13q0 5 -4 15q-28 71 -28 134q0 64 42.5 105t104.5 41q86 0 86 -83q0 -41 -20 -76.5t-69 -82.5q-6 -6 -6 -12
t4 -14q38 -78 113 -213q9 -17 15 -31q1 -3 3 -3q1 0 4 8q30 77 30 159q0 102 -76 102q-8 0 -30 -3q4 12 4 15q0 6 -3 16q81 -8 131 -8q52 0 124 8q-3 -10 -3 -16q0 -3 4 -14q-10 1 -28 1q-40 0 -57 -22q-13 -16 -26 -68q-5 -24 -17 -73q-18 -72 -36 -116q-3 -7 -3 -12
q0 -11 8 -24q47 -74 77 -74q23 0 42 20q26 27 26 83t-24 111q15 1 29 12q22 -90 22 -134zM301 620q0 70 -48 70q-26 0 -41 -22t-15 -53q0 -26 38 -110q7 -15 9 -15t7 6q50 56 50 124zM333 89q0 1 -11 15q-37 46 -150 275q-4 9 -8 9q-3 0 -9 -5q-47 -41 -47 -108
q0 -65 49 -148t103 -83q40 0 71 38q2 2 2 7z" />
    <glyph glyph-name="quotesingle" unicode="'" horiz-adv-x="157" 
d="M119 708q0 -2 -1 -10l-30 -253h-21l-28 240q-1 8 -1 12q0 52 42 52q39 0 39 -41z" />
    <glyph glyph-name="parenleft" unicode="(" horiz-adv-x="317" 
d="M294 -230q-11 -11 -16 -32q-25 18 -77 59q-176 155 -176 432q0 198 92 334q52 78 161 160q4 -18 16 -30q-92 -53 -131 -144q-49 -113 -49 -334t58 -329q39 -73 122 -116z" />
    <glyph glyph-name="parenright" unicode=")" horiz-adv-x="317" 
d="M292 229q0 -277 -176 -432q-26 -23 -77 -59q-5 21 -16 32q83 43 122 116q57 107 57 329q0 221 -49 334q-40 91 -130 144q12 12 16 30q109 -82 161 -160q92 -136 92 -334z" />
    <glyph glyph-name="asterisk" unicode="*" horiz-adv-x="357" 
d="M339 475q0 -46 -41 -46q-16 0 -32 12q-12 12 -25 24q-9 13 -29 38q-6 6 -11 6q-11 0 -11 -14q0 -8 7 -19q11 -17 11 -18q15 -33 15 -50q0 -45 -44 -45q-21 0 -33 13.5t-12 31.5q0 26 21 59q12 19 12 28q0 14 -11 14q-9 0 -25 -24q-38 -56 -72 -56q-41 0 -41 46
q0 40 60 46q22 -1 57 6q8 4 8 12q0 13 -35 12h-26q-64 9 -64 53q0 43 42 43q20 0 36 -14q5 -5 26 -30q29 -35 35 -35t6 6q0 -3 -15 41q-14 41 -14 57q0 41 45 41q44 0 44 -41q0 -21 -14.5 -55.5t-14.5 -42.5q0 -6 6 -6t35 35q21 25 26 30q16 14 36 14q42 0 42 -43
q0 -54 -77 -54q-33 0 -40.5 -2t-7.5 -9q0 -15 32 -16q11 0 33 -2q60 -6 60 -46z" />
    <glyph glyph-name="plus" unicode="+" horiz-adv-x="547" 
d="M526 263l-214 7q-10 0 -14 -3.5t-4 -13.5v-3l7 -219q-15 4 -27 4l-29 -8l6 226q0 16 -17 16h-3l-211 -7q4 15 4 27q0 14 -3 29l213 -6q10 0 14 3.5t4 14.5v4l-6 217q17 -4 29 -4q13 0 27 3l-8 -221q0 -9 4 -13t14 -4h3l211 6q-3 -18 -3 -28q0 -12 3 -27z" />
    <glyph glyph-name="comma" unicode="," horiz-adv-x="193" 
d="M169 9q0 -122 -125 -204q-2 17 -15 24q99 75 99 156q0 11 -6 11l-11 -6t-24 -6q-30 0 -46.5 19t-16.5 45q0 28 18.5 49.5t50.5 21.5q33 0 54.5 -30.5t21.5 -79.5z" />
    <glyph glyph-name="hyphen" unicode="-" horiz-adv-x="299" 
d="M276 236q-41 4 -117 4t-136 -4q5 16 5 28q0 11 -5 29q64 -5 134 -5q72 0 119 5q-4 -20 -4 -30q0 -11 4 -27z" />
    <glyph glyph-name="hyphen" unicode="&#x2010;" horiz-adv-x="299" 
d="M276 236q-41 4 -117 4t-136 -4q5 16 5 28q0 11 -5 29q64 -5 134 -5q72 0 119 5q-4 -20 -4 -30q0 -11 4 -27z" />
    <glyph glyph-name="period" unicode="." horiz-adv-x="199" 
d="M164 58q0 -27 -17 -47t-47 -20q-31 0 -47.5 20.5t-16.5 47.5t17 47.5t47 20.5t47 -21t17 -48z" />
    <glyph glyph-name="slash" unicode="/" horiz-adv-x="299" 
d="M306 707q-137 -338 -254 -708q-14 4 -27 4q-14 0 -32 -4q178 469 253 708q19 -5 27 -5q14 0 33 5z" />
    <glyph glyph-name="zero" unicode="0" horiz-adv-x="481" 
d="M450 353q0 -364 -209 -364q-97 0 -151 83q-59 90 -59 270q0 176 62 271q57 86 150 86q95 0 148 -80q59 -89 59 -266zM336 346q0 140 -12 212q-11 68 -33 91t-51 23q-32 0 -51.5 -23.5t-31.5 -92.5q-14 -82 -14 -235q0 -179 26 -243q15 -36 28.5 -48t41.5 -12q48 0 71 61
q26 70 26 267z" />
    <glyph glyph-name="one" unicode="1" horiz-adv-x="348" 
d="M332 0q-87 3 -160 3q-74 0 -138 -3q3 10 3 14q0 2 -3 16q13 -1 35 -2q18 -2 25 -2q33 0 34 33q3 137 3 302v69q-1 45 -1 63q0 21 2 46l2 24q0 5 -3 5q-1 0 -15 -18q-20 -26 -91 -86q-8 19 -20 27q72 60 105 94q52 56 81 116q14 -2 24 -2q6 0 23 3q-5 -126 -5 -329
q0 -162 4 -310q1 -36 37 -36q-11 0 58 3q-2 -12 -2 -16q0 -6 2 -14z" />
    <glyph glyph-name="two" unicode="2" horiz-adv-x="448" 
d="M426 193q-48 -103 -67 -193q-62 4 -170 4q-107 0 -186 -4l-3 23q55 58 110 117q63 68 104 122q87 116 87 234q0 72 -20 108q-26 47 -90 47t-100 -46q-32 -41 -32 -108q0 -110 93 -183q-14 -10 -20 -32q-55 44 -78.5 92t-23.5 115q0 98 52.5 153.5t150.5 55.5
q176 0 176 -197q0 -75 -51 -147q-34 -49 -121 -130q-55 -51 -110 -110q-6 -6 -6 -8q0 -9 97 -9q95 0 126 19t54 91q11 -11 28 -14z" />
    <glyph glyph-name="three" unicode="3" horiz-adv-x="434" 
d="M403 236q0 -119 -51.5 -182.5t-148.5 -63.5q-76 0 -118 33q-47 37 -64 125q20 1 38 13q9 -70 35 -100q30 -34 94 -34q55 0 75 36q26 44 26 174q0 121 -21 157q-16 27 -66 27q-35 0 -67 -32q-13 -12 -49 -61q-8 14 -25 25q103 102 200 220l13 16q0 2 -2 2q-3 0 -9.5 -2
t-8.5 -2q-14 -2 -145 -2q-19 0 -29 -24q-3 -8 -18 -73q-16 12 -35 16q38 71 63 184q64 -5 146 -5q84 0 149 5q1 -13 4 -22q-117 -118 -200 -216q-1 -1 -2 -3q0 -1 2 -1q-1 0 27 8q14 4 27 4q79 0 118 -49q42 -54 42 -173z" />
    <glyph glyph-name="four" unicode="4" horiz-adv-x="441" 
d="M421 0q-61 5 -125 5t-132 -5q2 11 2 16q0 7 -2 14q45 -5 46 -5q28 0 29 52q0 7 2 39q1 29 1 41q0 33 -3 41t-16 9q-51 2 -102 2q-72 0 -108 -2q-1 20 -6 32q27 46 153 246q81 129 127 217q24 -6 32 -6q14 0 29 4q-1 -79 -2 -237q0 -47 -2 -119q-1 -65 -1 -72q0 -21 5 -26
t27 -5q20 0 44 7q-3 -18 -3 -24q0 -7 3 -23q-31 6 -65 6q-10 0 -12 -20q1 7 1 -29q0 -11 1 -79q1 -53 31 -53q6 0 21.5 2t24.5 2q-3 -12 -3 -17t3 -13zM242 551q0 2 -2 2q-3 0 -10 -13q-4 -9 -8 -17q-67 -104 -168 -270q-2 -3 -2 -6q0 -7 95 -7q41 0 78 2q12 1 13 9
q2 15 2 60q0 28 -1 95t-1 93q0 16 2 35t2 17z" />
    <glyph glyph-name="five" unicode="5" horiz-adv-x="443" 
d="M403 244q0 -114 -46 -179q-53 -75 -162 -75q-90 0 -135 56q-35 45 -50 144q20 1 38 13q14 -94 34 -126q30 -49 106 -49q53 0 77 40q28 48 28 171q0 119 -28 166q-21 37 -66 37q-53 0 -91 -46q-32 -39 -44 -98q-9 8 -14 8q-2 0 -13 -2q34 138 70 384q18 0 70 -2
q43 -2 68 -2q51 0 72 9q31 14 40 59q9 -7 27 -7q-30 -117 -56.5 -143t-122.5 -26q-12 0 -35 1.5t-35 1.5q-15 0 -18 -17q-7 -37 -22 -123q-5 -29 -5 -27q0 -2 1 -2q2 1 4 4q36 68 129 68q179 0 179 -238z" />
    <glyph glyph-name="six" unicode="6" horiz-adv-x="452" 
d="M419 244q0 -254 -198 -254q-99 0 -143.5 77t-44.5 255q0 377 227 377q68 0 108 -42q35 -36 35 -85q0 -59 -41 -59t-46 75l-4 60q-8 25 -51 25q-70 0 -101 -107q-20 -70 -20 -166q0 -6 -1 -9l2 -2q4 0 7 7q31 77 112 77q159 0 159 -229zM316 225q0 123 -22 168
q-17 36 -59 36q-94 0 -94 -201q0 -127 27 -174q21 -37 68 -37q41 0 59 41q21 47 21 167z" />
    <glyph glyph-name="seven" unicode="7" horiz-adv-x="444" 
d="M428 675q-71 -104 -107 -185q-52 -117 -75 -241q-17 -91 -27 -250q-30 5 -52 5q-21 0 -61 -5q30 139 95 292q62 139 125 279q1 3 1 6q0 5 -15 6q-36 2 -108 2q-68 0 -107 -2q-34 -2 -46 -71q-3 -15 -8 -45q-16 11 -37 15q45 108 68 207q71 -4 172 -4q100 0 170 3z" />
    <glyph glyph-name="eight" unicode="8" horiz-adv-x="450" 
d="M428 205q0 -104 -53 -159t-149 -55q-204 0 -204 194q0 57 30.5 104t83.5 65q8 3 8 5q0 1 -15 11q-79 51 -79 151q0 84 50.5 130t135.5 46t129 -51q37 -43 37 -108q0 -45 -24.5 -82t-66.5 -50q-4 -1 -4 -3q0 -1 31 -22q90 -60 90 -176zM334 537q0 72 -23.5 102.5
t-78.5 30.5q-105 0 -105 -112q0 -51 41 -85q21 -17 85 -47q15 -7 22 -7q9 0 23 15q36 38 36 103zM350 159q0 62 -42 104q-31 31 -113 72q-12 6 -23 6q-18 0 -39 -24q-16 -19 -24 -40q-14 -36 -14 -87q0 -170 134 -170q56 0 88.5 38t32.5 101z" />
    <glyph glyph-name="nine" unicode="9" horiz-adv-x="452" 
d="M419 368q0 -206 -63 -298q-54 -79 -164 -79q-68 0 -108 42q-35 36 -35 85q0 58 41 58t46 -74l4 -60q8 -25 51 -25q72 0 102 115q19 70 19 165l-3 3q-2 -1 -4 -5q-13 -35 -44.5 -56.5t-68.5 -21.5q-159 0 -159 229q0 254 198 254q98 0 141 -70q47 -77 47 -262zM309 459
q0 127 -26 175q-21 38 -67 38q-42 0 -59 -40q-21 -46 -21 -166q0 -124 22 -169q17 -36 59 -36q92 0 92 198z" />
    <glyph glyph-name="colon" unicode=":" horiz-adv-x="228" 
d="M178 382q0 -28 -15 -47q-18 -22 -48 -22q-31 0 -48 21t-17 49t17 49t48 21q30 0 46.5 -21.5t16.5 -49.5zM178 61q0 -28 -15 -48q-18 -22 -48 -22q-31 0 -48 21t-17 49t17 49t48 21q30 0 46.5 -21t16.5 -49z" />
    <glyph glyph-name="semicolon" unicode=";" horiz-adv-x="228" 
d="M178 378q0 -28 -15 -48q-18 -22 -48 -22q-31 0 -48 21t-17 49t17.5 49.5t47.5 21.5t46.5 -21t16.5 -50zM186 11q0 -124 -125 -206q-2 15 -14 24q99 75 99 158q0 11 -6 11q-1 0 -4 -2q-17 -11 -31 -11q-30 0 -48 21q-15 18 -15 45q0 28 18 49.5t51 21.5t54 -31t21 -80z
" />
    <glyph glyph-name="less" unicode="&#x3c;" horiz-adv-x="547" 
d="M525 47q-89 53 -277 164q-184 107 -225 118q3 15 3 27q0 11 -3 23q44 11 228 118q103 61 274 161q-5 -26 -5 -35q0 -10 4 -26q-182 -91 -405 -227q-13 -4 -39 -13q-4 -2 -4 -5t15 -7q10 -2 28 -9q194 -125 405 -227q-4 -18 -4 -28q0 -12 5 -34z" />
    <glyph glyph-name="equal" unicode="=" horiz-adv-x="547" 
d="M518 347q-97 5 -227 5q-129 0 -262 -5q3 12 3 27q0 13 -3 28q132 -5 262 -5q131 0 227 5q-3 -12 -3 -27q0 -12 3 -28zM518 177q-97 5 -227 5q-129 0 -262 -5q3 12 3 27q0 13 -3 28q132 -5 262 -5q131 0 227 5q-3 -12 -3 -26q0 -13 3 -29z" />
    <glyph glyph-name="greater" unicode="&#x3e;" horiz-adv-x="547" 
d="M524 329q-41 -11 -225 -118q-103 -61 -277 -164q5 22 5 34q0 10 -4 28q211 103 405 227q7 4 38 12q5 1 5 4t-14 7q-10 3 -29 11q-223 136 -405 227q4 16 4 26q0 9 -5 35q87 -52 274 -161q184 -107 228 -118q-4 -16 -4 -23q0 -6 4 -27z" />
    <glyph glyph-name="question" unicode="?" horiz-adv-x="385" 
d="M356 531q0 -75 -26.5 -119.5t-92 -78.5t-65.5 -83q0 -8 6 -69q-17 0 -31 -5q-9 41 -9 69q0 72 49.5 104.5t61.5 77.5q8 30 8 100q0 56 -6 91q-13 73 -61 73q-53 0 -53 -35q0 -5 13.5 -32t13.5 -53q0 -25 -13.5 -40.5t-34.5 -15.5q-22 0 -37 18.5t-15 50.5q0 48 35 86
q41 44 103 44q82 0 122 -63q32 -49 32 -120zM228 61q0 -28 -17 -49t-47 -21q-31 0 -47.5 21t-16.5 49q0 29 17 50t47 21t47 -21.5t17 -49.5z" />
    <glyph glyph-name="at" unicode="@" horiz-adv-x="742" 
d="M695 27q-130 -159 -311 -159q-140 0 -234 98q-102 105 -102 281q0 181 100 316q111 148 285 148q131 0 201 -99q60 -86 60 -220q0 -143 -61 -238q-55 -86 -121 -86t-66 65q0 3 1 9v8v3q0 2 -2 2q-3 0 -5 -5q-16 -33 -46 -55q-32 -25 -66 -25q-46 0 -78 41q-36 47 -36 130
q0 112 58.5 198t130.5 86q60 0 81 -51q9 -23 10 -23q4 0 5 4.5t6 42.5q17 -5 28 -5q8 0 29 6l-26 -139q-10 -51 -21 -102q-12 -64 -12 -101q0 -50 23 -50q60 0 99 95q34 85 34 191q0 141 -65 217q-61 71 -161 71q-143 0 -238 -138q-88 -127 -88 -292t91 -262q83 -88 205 -88
q163 0 268 153q4 -19 24 -27zM474 394q0 90 -63 90q-61 0 -100 -99q-33 -81 -33 -163q0 -33 10 -62q16 -49 56 -49q61 0 99 108q31 87 31 175z" />
    <glyph glyph-name="A" unicode="A" horiz-adv-x="610" 
d="M592 0q-67 4 -146 4t-129 -4q3 11 3 14q0 4 -2 16q51 -4 54 -4q20 0 20 11q0 4 -2 12q-15 61 -50 183q-4 13 -17 13q-28 1 -61 1q-25 0 -61 -1q-20 -1 -24 -13q-17 -57 -44 -170q-2 -12 -2 -16q0 -20 19 -20q6 0 25.5 2t25.5 2q-2 -6 -2 -15t2 -15q-43 4 -97 4
q-55 0 -87 -4q2 7 2 15q0 7 -2 15q35 -3 37 -3q25 0 66 122.5t170 569.5q4 -1 12 -1q9 0 12 1q47 -191 201 -671q7 -22 28 -22q5 0 23 2t26 2q-2 -9 -2 -15q0 -2 2 -15zM326 278q0 1 -2 8q-19 61 -56 183q-8 29 -8 52q0 3 -2 3q-1 0 -4 -13q-8 -38 -61 -222q-1 -3 -1 -7
q0 -8 13 -8q38 -1 54 -1q20 0 55 1q12 0 12 4z" />
    <glyph glyph-name="B" unicode="B" horiz-adv-x="588" 
d="M540 194q0 -102 -46 -148t-148 -46q-36 0 -105.5 1.5t-104.5 1.5q-64 0 -120 -3q2 9 2 15t-2 16q9 0 30 -2q18 -2 24 -2q19 0 20 20q5 113 5 314q0 197 -5 300q-1 18 -23 18q-7 0 -24 -2q-21 -2 -27 -2q3 12 3 15q0 2 -3 16q73 -4 150 -4q27 0 80.5 2.5t80.5 2.5
q166 0 166 -167q0 -65 -39 -108q-40 -46 -102 -46q-8 0 -8 -3t5 -3q191 0 191 -186zM377 518q0 92 -25 124q-29 37 -114 37q-27 0 -28 -13q-7 -112 -7 -234q0 -24 2 -30t12 -6q51 -1 44 -1q64 0 84 17q32 27 32 106zM422 192q0 95 -30 133q-33 42 -120 42q-19 0 -54 -1
q-16 0 -16 -13q0 -161 7 -291q1 -25 16 -31q8 -3 40 -3q90 0 121 29q36 33 36 135z" />
    <glyph glyph-name="C" unicode="C" horiz-adv-x="600" 
d="M554 58q-59 -37 -95 -51q-50 -20 -107 -20q-139 0 -217 97t-78 266q0 175 85 272q82 94 220 94q53 0 100 -15q32 -11 92 -41q-9 -49 -9 -116q0 -36 4 -73q-13 1 -27 0q-11 220 -156 220q-116 0 -158 -117q-26 -72 -26 -216q0 -147 23 -220q40 -125 153 -125q82 0 126 82
q33 64 38 163q10 -2 14 -2q2 0 13 3q-5 -34 -5 -78q0 -72 10 -123z" />
    <glyph glyph-name="D" unicode="D" horiz-adv-x="697" 
d="M641 358q0 -118 -35 -204q-39 -97 -118 -132q-50 -22 -129 -22q-38 0 -109 1.5t-108 1.5q-70 0 -126 -3q3 11 3 16q0 7 -3 15q6 0 26 -2q17 -2 24 -2q23 0 24 18q5 109 5 314q0 217 -4 301q-1 19 -22 19q-6 0 -24 -2q-21 -2 -29 -2q3 9 3 15q0 5 -3 16q55 -3 131 -3
q21 0 132 2q55 1 71 1q90 0 143 -26q148 -72 148 -322zM523 353q0 195 -68 275q-37 44 -133 49q-36 2 -57 2q-44 0 -49 -4t-6 -21q-6 -100 -6 -297q0 -190 6 -299q1 -20 9.5 -24.5t50.5 -4.5q69 0 95 4q58 9 90 48q68 82 68 272z" />
    <glyph glyph-name="E" unicode="E" horiz-adv-x="587" 
d="M541 247q-10 -95 -10 -180q0 -35 3 -67q-105 4 -235 4q-140 0 -283 -4q3 10 3 15t-3 16q10 -1 31 -2q18 -2 24 -2q19 0 20 22q4 93 4 312q0 217 -4 300q-1 18 -23 18q-7 0 -25 -2q-21 -2 -27 -2q3 12 3 15q0 2 -3 16q73 -4 178 -4q53 0 154 2q107 2 159 2q-5 -35 -5 -76
q0 -78 11 -149q-16 2 -12 2q-2 0 -13 -4q-3 26 -10 71q-15 61 -49 89q-38 31 -114 34q-9 0 -34 2q-20 1 -33 1q-28 0 -33 -4t-6 -24q-8 -135 -8 -245q0 -21 3.5 -25.5t18.5 -4.5q57 0 82 13q33 17 39 68q4 31 4 73q7 -1 15 -1t14 1q-8 -99 -8 -181q0 -83 8 -159q-5 1 -14 1
q-8 0 -15 -1q0 55 -2 79q-4 51 -39 69q-25 13 -83 13q-16 0 -19.5 -4.5t-3.5 -24.5q0 -5 1 -60q1 -79 8 -198q1 -21 12 -25.5t66 -4.5q105 0 144 22q54 30 75 133q6 30 7 60q10 -2 11 -2q3 0 16 3z" />
    <glyph glyph-name="F" unicode="F" horiz-adv-x="559" 
d="M513 482q-17 0 -27 -3q-11 104 -41 143q-36 48 -130 51q-58 2 -62 2q-24 0 -27 -1q-15 -3 -16 -17q-5 -84 -7 -217v-20v-29q3 -17 18 -18h19q86 0 101 54q8 28 8 100q8 -1 15 -1q8 0 14 1q-9 -111 -9 -180q0 -74 9 -160l-15 1q2 0 -14 -1q0 55 -2 79q-4 44 -29 63.5
t-82 19.5h-16q-14 -1 -17 -16q-1 -4 -1 -27l1 -15q1 -139 7 -245q1 -19 19 -19q5 0 26.5 1.5t32.5 2.5q-3 -8 -3 -14q0 -5 3 -17q-56 4 -126 4q-68 0 -142 -4q3 10 3 17t-3 14q60 -3 52 -3q17 0 18 18q5 112 5 315q0 196 -5 300q-1 18 -19 18q-6 0 -24 -2q-21 -2 -30 -2
q3 8 3 15t-3 16q73 -4 180 -4q56 0 155 2q105 2 155 2q-5 -35 -5 -76q0 -78 11 -148z" />
    <glyph glyph-name="G" unicode="G" horiz-adv-x="659" 
d="M653 311q-11 0 -29.5 1.5t-22.5 1.5q-13 0 -14 -14q-4 -44 -4 -97q0 -91 7 -149q-119 -68 -235 -68q-298 0 -298 364q0 190 86 284q77 83 216 83q79 0 203 -56q-6 -48 -6 -102q0 -57 6 -102q-12 2 -13 2q-6 0 -14 -1q-20 128 -61 181t-118 53q-89 0 -129 -69
q-45 -81 -45 -282q0 -185 42 -260q39 -70 128 -70q83 0 106 49q14 29 14 122q0 55 -4 117q-1 14 -24 14q-22 0 -50 -2q2 8 2 14q0 5 -2 15q67 -5 141 -5q61 0 118 6q-3 -11 -3 -15q0 -3 3 -15z" />
    <glyph glyph-name="H" unicode="H" horiz-adv-x="650" 
d="M633 0q-76 4 -145 4q-71 0 -124 -4q2 13 2 17q0 5 -2 14q11 -1 33 -2q19 -2 24 -2q16 0 17 17q5 79 5 197v91q0 11 -3.5 13.5t-18.5 3.5q-58 2 -89 2q-41 0 -105 -2q-14 0 -17.5 -3.5t-3.5 -17t-1 -43.5v-44q0 -118 5 -197q1 -17 24 -17q7 0 25 2q22 2 27 2
q-3 -10 -3 -15q0 -4 3 -16q-56 4 -127 4q-69 0 -143 -4q2 11 2 15q0 9 -1 16q60 -4 50 -4q22 0 23 13q5 102 5 320q0 214 -4 299q-1 20 -20 20q-6 0 -24 -2q-22 -2 -31 -2q3 9 3 15q0 5 -3 16q73 -4 143 -4q72 0 127 4q-3 -12 -3 -16q0 -5 3 -15q-8 0 -28 2t-26 2
q-21 0 -22 -18q-6 -87 -6 -162q0 -36 2 -84q1 -22 4.5 -27t15.5 -6q71 -3 105 -3q47 0 90 2q15 1 18.5 5t3.5 20v84q0 112 -4 170q-1 19 -22 19q-6 0 -24 -2q-22 -2 -29 -2q2 9 2 15q0 3 -2 16q84 -3 140 -3q62 0 128 3q-2 -9 -2 -17q0 -5 3 -14q-6 0 -28 2q-18 2 -25 2
q-22 0 -23 -17q-4 -86 -4 -303q0 -223 4 -314q1 -18 22 -18q6 0 24 2q22 2 29 2q-2 -9 -2 -17q0 -6 3 -14z" />
    <glyph glyph-name="I" unicode="I" horiz-adv-x="302" 
d="M285 0q-56 4 -126 4q-68 0 -143 -4q3 11 3 15q0 2 -3 16q6 0 28 -2q18 -2 25 -2q20 0 21 17q5 110 5 317q0 205 -5 304q-1 14 -22 14q-7 0 -25 -2q-22 -2 -27 -2q3 12 3 15q0 2 -3 16q73 -4 143 -4q71 0 126 4q-1 -8 -1 -16q0 -9 1 -15q-8 0 -28.5 2t-26.5 2
q-19 0 -20 -14q-9 -145 -9 -305q0 -292 10 -322q4 -11 21 -11q7 0 26.5 2t26.5 2q-1 -8 -1 -16q0 -9 1 -15z" />
    <glyph glyph-name="J" unicode="J" horiz-adv-x="399" 
d="M381 675q-7 0 -26 2t-25 2q-22 0 -23 -17q-9 -146 -9 -301q0 -32 1.5 -95.5t1.5 -94.5q0 -49 -7 -81q-22 -100 -136 -100q-56 0 -92 28q-39 31 -39 85q0 33 15.5 51t36.5 18q19 0 33.5 -15t14.5 -41q0 -19 -15.5 -43t-15.5 -33q0 -20 41 -20q26 0 38.5 19.5t13.5 71.5
q3 121 3 250q0 196 -5 300q-1 18 -22 18q-7 0 -24 -2q-21 -2 -27 -2q2 7 2 15t-2 16q72 -4 142 -4t125 4q-2 -8 -2 -16t2 -15z" />
    <glyph glyph-name="K" unicode="K" horiz-adv-x="626" 
d="M610 0q-51 3 -134 3q-74 0 -139 -3q2 8 2 14q0 5 -2 16q53 -4 47 -4q12 0 12 8q0 5 -2 12q-28 96 -136 294q-8 13 -39 13q-14 0 -16.5 -6.5t-2.5 -37.5q0 -81 10 -259q1 -23 22 -23q6 0 23 2q21 2 30 2q-2 -10 -2 -16t2 -15q-56 4 -126 4q-69 0 -143 -4q3 14 3 16
q0 3 -3 15q8 0 28 -2q17 -2 23 -2q23 0 24 23q4 94 4 311q0 201 -5 302q-1 16 -21 16q-7 0 -25 -2q-21 -2 -28 -2q3 8 3 14q0 5 -3 17q73 -4 143 -4q71 0 126 4q-2 -11 -2 -16q0 -7 2 -15q-6 0 -28 2q-18 2 -25 2q-21 0 -22 -14q-8 -128 -8 -231q0 -37 2 -45.5t9 -8.5
q33 0 45 21q58 99 76 131q45 81 64 136q2 6 2 7q0 5 -6 5h-11q4 0 -54 -4q2 9 2 14q0 4 -2 16q45 -4 107 -4q61 0 102 4q-3 -14 -3 -16q0 -5 3 -14q-53 5 -50 5q-18 0 -29 -15q-50 -66 -114 -187q-7 -13 -7 -19q0 -4 4 -13l88 -202q51 -113 99 -197q12 -21 34 -21q2 0 46 3
q-1 -7 -1 -17q0 -5 2 -13z" />
    <glyph glyph-name="L" unicode="L" horiz-adv-x="572" 
d="M525 0q-52 0 -160.5 2t-166.5 2q-107 0 -182 -4q3 16 3 17q0 4 -3 14q6 0 27 -2q17 -2 24 -2q22 0 23 17q5 110 5 317q0 217 -4 300q-1 18 -21 18q-6 0 -25 -2q-22 -2 -29 -2q3 15 3 17q0 4 -3 14q73 -4 143 -4q71 0 126 4q-2 -12 -2 -17q0 -2 3 -14q-6 0 -26 2.5
t-27 2.5q-22 0 -23 -17q-9 -146 -9 -303q0 -151 9 -311q1 -18 49 -18q130 0 171 35q50 42 71 197q5 -2 13 -2q5 0 11 2q-3 -60 -3 -139q0 -80 3 -124z" />
    <glyph glyph-name="M" unicode="M" horiz-adv-x="798" 
d="M783 675q-5 0 -24.5 2t-26.5 2q-24 0 -25 -16q-1 -22 -3 -63q-4 -106 -4 -218q0 -101 3 -257q1 -28 4 -83q1 -16 23 -16q7 0 26.5 2.5t25.5 2.5q-1 -9 -1 -16q0 -9 1 -15q-56 4 -126 4q-69 0 -143 -4q3 11 3 15q0 2 -3 16q11 -1 33 -2q19 -2 24 -2q16 0 17 18
q5 111 5 316q0 42 -1.5 127t-1.5 127q0 6 2 17t2 16l1 2q0 6 -3 6q-5 0 -5 -6q0 -11 -11 -39q-94 -238 -200 -580q-3 -9 -10 -44q-11 1 -19 0q-3 25 -9 43q-63 206 -197 578q-6 17 -8 45q-1 4 -5 4t-4 -3v0q2 -30 2 -34v-225q0 -213 11 -354q1 -16 23 -16q8 0 26 2
q22 2 30 3q-3 -9 -3 -17q0 -6 3 -13q-37 3 -87 3q-65 0 -111 -3q3 7 3 13q0 7 -3 17q4 0 25 -3q17 -2 24 -2q19 0 20 15q4 64 5 146q2 159 2 306q0 146 -2 170q-2 18 -22 18q11 0 -53 -4q3 11 3 14q0 2 -3 16q39 -3 108 -3q53 0 109 3q59 -208 160 -483q7 -19 8 -19t7 19
q69 226 142 408q14 35 16 75q72 -4 109 -4q52 0 107 4q-2 -8 -2 -16t3 -15z" />
    <glyph glyph-name="N" unicode="N" horiz-adv-x="626" 
d="M610 676q-46 4 -45 4q-14 0 -17 -18q-14 -97 -14 -275q0 -91 4 -396q-14 0 -26 -7q-13 35 -32 69q-172 308 -337 571q-4 9 -12 28q-2 5 -5 5q-2 -1 -2 -5t2 -13t2 -14l-1 -312q0 -165 14 -267q3 -19 29 -19q6 0 24.5 1.5t24.5 1.5q-2 -8 -2 -17q0 -7 2 -13q-45 3 -107 3
q-61 0 -95 -3q2 8 2 14q0 7 -2 16q57 -4 49 -4q18 0 19 16q4 121 6 304l1 147q0 124 -5 170q-2 17 -22 17q1 0 -49 -4q3 12 3 14q0 1 -3 16q36 -4 107 -4q61 0 111 4q91 -176 247 -426q10 -16 17 -39q2 -6 4 -6q3 0 3 5q0 8 -1 24.5t-1 24.5q0 247 -12 374q-2 17 -25 17
q-7 0 -27 -2t-26 -2q3 13 3 15l-3 15q36 -4 94 -4q57 0 103 4q-2 -10 -2 -16t2 -14z" />
    <glyph glyph-name="O" unicode="O" horiz-adv-x="674" 
d="M617 367q0 -148 -61 -252q-75 -126 -219 -126q-139 0 -215 118q-65 100 -65 244q0 151 64 249q75 116 217 116q137 0 213 -109q66 -96 66 -240zM502 336q0 56 -6 136q-7 88 -26 132q-38 88 -129 88q-138 1 -162 -193q-8 -64 -8 -142q0 -182 37 -259q40 -84 130 -84
q115 0 148 145q16 70 16 177z" />
    <glyph glyph-name="P" unicode="P" horiz-adv-x="521" 
d="M484 509q0 -89 -43 -139t-133 -50q-30 0 -64.5 2t-30.5 2q-12 0 -12 -15q0 -98 9 -258q1 -24 22 -24q6 0 25.5 2t27.5 2q-3 -8 -3 -14q0 -5 3 -17q-56 4 -126 4q-68 0 -142 -4q2 11 2 17q0 8 -2 14q8 0 29 -2q18 -2 24 -2q20 0 21 22q4 93 4 312q0 164 -7 303
q-1 15 -20 15q-7 0 -24 -2q-20 -2 -27 -2q2 9 2 16q0 6 -2 15q90 -5 144 -5q22 0 66.5 2.5t66.5 2.5q66 0 110 -23q80 -44 80 -174zM369 507q0 87 -21 123q-27 48 -103 48q-37 0 -38 -14q-6 -97 -6 -291q0 -14 7 -19t33 -5q81 0 106 36q22 31 22 122z" />
    <glyph glyph-name="Q" unicode="Q" horiz-adv-x="674" 
d="M617 366q0 -378 -280 -378q-12 0 -30 5q-11 3 -13 3t-2 -3q0 -2 7 -5t12 -5q63 -37 74 -88q6 -29 12 -39q10 -20 31 -20q4 0 47 5q-2 -12 -2 -17q0 -2 3 -13q-20 0 -59 -1t-48 -1q-53 0 -72 21q-24 25 -29 101q-4 53 -41 78q-49 32 -60 41q-30 24 -51 53q-59 84 -59 246
q0 150 64 250q76 117 217 117q137 0 213 -111q66 -97 66 -239zM502 361q0 194 -44 269q-35 62 -117 62q-83 0 -122 -68q-47 -79 -47 -272q0 -191 42 -269q38 -70 124 -70q79 0 117 68q47 82 47 280z" />
    <glyph glyph-name="R" unicode="R" horiz-adv-x="610" 
d="M594 0h-57q-86 0 -116 27t-36 117l-5 73q-4 56 -14 82q-16 43 -57 53q-27 7 -81 7q-22 0 -22 -14q0 -17 -1 -53v-53q0 -115 5 -194q1 -18 23 -18q7 0 26.5 2t26.5 2q-3 -9 -3 -15q0 -8 2 -16q-56 4 -126 4q-69 0 -143 -4q2 12 2 15t-2 16q6 0 27 -2q17 -2 24 -2
q22 0 23 19q5 112 5 315q0 161 -7 302q-1 16 -22 16q-7 0 -25 -2q-21 -2 -25 -2q3 11 3 14q0 1 -3 17q72 -4 153 -4q33 0 85 2t66 2q73 0 111 -51q35 -45 35 -120q0 -71 -45 -111q-30 -27 -92 -44q-11 -3 -11 -4q0 -2 11 -4q98 -15 129 -59.5t40 -171.5q5 -68 14 -89
q11 -26 42 -26q5 0 19.5 2t19.5 2q-2 -10 -2 -16q0 -3 3 -14zM352 527q0 113 -53 139q-23 11 -66 11q-25 0 -26 -19q-3 -45 -3 -102q0 -27 1 -78.5t1 -74.5q0 -11 4 -13.5t21 -2.5q64 0 87 22q34 33 34 118z" />
    <glyph glyph-name="S" unicode="S" horiz-adv-x="508" 
d="M451 209q0 -105 -61.5 -163.5t-173.5 -58.5q-72 0 -172 48q3 22 3 59q0 61 -11 144q9 -2 13 -2q6 0 14 2q31 -219 178 -219q130 0 130 132q0 61 -47 100q-24 20 -99 55q-92 44 -125 75q-54 52 -54 136q0 98 52 150t146 52q58 0 155 -44q-7 -46 -7 -103q0 -35 3 -57
q-14 1 -28 -1q-12 178 -135 178q-115 0 -115 -120q0 -50 42 -82q13 -10 85 -45q114 -56 145 -84q62 -56 62 -152z" />
    <glyph glyph-name="T" unicode="T" horiz-adv-x="632" 
d="M585 475q-13 3 -14 3q-3 0 -12 -3q-15 201 -148 201h-18q-15 0 -16 -14q-7 -119 -7 -300q0 -187 7 -317q1 -18 22 -18q7 0 26.5 2t26.5 2q-2 -10 -2 -16q0 -3 3 -15q-56 4 -127 4q-68 0 -142 -4q1 7 1 16q0 4 -2 15q6 0 27 -2q18 -2 25 -2q21 0 22 18q5 111 5 316
q0 199 -5 301q-1 14 -17 14h-11q-146 0 -157 -201q-11 2 -12 2q-2 0 -13 -2q6 63 6 120t-6 111q132 -4 290 -4q151 0 248 4q-5 -54 -5 -116q0 -63 5 -115z" />
    <glyph glyph-name="U" unicode="U" horiz-adv-x="632" 
d="M617 676q-6 0 -23 1.5t-22 1.5q-17 0 -20 -13q-10 -49 -11 -119q-2 -77 -2 -313q0 -71 -2 -92q-5 -55 -25 -87q-41 -65 -186 -65q-138 0 -191.5 47.5t-53.5 177.5q0 41 1 144q1 95 1 144q0 114 -2 162q-1 15 -17 15q1 0 -48 -4q3 13 3 15t-3 15q54 -3 128 -3q72 0 123 3
q-2 -10 -2 -16q0 -7 2 -14q-7 1 -25.5 3t-23.5 2q-16 0 -16 -16.5t-2 -127.5q-2 -82 -2 -141q0 -100 3 -180q1 -33 2 -67q3 -40 15 -64q28 -57 131 -57q106 0 139 50q21 32 21 116q0 365 2 236q-2 146 -25 235q-4 15 -25 15q-7 0 -24 -2q-20 -2 -26 -2q3 22 3 15
q0 2 -1.5 6.5t-1.5 8.5q36 -4 98 -4q63 0 107 4q-2 -10 -2 -16q0 -2 3 -14z" />
    <glyph glyph-name="V" unicode="V" horiz-adv-x="608" 
d="M592 677q-34 3 -39 3q-12 0 -18 -13q-15 -30 -57 -144q-33 -101 -159 -536q-9 2 -12 2q-2 0 -12 -2q-19 78 -102 358q-90 301 -105 326q-6 10 -22 10q-6 0 -23 -2q-20 -2 -27 -2q3 9 3 14t-3 16q67 -4 146 -4t129 4q-3 -11 -3 -15q0 -6 3 -15q-58 4 -59 4q-16 0 -16 -9
v-6q19 -82 61 -215q50 -160 64 -214q5 -17 5 -39q0 -6 3 -6q3 1 4 5q2 11 8 33q34 114 67 228q50 174 50 213q0 10 -13 10q4 0 -48 -4q1 7 1 15q0 7 -1 15q43 -4 93 -4q42 0 82 5q-2 -10 -2 -17q0 -8 2 -14z" />
    <glyph glyph-name="W" unicode="W" horiz-adv-x="929" 
d="M913 677q-33 3 -39 3q-13 0 -19 -13q-30 -62 -63 -165q-41 -128 -153 -515q-9 2 -12 2q-2 0 -12 -2q-35 145 -134 459q-3 19 -13 39q-2 0 -7 -17q-42 -134 -142 -481q-9 2 -12 2q-2 0 -12 -2q-19 78 -102 358q-90 301 -105 326q-6 10 -22 10q-6 0 -23 -2q-20 -2 -27 -2
q3 9 3 14t-3 16q67 -4 146 -4t129 4q-3 -11 -3 -15q0 -6 3 -15q-58 4 -59 4q-16 0 -16 -9q0 -2 1 -6q38 -162 121 -418q9 -28 9 -50q0 -2 2 -2q4 0 6 6q3 12 6 28l83 286q4 14 4 25q0 10 -3 19q-13 47 -37 111q-6 10 -22 10q-6 0 -23 -2q-20 -2 -27 -2q3 9 3 14t-3 16
q67 -4 146 -4t129 4q-3 -11 -3 -15q0 -6 3 -15q-58 4 -59 4q-16 0 -16 -10q0 -1 1 -5q38 -162 121 -418q9 -28 9 -50q-1 -5 -1 -4q0 -3 2 -3q4 2 5 6q2 11 8 33q33 115 67 230q51 180 51 211q0 10 -14 10q4 0 -48 -4q2 14 2 15q0 -1 -2 15q43 -4 93 -4q42 0 82 5
q-2 -10 -2 -17q0 -4 3 -14z" />
    <glyph glyph-name="X" unicode="X" horiz-adv-x="627" 
d="M611 0q-53 4 -142 4q-91 0 -139 -4q3 14 3 15q0 3 -3 15q9 0 31 -2q18 -2 24 -2q13 0 13 8q0 14 -51 128q-39 87 -60 128l-8 17q1 0 -8 -15q-118 -206 -118 -245q0 -19 12 -19q-9 0 43 2q-3 -12 -3 -16q0 -6 3 -15q-41 5 -94 5t-99 -5q5 12 5 15q0 4 -4 16q29 -2 41 -2
q19 0 29 14q70 103 166 271q7 12 7 21q0 10 -6 21q-55 103 -163 307q-8 16 -25 16q-22 0 -45 -2q3 9 3 15q0 4 -3 15q45 -3 132 -3q88 0 151 3q-3 -14 -3 -15q0 -3 3 -15q-57 5 -54 5q-19 0 -19 -9q0 -21 87 -201q1 -3 2 -5q6 -18 8 -18q3 0 10 13q95 167 95 204q0 14 -9 14
q-5 0 -22 -1.5t-22 -1.5q4 13 4 15l-4 15q29 -3 88 -3q62 0 99 3q-3 -11 -3 -15q0 -5 3 -15q-40 4 -47 4q-14 0 -26 -18q-65 -94 -138 -222q-6 -10 -6 -23q0 -10 6 -22q11 -22 178 -340q14 -27 31 -27q-8 0 46 2q-1 -9 -1 -16q0 -4 2 -14z" />
    <glyph glyph-name="Y" unicode="Y" horiz-adv-x="571" 
d="M554 676q-39 4 -46 4q-11 0 -22 -19q-34 -58 -128 -275q-9 -20 -9 -38v-64q0 -123 6 -234q1 -23 22 -23q6 0 25 2t28 2q-2 -9 -2 -17q0 -3 3 -14q-56 4 -127 4q-69 0 -143 -4q3 14 3 16q0 4 -3 15q7 0 26 -2t25 -2q22 0 23 20q3 77 3 177v62q-1 51 -1 63q0 20 -8 36
l-102 201q-8 16 -46 80q-8 13 -22 13q-4 0 -42 -3q2 8 2 14q0 7 -2 16q46 -2 136 -2q89 0 129 2q-3 -12 -3 -16q0 -6 3 -14q-46 2 -47 2q-14 0 -14 -7q0 -18 26 -77q7 -16 75 -157q1 -2 5.5 -17.5t6.5 -15.5q4 1 5 4t2 9q35 79 44 103q27 67 48 142q1 4 1 7q0 10 -15 10
q-5 0 -20 -1q-18 -2 -24 -2q2 8 2 15q0 5 -2 15q32 -3 82 -3t97 3q-2 -13 -2 -16q0 -5 2 -14z" />
    <glyph glyph-name="Z" unicode="Z" horiz-adv-x="571" 
d="M525 0q-129 3 -261 3q-129 0 -244 -3q0 5 -3 16q17 15 38 54q142 260 285 553q4 8 20 33q7 11 7 16q0 4 -5 4h-15q-70 0 -96 -2q-59 -5 -91 -22q-71 -36 -71 -166q-9 2 -12 2q-1 0 -12 -2q5 47 5 116q0 62 -5 104q92 -4 228 -4q120 0 207 4q0 -7 6 -15q-9 -13 -27 -42
q-167 -308 -296 -577q-6 -13 -19 -32q-5 -7 -5 -11q0 -3 4 -3q1 0 4 1h6q174 0 231 30q89 46 93 203q13 -2 14 -2q4 0 14 1q-7 -80 -7 -137q0 -58 7 -122z" />
    <glyph glyph-name="bracketleft" unicode="[" horiz-adv-x="263" 
d="M221 -247q-31 5 -89 5t-89 -4q8 193 8 449q0 253 -8 503q26 -3 81 -3q57 0 96 3q-2 -8 -2 -17t2 -18q-35 3 -69 3q-26 0 -27 -21q-6 -207 -6 -449q0 -230 6 -396q1 -23 24 -23q38 0 73 4q-4 -11 -4 -17q0 -4 4 -19z" />
    <glyph glyph-name="backslash" unicode="\" horiz-adv-x="299" 
d="M306 -1q-18 4 -33 4q-13 0 -27 -4q-120 381 -253 708q19 -5 32 -5q9 0 28 5q75 -239 253 -708z" />
    <glyph glyph-name="bracketright" unicode="]" horiz-adv-x="263" 
d="M220 -246q-26 3 -81 3q-57 0 -96 -3q2 8 2 17t-2 18q35 -3 67 -3q28 0 29 21q6 207 6 449q0 230 -6 396q-1 23 -24 23q-38 0 -73 -4q4 11 4 17q0 4 -4 19q31 -5 89 -5t89 4q-8 -193 -8 -449q0 -253 8 -503z" />
    <glyph glyph-name="asciicircum" unicode="^" horiz-adv-x="600" 
d="M482 349q-21 4 -37 4q-18 0 -35 -3q-28 100 -92 231q-3 11 -12 32q-2 5 -5 5t-6.5 -9.5l-10.5 -28.5q-61 -129 -95 -231q-20 5 -33 5q-16 0 -39 -5q107 203 157 358q21 -8 30 -8q10 0 27 8q52 -161 151 -358z" />
    <glyph glyph-name="underscore" unicode="_" horiz-adv-x="405" 
d="M427 -125h-448v50h448v-50z" />
    <glyph glyph-name="grave" unicode="`" 
d="M183 524q-14 2 -18 2q-8 0 -13 -1q-34 66 -95 120q-27 24 -27 44q0 17 49 17q30 0 40 -5q14 -7 19 -32q11 -48 45 -145z" />
    <glyph glyph-name="a" unicode="a" horiz-adv-x="452" 
d="M436 0q-51 -6 -86 -6q-55 0 -72 38q-3 7 -3 21q0 2 1 4.5t1 4.5q0 3 -3 4q-1 0 -6 -13q-25 -63 -117 -63q-124 0 -124 136q0 108 152 145q77 19 86 27q3 3 3 13v51q0 61 -19 86q-17 22 -55 22q-16 0 -35 -3q-11 -2 -11 -16v-32q-1 -25 -1 -30q0 -24 -15.5 -38t-35.5 -14
q-45 0 -45 50q0 56 57 85q45 22 106 22q83 0 118 -35.5t35 -119.5v-226q0 -60 7 -78q6 -14 22 -14t38 8q-2 -9 -2 -12q0 -7 4 -17zM267 260q0 11 -3 11q-4 0 -59 -18q-77 -25 -77 -124q0 -47 17.5 -75t40.5 -28q36 0 56 29t21 71q4 120 4 134z" />
    <glyph glyph-name="b" unicode="b" horiz-adv-x="467" 
d="M440 242q0 -253 -170 -253q-70 0 -95 53q-8 17 -12 17q-14 0 -21 -62q-18 2 -85 3q10 30 12 61q7 141 7 302q0 145 -10 299q-1 20 -16 20q-24 0 -44 -3q2 14 2 16q0 5 -2 12q25 -1 66 -1q51 0 106 5q-2 -27 -4 -69q0 -8 -5 -206q0 -3 -2 -10t-1 -11q5 -1 6 5
q19 72 106 72q162 0 162 -250zM335 225q0 142 -25 193q-19 38 -63 38q-76 0 -76 -187v-30q-1 -19 -1 -29q0 -55 8 -107q13 -81 75 -81q43 0 59 31q23 43 23 172z" />
    <glyph glyph-name="c" unicode="c" horiz-adv-x="383" 
d="M366 371q0 -24 -16 -39t-37 -15q-48 0 -49 60v31q0 42 -5.5 50t-36.5 8q-25 0 -40 -12q-22 -18 -36 -75t-14 -128q0 -229 106 -229q48 0 68 21t32 77q12 -8 27 -9q-25 -121 -136 -121q-202 0 -202 248q0 143 66 206q49 48 128 48q65 0 103 -29q42 -32 42 -92z" />
    <glyph glyph-name="d" unicode="d" horiz-adv-x="483" 
d="M466 0q-11 1 -39 1q-61 0 -130 -6l4 54l5 25l-3 4q-4 -10 -12 -29q-30 -57 -99 -57q-165 0 -165 250q0 253 170 253q74 0 98 -61q2 -5 3 -5q2 1 2 3v4q0 8 -1.5 22t-1.5 20q1 59 -3 178q-2 24 -20 24q-23 0 -52 -4q1 6 1 16q0 9 -1 16q48 -3 83 -3q47 0 96 5
q-8 -219 -8 -367q0 -163 7 -294q1 -22 20 -22q14 0 46 4q-1 -5 -1 -15t1 -16zM297 273q0 190 -83 189q-42 0 -58 -31q-23 -43 -23 -172q0 -142 25 -193q18 -38 62 -38q76 0 76 186v30q1 19 1 29z" />
    <glyph glyph-name="e" unicode="e" horiz-adv-x="427" 
d="M401 266q-89 6 -246 6q-16 0 -19 -2t-3 -12q0 -157 32 -205q22 -34 90 -34q73 0 104 110q11 -11 30 -11q-16 -64 -59 -97.5t-101 -33.5q-202 0 -202 256q0 128 58 194q52 59 141 59q161 0 175 -230zM287 329q0 143 -69 143q-34 0 -57 -41q-26 -45 -26 -127q0 -10 8 -10
q14 0 121 10q16 2 19.5 5t3.5 20z" />
    <glyph glyph-name="f" unicode="f" horiz-adv-x="290" 
d="M343 618q0 -21 -12.5 -34.5t-29.5 -13.5q-40 0 -40 55v41q0 17 -11 21q-4 2 -26 2q-35 0 -44 -41q-3 -14 -3 -69v-81q0 -15 26 -15q34 0 68 2q-2 -12 -2 -17q0 -3 3 -15q-42 3 -73 3q-22 0 -22 -11q-1 -24 -1 -88q0 -132 7 -313q1 -19 14 -19q-1 0 48 6q-3 -15 -3 -17
q0 -4 3 -14q-53 4 -124 4q-68 0 -105 -4q1 7 1 14t-1 17q50 -6 49 -6q13 0 13 18q3 145 3 243q0 88 -2 161q0 10 -10 10q-18 0 -53 -4q2 10 2 15q0 3 -2 17q32 -3 50 -3q13 0 13 15v76q0 139 137 139q36 0 62 -9q65 -23 65 -85z" />
    <glyph glyph-name="g" unicode="g" horiz-adv-x="467" 
d="M455 435q0 -37 -32 -37q-36 0 -36 36q0 7 1 14l1 7q0 3 -3 3q-8 0 -20 -7.5t-12 -13.5q0 -8 11.5 -40t11.5 -54q0 -69 -42.5 -115t-111.5 -46q-26 0 -49 9.5t-45 19.5q-4 2 -10 2q-17 0 -34 -23t-17 -41q0 -45 77 -45q9 0 64.5 1.5t66.5 1.5q153 0 153 -145
q0 -165 -202 -165q-107 0 -160 43q-40 33 -40 81q0 68 85 95q16 5 17 11h-3q-2 0 -7 -1t-7 -1q-8 0 -16 3q-65 24 -65 104q0 34 15 55q12 18 45 36q12 7 12 10t-3 6q-36 39 -36 99q0 73 43.5 114.5t116.5 41.5q58 0 98 -28q12 -8 16 -8q2 0 9 5q34 25 59 25q49 0 49 -53z
M281 356q0 120 -59 120q-30 0 -43 -22q-18 -33 -18 -126q0 -77 17 -104q13 -22 44 -22q34 0 44 21q15 30 15 133zM386 -78q0 56 -50 77q-33 14 -98 14q-145 0 -145 -89q0 -105 135 -105q158 0 158 103z" />
    <glyph glyph-name="h" unicode="h" horiz-adv-x="508" 
d="M492 0q-45 5 -117 5q-56 0 -100 -6q1 6 1 16t-1 17q23 -6 33 -6q22 0 23 18q4 75 4 217v1q0 87 -6 139t-51 52q-46 0 -71 -48q-28 -54 -28 -152q0 -131 4 -208q1 -19 23 -19q8 0 36 6q-2 -11 -2 -17q0 -7 2 -16q-38 5 -100 5q-87 0 -125 -4q3 11 3 17q0 7 -3 14
q25 -5 43 -5q19 0 20 19q4 85 4 192q0 291 -4 425q-1 21 -18 21q-10 0 -46 -5q2 8 2 14q0 3 -2 16q23 -2 65 -2q43 0 105 6l-2 -230q0 -44 -5 -72q1 -4 3 -4l7 14q35 73 128 73q63 0 90.5 -39.5t27.5 -121.5v-73q-1 -49 -1 -73q0 -87 3 -143q1 -16 16 -16q16 0 39 5
q-2 -10 -2 -17t2 -15z" />
    <glyph glyph-name="i" unicode="i" horiz-adv-x="276" 
d="M200 644q0 -25 -14 -42q-16 -20 -43 -20q-28 0 -44 20q-14 17 -14 42t15.5 43.5t42.5 18.5t42 -18.5t15 -43.5zM260 -1q-38 5 -115 5q-91 0 -129 -4q1 7 1 15q0 10 -1 17q28 -7 46 -7q25 0 26 27q4 92 4 195q0 106 -4 192q-1 21 -22 21q-6 0 -24 -1.5t-25 -1.5q2 8 2 14
q0 7 -2 16q30 -2 79 -2q53 0 98 4q-5 -136 -5 -248q0 -94 4 -189q1 -26 21 -26q14 0 45 5q-1 -6 -1 -16q0 -6 2 -16z" />
    <glyph glyph-name="j" unicode="j" horiz-adv-x="270" 
d="M199 643q0 -25 -15 -43t-42 -18q-28 0 -43 18t-15 43t15.5 44t42.5 19t42 -19t15 -44zM204 489l-4 -101q-1 -41 -1 -150v-235q0 -78 -43 -126q-35 -38 -118 -76q-4 14 -14 25q34 8 43 18q33 36 33 180v227q0 129 -5 184q-2 25 -20 25q-5 0 -23 -2t-27 -2q2 15 2 14
q0 7 -1 15q72 -2 73 -2q41 0 105 6z" />
    <glyph glyph-name="k" unicode="k" horiz-adv-x="524" 
d="M509 0q-62 5 -108 5q-45 0 -117 -5q3 11 3 14l-3 16q40 -2 47 -2q4 0 4 3t-7 16q-43 78 -104 174q-8 13 -21 15q-6 1 -15 1q-5 0 -5 -6v-3q1 -2 1 -6q0 -59 2 -176q1 -20 19 -20q5 0 35 5q-2 -11 -2 -17t2 -14q-37 4 -97 4q-74 0 -127 -4q2 10 2 16q0 7 -2 16
q24 -6 41 -6q20 0 21 19q5 121 5 337q0 179 -5 281q-1 19 -17 19t-45 -4q2 7 2 13q0 5 -2 15q32 -1 58 -1q59 0 113 5q-4 -93 -4 -312v-63q1 -46 1 -62q0 -12 13 -12q23 0 31 14q32 53 91 167q3 7 3 9q0 7 -14 7q-6 0 -23 -1q-21 -2 -28 -2q3 12 3 15q0 6 -2 15q47 -4 96 -4
t95 4q-2 -12 -2 -15q0 -5 2 -15q-59 4 -50 4q-16 0 -28 -17q-23 -30 -46 -61q-36 -48 -36 -61q0 -7 7 -19q50 -90 146 -249q15 -23 31 -23t35 1q-2 -10 -2 -16q0 -4 3 -14z" />
    <glyph glyph-name="l" unicode="l" horiz-adv-x="265" 
d="M250 0q-37 4 -107 4q-74 0 -127 -4q2 10 2 16q0 7 -2 16q24 -6 42 -6q19 0 20 17q5 116 5 337q0 170 -5 278q-1 24 -16 24t-46 -4q2 7 2 13q0 5 -2 15q32 -1 58 -1q59 0 113 5q-4 -93 -4 -313q0 -235 3 -351q0 -19 20 -19t44 4q-2 -11 -2 -17t2 -14z" />
    <glyph glyph-name="m" unicode="m" horiz-adv-x="775" 
d="M760 0q-54 4 -115 4q-65 0 -105 -4q2 8 2 15q0 6 -2 16q30 -5 36 -5q19 0 20 23q5 107 5 165v97q0 93 -13 120q-12 23 -50 23q-84 0 -95 -123q-4 -47 -4 -121q0 -70 4 -161q1 -23 23 -23q9 0 34 6q-2 -10 -2 -18t2 -15q-44 6 -111 6q-61 0 -106 -5q1 6 1 15q0 8 -1 16
l35 -5q20 0 21 26q3 63 3 143q0 35 -2 137q-2 78 -12.5 102t-48.5 24q-36 0 -61 -30t-32 -91q-6 -52 -6 -137q0 -74 4 -155q1 -19 22 -19q5 0 32 6q-2 -9 -2 -17q0 -7 2 -16q-46 6 -107 6q-70 0 -115 -5q2 12 2 17q0 7 -2 15q24 -6 42 -6q19 0 20 17q4 91 4 192q0 92 -4 199
q-1 24 -16 24q2 0 -46 -3q2 10 2 14q0 2 -2 14q37 -1 61 -1q54 0 109 5q-1 -12 -4 -39q-2 -22 -2 -35q-2 -8 -2 -7q0 -2 2 -2q1 0 6 11q36 81 128 81q91 0 118 -80q0 -2 1 -6.5t3 -4.5t3 4q29 85 141 85q121 0 121 -141q0 -36 -2 -117q-1 -77 -1 -117q0 -11 3 -70
q1 -22 16 -22q19 0 42 4q-2 -10 -2 -16q0 -2 3 -15z" />
    <glyph glyph-name="n" unicode="n" horiz-adv-x="508" 
d="M492 0q-45 5 -117 5q-56 0 -100 -6q1 6 1 16t-1 17q23 -6 33 -6q22 0 23 16q4 81 4 236q0 69 -6 121t-51 52q-98 0 -98 -207q0 -147 3 -203q1 -15 24 -15q11 0 35 5q-2 -11 -2 -16q0 -7 2 -16q-38 5 -100 5q-87 0 -125 -4q2 10 2 16q0 7 -2 15q25 -5 43 -5q19 0 20 18
q4 85 4 192t-4 201q-1 20 -22 20q-13 0 -42 -4q2 8 2 14q0 3 -2 16q23 -2 56 -2q52 0 114 6q0 -8 -3 -39q-2 -23 -2 -38l3 -2q36 83 133 83q63 0 90.5 -39t27.5 -121v-78q-1 -51 -1 -77q0 -81 3 -137q1 -12 16 -12q21 0 39 4q-2 -10 -2 -16q0 -7 2 -15z" />
    <glyph glyph-name="o" unicode="o" horiz-adv-x="450" 
d="M423 243q0 -124 -55 -189q-52 -60 -143 -60q-95 0 -146.5 63.5t-51.5 182.5q0 114 46 180q53 74 158 74q192 0 192 -251zM315 242q0 184 -40 218q-15 13 -44 13q-32 0 -49 -14q-46 -38 -46 -222q0 -168 42 -207q16 -15 44 -15q35 0 52 20q41 49 41 207z" />
    <glyph glyph-name="p" unicode="p" horiz-adv-x="483" 
d="M456 240q0 -253 -171 -253q-72 0 -94 53q-2 6 -3 6q-2 0 -2 -4v-95q0 -83 3 -127q1 -20 22 -20q20 0 43 5q-2 -11 -2 -17t2 -15q-38 5 -109 5q-79 0 -126 -5q3 9 3 17t-3 15q30 -6 46 -6q20 0 21 19q4 132 4 321q0 153 -7 287q-2 29 -21 29q-14 0 -46 -4q2 10 2 15
q0 4 -2 16q11 -1 39 -1q54 0 134 7q-2 -22 -5 -60q0 -2 -1 -7.5t-1 -6.5q0 -3 2 -3q4 0 5 6.5t4 17.5q26 55 100 55q163 0 163 -250zM350 223q0 142 -25 193q-18 38 -62 38q-76 0 -76 -186v-30q-1 -20 -1 -30q0 -55 8 -107q13 -81 75 -81q42 0 58 31q23 43 23 172z" />
    <glyph glyph-name="q" unicode="q" horiz-adv-x="473" 
d="M466 -211q-37 4 -107 4q-74 0 -127 -4q2 10 2 16q0 7 -2 16q24 -6 42 -6q16 0 19 14l3 175q0 10 3.5 31.5t3.5 31.5q0 3 -4 3q-3 0 -6.5 -13t-5.5 -17q-29 -50 -95 -50q-165 0 -165 250q0 253 170 253q68 0 88 -42q8 -18 12 -18q7 0 9 18q1 5 2 46q31 -12 75 -12
q1 0 19 1q-6 -34 -6 -144q0 -341 5 -507q0 -13 3 -16t17 -3q21 0 45 4q-2 -11 -2 -17t2 -14zM297 239v33q0 189 -83 188q-42 0 -58 -31q-23 -43 -23 -172q0 -142 25 -193q18 -38 62 -38q77 0 77 213z" />
    <glyph glyph-name="r" unicode="r" horiz-adv-x="389" 
d="M377 397q0 -69 -46 -69q-18 0 -32 15t-14 39v62q0 15 -8 15q-25 0 -56 -52q-20 -34 -27 -88q-3 -24 -3 -119q0 -109 2 -155q1 -19 24 -19q21 0 45 5q-2 -11 -2 -16q0 -7 2 -16q-38 5 -110 5q-87 0 -125 -4q2 8 2 14q0 7 -2 17q25 -5 42 -5q20 0 21 19q4 85 4 191
q0 100 -4 196q-1 25 -25 25q-19 0 -49 -4q2 8 2 14q0 3 -2 16q24 -2 66 -2q52 0 114 6q-5 -74 -5 -76t-1 -5.5t-1 -5.5t3 -3q3 0 4 3.5t4 12.5q38 80 107 80q70 0 70 -96z" />
    <glyph glyph-name="s" unicode="s" horiz-adv-x="380" 
d="M353 155q0 -79 -45 -122t-121 -43q-53 0 -145 33q2 19 2 40q0 38 -7 110q4 -1 11 -1q6 0 14 3q4 -68 31 -110q33 -51 94 -51q46 0 67 18q25 21 25 74q0 50 -73 82q-96 42 -109 51q-53 37 -53 102q0 75 39.5 114.5t109.5 39.5q52 0 130 -28q-9 -42 -9 -81q0 -17 4 -42
q-5 1 -11 1t-10 -1q-20 127 -107 127q-32 0 -54 -15q-28 -20 -28 -60q0 -54 75 -86q20 -8 59 -23q54 -22 78 -47q33 -32 33 -85z" />
    <glyph glyph-name="t" unicode="t" horiz-adv-x="289" 
d="M283 87q-9 -54 -20 -68q-17 -24 -68 -24q-114 0 -114 122q0 56 2 164q3 114 3 164q0 10 -8 10q-29 0 -62 -3q2 10 2 16q0 4 -2 17q18 -3 56 -3q14 0 14 11q0 29 -3 62q46 19 97 55q3 -2 8 -3q-5 -85 -5 -110q0 -15 15 -15q47 0 74 2q-2 -12 -2 -16t2 -16q-40 3 -75 3
q-13 0 -13 -11q0 -1 -2 -99.5t-2 -110.5q0 -163 6 -180q10 -29 37 -29q19 0 25 22q4 13 4 48q12 -8 23 -8h8z" />
    <glyph glyph-name="u" unicode="u" horiz-adv-x="523" 
d="M507 30q-2 -8 -2 -14q0 -10 1 -16q-24 2 -65 2q-52 0 -114 -6q0 9 3 64q1 2 2 6q-1 4 -2 4q-2 0 -7 -9q-35 -69 -127 -69q-63 0 -90.5 39t-27.5 121q0 26 1 78v78q0 78 -3 134q-1 13 -10 13q-35 0 -50 -3q2 10 2 16q0 7 -2 15q46 -5 122 -5q-11 0 45 3q-5 -106 -5 -276
q0 -69 6 -121t51 -52q68 0 89 107q11 57 11 145q0 58 -5 151q-1 14 -3 17t-12 3q-39 0 -54 -3q2 11 2 16q0 7 -2 16q38 -5 109 -5q15 0 64 4q-5 -160 -5 -236q0 -104 4 -199q1 -22 17 -22q27 0 57 4z" />
    <glyph glyph-name="v" unicode="v" horiz-adv-x="481" 
d="M467 453q-26 7 -40 7q-19 0 -38 -52q-52 -141 -57 -158q-39 -111 -83 -259q-5 1 -8 1t-9 -1q-64 198 -157 450q-6 17 -20 17q-7 0 -39 -4q2 10 2 14q0 8 -1 15q50 -3 110 -3q59 0 129 3q-2 -11 -2 -15q0 -5 2 -14q-44 5 -50 5q-17 0 -17 -13q0 -15 21 -74q22 -63 59 -182
q1 -10 3 -25q2 -3 4 -3l7 26q28 75 72 230q3 15 3 20q0 21 -13 21q-18 0 -42 -5q2 8 2 14t-2 15q27 -2 86 -2q54 0 77 2q-1 -6 -1 -15q0 -6 2 -15z" />
    <glyph glyph-name="w" unicode="w" horiz-adv-x="703" 
d="M687 453q-22 6 -40 6q-13 0 -21 -13.5t-24 -60.5q-22 -65 -123 -394q-4 1 -8 1t-9 -1l-104 332q-3 8 -6 19l-5 20q-3 0 -3 -8t-103 -363q-5 1 -9 1t-8 -1l-113 351q-5 16 -40 102q-6 14 -15 14q-17 0 -40 -5q2 10 2 15q0 2 -2 15q64 -5 123 -5q51 0 99 5q-1 -7 -1 -14
t1 -15q-26 3 -37 3q-10 0 -10 -5q0 -2 1 -7q16 -75 68 -242q1 -9 5 -29q0 -3 3 -8q4 3 5 15q2 17 3 19l51 190q2 7 2 11q0 10 -7 23q-2 3 -9 20q-5 14 -18 14q1 0 -29 -4q2 10 2 14q0 8 -1 15q50 -3 100 -3q59 0 129 3q-2 -11 -2 -15q0 -5 2 -14q-45 5 -50 5q-18 0 -18 -11
q0 -25 70 -255l3 -18q2 -13 4 -13q3 0 4.5 7.5t4.5 21.5q25 82 57 196q10 50 10 61t-16 11q-18 0 -42 -5q2 8 2 14t-2 15q27 -2 86 -2q54 0 77 2q-1 -6 -1 -15q0 -6 2 -15z" />
    <glyph glyph-name="x" unicode="x" horiz-adv-x="479" 
d="M462 0q-54 3 -118 3q-65 0 -111 -3q2 9 2 14t-2 16q7 0 23 -1h20q13 0 13 7q0 17 -60 135q-3 7 -8 22q-1 3 -3 3q-2 -1 -3 -3q-10 -26 -42 -73.5t-43 -75.5q-2 -5 -2 -8q0 -6 10 -7q1 0 5 -1h6q7 0 21.5 1t21.5 1q-2 -12 -2 -16q0 -6 2 -14q-44 4 -92 4q-50 0 -84 -4
q2 9 2 14t-2 16q47 -1 36 -1q16 0 26 14q28 35 113 160q11 17 11 21q0 3 -8 18q-34 66 -107 196q-11 18 -27 18q-4 0 -20 -1.5t-23 -1.5q2 9 2 15t-2 15q74 -3 132 -3q61 0 115 3q-3 -12 -3 -16q0 -5 3 -14q-10 0 -30.5 1.5t-25.5 1.5q-13 0 -13 -7q0 -13 56 -125
q3 -6 6 -20q1 -3 3 -3q1 0 15 21q35 54 44 71q25 47 25 58q0 5 -9 5q10 0 -43 -3q3 9 3 15t-3 16q32 -4 75 -4q53 0 86 3q-3 -13 -3 -16q0 -5 3 -14q-8 0 -22.5 1t-17.5 1q-15 0 -26 -16q-21 -27 -99 -144q-9 -14 -9 -19q0 -4 5 -14l78 -152q6 -12 39 -65q10 -17 23 -17
q3 0 16.5 1t21.5 1q-2 -8 -2 -17q0 -7 2 -13z" />
    <glyph glyph-name="y" unicode="y" horiz-adv-x="472" 
d="M457 454q-25 5 -37 5t-19 -12t-20 -51q-20 -61 -124 -449q-8 -28 -15 -56q-10 -32 -22 -54q-31 -55 -85 -55q-79 0 -79 72q0 64 42 64q53 0 53 -87q0 -24 7 -24q4 0 15 8q22 16 43 83q3 10 25 94q2 8 2 12q0 5 -3 13l-118 320q-30 77 -49 111q-5 8 -15 8q-18 0 -42 -5
q2 9 2 16q0 4 -2 16q48 -5 131 -5q70 0 115 6q-2 -11 -2 -18q0 -4 3 -14q-34 5 -50 5q-15 0 -15 -9q0 -12 24 -89q13 -40 58 -171q2 -10 5 -29q0 -3 2 -7q2 1 4 10q17 65 48 195q13 63 13 91q0 12 -12 12q-11 0 -43 -6q3 10 3 15q0 2 -3 14q25 -2 90 -2q51 0 70 2
q-2 -9 -2 -14t2 -15z" />
    <glyph glyph-name="z" unicode="z" horiz-adv-x="408" 
d="M387 0q-89 3 -191 3q-86 0 -173 -3q-1 10 -6 14q20 29 31 48q36 63 212 390q2 4 2 5q0 2 -2 2q-5 -1 -4 -1q-99 0 -132 -21q-44 -28 -47 -123q-11 2 -17 2q-1 0 -11 -2q4 37 4 81q0 42 -4 88q71 -3 181 -3q88 0 150 3q1 -8 4 -15q-93 -164 -124 -222q-22 -43 -108 -210
q-3 -6 -3 -8t2 -2q-2 0 5 1q119 0 152 21q49 30 52 142q8 -2 13 -2t14 2q-4 -41 -4 -90q0 -48 4 -100z" />
    <glyph glyph-name="braceleft" unicode="{" horiz-adv-x="281" 
d="M252 -260q-109 8 -136 40.5t-27 155.5v115q0 106 -12 138q-11 29 -48 29q2 9 2 12q0 2 -2 12q37 0 47 24q12 28 12 128v117q0 132 26.5 166.5t137.5 43.5q-2 -5 -2 -12t2 -13q-48 0 -64 -27q-19 -32 -19 -130v-81q0 -103 -2 -122q-9 -86 -50 -98l-21 -4q-5 -1 -5 -4
t13 -5q19 -3 27 -10q27 -22 34 -68q5 -30 5 -124v-102q0 -103 18 -133q15 -24 64 -24q-2 -5 -2 -12q0 -6 2 -12z" />
    <glyph glyph-name="bar" unicode="|" horiz-adv-x="259" 
d="M161 -250q-10 1 -31 1q-19 0 -26 -1q6 186 6 457q0 270 -6 543q16 -2 30 -2q7 0 27 3q-7 -258 -7 -544q0 -279 7 -457z" />
    <glyph glyph-name="braceright" unicode="}" horiz-adv-x="281" 
d="M252 218q-37 0 -48 -29q-12 -32 -12 -138v-115q0 -123 -27 -155.5t-136 -40.5q2 6 2 12q0 7 -2 12q49 0 64 24q18 30 18 133v102q0 89 3 111q10 76 50 88q7 1 21 4q5 1 5 4t-11.5 4.5t-28.5 9.5q-26 21 -33 72q-5 33 -5 142v81q0 98 -19 130q-16 27 -64 27q2 6 2 13
q0 4 -3 12q111 -9 138 -43.5t27 -166.5v-117q0 -100 12 -128q10 -24 47 -24q-2 -10 -2 -12q0 -3 2 -12z" />
    <glyph glyph-name="asciitilde" unicode="~" horiz-adv-x="487" 
d="M441 301q-54 -77 -113 -77q-33 0 -91 33.5t-87 33.5q-25 0 -46 -23q-4 -4 -32 -43q-10 39 -31 58q45 80 108 80q37 0 97 -33.5t82 -33.5q37 0 84 65q8 -40 29 -60z" />
    <glyph glyph-name="nonbreakingspace" unicode="&#xa0;" 
 />
    <glyph glyph-name="exclamdown" unicode="&#xa1;" horiz-adv-x="228" 
d="M178 424q0 -28 -17 -49.5t-48 -21.5q-30 0 -46.5 21t-16.5 50q0 28 16.5 49t46.5 21q31 0 48 -21t17 -49zM175 -138q0 -39 -16.5 -65t-46.5 -26q-35 0 -51 39q-10 24 -10 50q0 37 21 161q24 143 27 273q7 -1 16 -1t15 1q2 -126 26 -273q19 -115 19 -159z" />
    <glyph glyph-name="cent" unicode="&#xa2;" horiz-adv-x="423" 
d="M403 158q-26 -86 -53 -118q-31 -40 -91 -47q-7 -1 -17 -4q-2 -3 -2 -9v-11q1 -8 1 -11q0 -20 1 -59q-15 3 -18 3q-1 0 -19 -3l2 60q0 3 1 11v11q0 9 -17 11q-171 19 -171 247q0 233 174 253q14 2 14 13v17q-1 24 -3 78q10 -3 18 -3t19 3q-1 -27 -2 -78q0 -4 -1 -11v-8
q0 -10 14 -11q65 -7 100.5 -44t35.5 -95q0 -53 -48 -53q-38 0 -42 42q-1 10 -1 17q0 49 -4 65q-9 36 -42 42q-6 1 -8 1q-5 0 -5 -4v-13l-1 -192q0 -42 1 -112q1 -80 1 -107v-8q0 -11 8 -11q1 0 10 1q46 5 72.5 38t39.5 109zM209 28q0 1 -1 5v6v410q0 3 1 8v5q0 5 -4 5
l-10 -3q-74 -21 -74 -221q0 -183 71 -215q9 -4 14 -4q3 0 3 4z" />
    <glyph glyph-name="sterling" unicode="&#xa3;" horiz-adv-x="511" 
d="M497 191q0 -112 -37.5 -161.5t-125.5 -49.5q-40 0 -70 18q-19 11 -54 45q-11 11 -16 11q-6 0 -12 -6q-54 -52 -105 -52q-30 0 -46 17.5t-16 40.5q0 56 59 56q17 0 40 -8q19 -8 38 -15q13 -4 22 -4q8 0 13 14q9 25 9 68q0 32 -10 74l-18 72q-3 10 -7 32q-1 13 -5 15.5
t-24 2.5q-9 0 -26 -2q-24 -2 -48 -3q4 10 4 17q0 11 -3 21q21 -1 42 -3q16 -2 25 -2q18 0 22 1.5t4 10.5l-3 21t-3 39q0 89 55 163q59 80 146 80q51 0 84 -26.5t33 -62.5q0 -24 -13.5 -38.5t-31.5 -14.5q-32 0 -47 38q-2 18 -8 53q-6 26 -39 26q-83 0 -83 -117q0 -29 9 -77
q11 -56 13 -77q1 -15 4.5 -18t21.5 -3q8 0 34 2q33 3 70 5q-5 -17 -5 -21q0 -5 5 -17q-93 4 -107 4t-14 -7q0 -9 4 -29.5t4 -31.5q0 -94 -60 -193q-9 -15 -9 -19t6 -6q21 -6 79 -6q102 0 138 27t36 96q0 1 -11 56q12 -4 19 -4t16 4q2 -38 2 -56z" />
    <glyph glyph-name="currency" unicode="&#xa4;" horiz-adv-x="487" 
d="M400 189q-18 -14 -33 -32q-6 8 -39 46q-3 3 -6 3q-1 0 -4 -2q-39 -28 -87 -28q-49 0 -88 28q-4 3 -5 3q-2 0 -6 -4q-15 -16 -39 -44q-20 25 -32 33q1 1 45 39q3 3 3 6q0 2 -1 3q-29 39 -29 88q0 48 27 86q3 4 3 6q0 4 -3 7q-12 12 -44 38q19 15 32 32q12 -15 37 -42
q5 -5 7 -5q-3 0 29 15t64 15q48 0 86 -27q4 -3 7 -3q1 0 6 5q24 26 37 43q16 -21 33 -34q-47 -37 -47 -44q0 -2 2 -4q28 -39 28 -87q0 -33 -15 -63.5t-15 -29.5q0 -7 47 -47zM347 329q0 51 -34 84t-82 33t-82 -33.5t-34 -83.5t34 -84t83 -34q48 0 81.5 33.5t33.5 84.5z" />
    <glyph glyph-name="yen" unicode="&#xa5;" horiz-adv-x="550" 
d="M527 657q-39 4 -36 4q-11 0 -23 -20t-36 -66q-8 -16 -61 -139q-1 -3 -6 -11q-2 -3 -5 -8q1 -3 3 -3q4 0 11.5 1.5t11.5 1.5q30 1 89 4q-3 -15 -3 -21q0 -7 3 -18q-33 4 -111 4q-17 0 -22 -17q-3 -9 -3 -49q0 -18 2 -25t12 -7q41 0 122 5q-3 -14 -3 -19q0 -7 3 -20
q-71 6 -121 6q-15 0 -15 -16v-8q1 -96 6 -186q1 -23 22 -23q5 0 19.5 2t23.5 2q-2 -9 -2 -17q0 -3 3 -14q-56 4 -117 4q-59 0 -133 -4q3 14 3 16q0 4 -3 15q8 0 21.5 -2t19.5 -2q22 0 23 20q3 77 3 162v21q0 31 -17 31v0q-64 0 -135 -6q2 11 2 19t-2 19q73 -5 139 -5v0
q12 0 12 14v46q0 27 -3 32.5t-21 5.5q-94 0 -128 -4q3 13 3 19q0 8 -2 20l107 -4q4 -1 14 -2h5q2 0 2 4q0 1 -6 9t-7 10q-20 40 -71 136q-8 16 -42 73q-8 13 -22 13q-4 0 -14.5 -1.5l-17.5 -2.5q2 8 2 15t-2 16q70 -3 126 -3q58 0 119 3q-2 -13 -2 -17q0 -5 2 -13
q-46 2 -37 2q-15 0 -15 -8q0 -16 27 -77q28 -51 74 -155q3 -10 7 -10q3 0 9 13q30 67 40 93q22 57 42 127q1 4 1 8q0 10 -15 10q-5 0 -16.5 -1.5t-18.5 -1.5q3 13 3 14t-3 16q32 -3 73 -3q40 0 87 3q-2 -13 -2 -17t2 -13z" />
    <glyph glyph-name="brokenbar" unicode="&#xa6;" horiz-adv-x="175" 
d="M116 320q-18 6 -28 6t-29 -6q6 89 6 193q0 93 -7 163q18 -4 29 -4q8 0 29 4q-4 -71 -4 -173q0 -107 4 -183zM116 -176q-21 4 -29 4q-11 0 -29 -4q7 70 7 163q0 104 -6 193q19 -6 29 -6t28 6q-4 -76 -4 -183q0 -102 4 -173z" />
    <glyph glyph-name="section" unicode="&#xa7;" horiz-adv-x="405" 
d="M386 70q0 -284 -208 -284q-68 0 -113.5 41.5t-45.5 103.5q0 28 14 44.5t33 16.5q45 0 45 -71q0 -9 -1 -24.5t-1 -20.5q0 -36 17 -50t57 -14q56 0 90 33.5t34 92.5q0 75 -97 164l-52 47q-59 54 -88 104q-49 84 -49 196q0 115 45 186q52 82 154 82q73 0 115 -49
q32 -38 32 -81q0 -54 -46 -54q-44 0 -44 47q0 11 2.5 33t2.5 32q0 49 -63 49q-51 0 -80 -29.5t-29 -76.5q0 -48 37 -98q22 -29 74 -78q29 -27 80 -80q85 -103 85 -262zM356 29q0 95 -39 161q-26 44 -136 146q-102 95 -102 195q0 40 2 55q1 6 -2 6q-13 0 -20 -48
q-5 -33 -5 -64q0 -80 43 -144q31 -47 124 -132q57 -52 79 -89q35 -56 35 -132q0 -7 -1 -21t-1 -21q0 -5 0 -4q0 -2 2 -2q11 0 17 41q4 28 4 53z" />
    <glyph glyph-name="dieresis" unicode="&#xa8;" 
d="M237 621q0 -21 -13 -36.5t-37 -15.5t-37 15.5t-13 36.5t13 37t37 16t37 -16t13 -37zM75 621q0 -21 -13 -36.5t-37 -15.5t-37 15.5t-13 36.5t13 37t37 16t37 -16t13 -37z" />
    <glyph glyph-name="copyright" unicode="&#xa9;" horiz-adv-x="752" 
d="M735 352q-1 -149 -104.5 -252t-255.5 -103q-144 0 -249 99q-109 103 -109 257q0 152 107 255q104 101 252 101q154 0 257 -105t102 -252zM707 352q1 136 -94 232.5t-235 96.5t-236.5 -96t-96.5 -232q0 -137 97 -232.5t234 -95.5q139 0 234.5 95t96.5 232zM561 133
q-27 -3 -82 -22q-49 -17 -91 -17q-115 0 -178 78q-59 72 -59 190q0 111 63 177t173 66q25 0 58 -9q28 -9 56 -17q17 -5 42 -7q-2 -20 -2 -45q0 -55 11 -106q-13 -1 -26 -8q-19 88 -49.5 125t-90.5 37q-127 0 -127 -206q0 -139 34 -196q31 -51 98 -51q118 0 138 163
q11 -5 26 -5q-4 -25 -4 -53q0 -45 10 -94z" />
    <glyph glyph-name="ordfeminine" unicode="&#xaa;" horiz-adv-x="281" 
d="M275 392q-43 -3 -57 -3q-48 0 -48 37q0 2 -3 3q-6 -20 -35 -33q-24 -10 -48 -10q-38 0 -58 26q-19 23 -19 60q0 74 100 98q29 7 49 17q9 5 9 15v15q0 38 -5 51q-9 23 -39 23q-28 0 -28 -16v-35q0 -38 -32 -38q-34 0 -34 33q0 32 29.5 54.5t82.5 22.5q54 0 73 -21.5
t19 -80.5v-136v-45q1 -13 11 -13q7 0 33 6q-4 -15 -4 -17q0 -3 4 -13zM165 526v32q0 8 -5 8q-1 0 -7 -2q-38 -14 -45 -17q-29 -15 -29 -67q0 -26 3 -38q7 -27 27 -27q18 0 33 17q23 26 23 94z" />
    <glyph glyph-name="guillemotleft" unicode="&#xab;" horiz-adv-x="383" 
d="M358 122q-13 -6 -24 -23q-29 47 -147 156q1 5 1 11t-1 11q116 107 147 157q12 -18 24 -24q-41 -38 -57 -65q-21 -35 -21 -78q0 -44 21 -79q16 -28 57 -66zM198 122q-13 -6 -24 -23q-29 47 -147 156q1 5 1 11t-1 11q116 107 147 157q12 -18 24 -24q-41 -38 -57 -65
q-21 -35 -21 -78q0 -44 21 -79q16 -28 57 -66z" />
    <glyph glyph-name="logicalnot" unicode="&#xac;" horiz-adv-x="607" 
d="M590 -1q-18 6 -28 6q-11 0 -29 -6q5 64 5 160q0 54 -2 94q-1 15 -15 15q-95 3 -239 3q-155 0 -266 -6q5 15 5 25q0 7 -5 31q168 -4 311 -4q148 0 263 4q-6 -74 -6 -162q0 -93 6 -160z" />
    <glyph glyph-name="minus" unicode="&#xad;" horiz-adv-x="547" 
d="M518 266q-105 5 -227 5q-117 0 -262 -5q3 11 3 25q0 12 -3 26q143 -5 262 -5q123 0 227 5q-3 -11 -3 -24q0 -12 3 -27z" />
    <glyph glyph-name="minus" unicode="&#x2212;" horiz-adv-x="547" 
d="M518 266q-105 5 -227 5q-117 0 -262 -5q3 11 3 25q0 12 -3 26q143 -5 262 -5q123 0 227 5q-3 -11 -3 -24q0 -12 3 -27z" />
    <glyph glyph-name="registered" unicode="&#xae;" horiz-adv-x="242" 
d="M248 598q0 -53 -36.5 -89.5t-89.5 -36.5q-51 0 -89 36t-38 90t37.5 90.5t89.5 36.5q54 0 90 -37t36 -90zM225 598q0 43 -29.5 73t-72.5 30q-44 0 -74 -30t-30 -73t30 -73t73 -30t73 30t30 73zM199 561q-7 -37 -28 -37q-22 0 -32 40q-5 22 -7 24q-4 7 -17 7
q-11 0 -11.5 -7t-0.5 -18q0 -22 3 -27t16 -7q-2 -4 -2 -8q0 -1 1 -3q-6 0 -15.5 1t-14.5 1t-13 -1t-14 -1q0 8 -2 10q11 2 14 5.5t3 17.5q2 18 2 36q0 -6 -2 50q-1 15 -17 16q3 3 3 9v2q-1 0 -1 1q11 0 19 -1t9 -1q2 0 18.5 1t19.5 1q51 0 51 -35q0 -27 -26 -34l-6.5 -1
t-6.5 -2q0 -2 5.5 -3t6.5 -2q10 -9 14 -30.5t9 -21.5q8 0 12 20q2 -2 7 -2h3zM152 637q0 23 -26 23q-15 0 -18.5 -3.5t-3.5 -18.5v-21q0 -8 11 -8q37 0 37 28z" />
    <glyph glyph-name="macron" unicode="&#xaf;" 
d="M242 595q-49 4 -129 4q-81 0 -144 -4q3 13 3 19q0 5 -3 20q65 -3 143 -3t130 3q-5 -14 -5 -20q0 -7 5 -19z" />
    <glyph glyph-name="macron" unicode="&#x2c9;" 
d="M242 595q-49 4 -129 4q-81 0 -144 -4q3 13 3 19q0 5 -3 20q65 -3 143 -3t130 3q-5 -14 -5 -20q0 -7 5 -19z" />
    <glyph glyph-name="degree" unicode="&#xb0;" horiz-adv-x="281" 
d="M269 601q0 -52 -33 -89q-36 -41 -97 -41q-60 0 -96 41q-31 36 -31 89t32 89q36 41 96 41q61 0 97 -41q32 -36 32 -89zM217 601q0 34 -20 58t-56 24t-56.5 -24t-20.5 -58t20.5 -58t56.5 -24t56 24t20 58z" />
    <glyph glyph-name="plusminus" unicode="&#xb1;" horiz-adv-x="547" 
d="M526 383l-214 6q-10 0 -14 -3.5t-4 -13.5v-3l7 -220q-17 5 -27 5q-11 0 -29 -5l6 226q0 14 -17 14h-3l-211 -8q4 15 4 27q0 15 -3 30l213 -7q10 0 14 4t4 15v3l-6 218q17 -4 29 -4q13 0 27 3l-8 -222q0 -9 4 -13t14 -4h3l211 7q-3 -18 -3 -28q0 -12 3 -27zM518 0
q-95 5 -227 5q-131 0 -262 -5q3 12 3 28q0 13 -3 28q129 -5 262 -5t227 5q-3 -12 -3 -27q0 -13 3 -29z" />
    <glyph glyph-name="twosuperior" unicode="&#xb2;" horiz-adv-x="281" 
d="M281 376q-33 -69 -45 -130q-57 5 -122 5t-111 -5q1 3 1 8t-3 14q1 1 95 97q52 53 69 86q22 43 22 110q0 93 -63 93q-75 0 -75 -97q0 -77 60 -106q-12 -12 -17 -31l-18 15q-53 43 -53 119q0 61 29 97q34 42 102 42q56 0 88.5 -33.5t32.5 -90.5q0 -59 -36 -106
q-16 -21 -78 -79q-21 -18 -60 -56q-5 -5 -5 -7q0 -1 2 -1q-3 0 7 1h44q59 0 76 10.5t31 56.5q12 -9 27 -12z" />
    <glyph glyph-name="threesuperior" unicode="&#xb3;" horiz-adv-x="281" 
d="M262 398q0 -87 -31.5 -123.5t-98.5 -36.5q-60 0 -88 32q-20 23 -33 77q15 1 31 13q6 -49 25 -70t59 -21q54 0 54 127q0 68 -9 90.5t-34 22.5q-39 0 -77 -63q-11 17 -24 26q69 64 125 134q9 11 9 13t-1 3l-17 -3q-2 0 -23.5 1t-33.5 1q-23 0 -28 -1.5t-8 -10.5
q-12 -33 -15 -61q-15 12 -29 15q23 52 43 125q41 -4 95 -4q56 0 99 4q0 -3 -1 -6q0 -7 3 -15q-117 -118 -117 -127q0 -2 2 -2t11 3q6 2 12 2q100 0 100 -145z" />
    <glyph glyph-name="acute" unicode="&#xb4;" 
d="M182 689q0 -19 -28 -44q-61 -54 -95 -120q-5 1 -13 1q-4 0 -18 -2q34 97 45 145q5 25 19 32q10 5 40 5q50 0 50 -17z" />
    <glyph glyph-name="mu" unicode="&#xb5;" horiz-adv-x="511" 
d="M495 28q-2 -8 -2 -13q0 -11 1 -17q-24 2 -55 2q-52 0 -114 -6q2 22 2 67v4q0 2 -1 2t-5 -7q-17 -34 -45 -47t-82 -13q-4 0 -9.5 2t-6.5 2q-4 0 -4 -5q0 -6 1 -31.5t1 -37.5q0 -37 1.5 -65.5t1.5 -44.5q0 -28 -7 -35t-37 -7q-38 0 -48.5 8t-10.5 32q0 31 1.5 94.5
t1.5 94.5q0 50 -1 150.5t-1 150.5q0 78 -3 134q-1 13 -10 13q-20 0 -40 -4q2 10 2 17t-2 15q46 -5 112 -5q-11 0 45 3q-5 -107 -5 -277q0 -60 6 -112t51 -52q70 0 89 98q11 57 11 145q0 59 -5 152q-1 14 -3 17t-12 3q-24 0 -44 -4q2 11 2 17q0 7 -2 16q38 -5 99 -5
q15 0 64 4q-5 -160 -5 -237q0 -105 4 -200q1 -15 5 -18t12 -3q24 0 47 3z" />
    <glyph glyph-name="mu" unicode="&#x3bc;" horiz-adv-x="511" 
d="M495 28q-2 -8 -2 -13q0 -11 1 -17q-24 2 -55 2q-52 0 -114 -6q2 22 2 67v4q0 2 -1 2t-5 -7q-17 -34 -45 -47t-82 -13q-4 0 -9.5 2t-6.5 2q-4 0 -4 -5q0 -6 1 -31.5t1 -37.5q0 -37 1.5 -65.5t1.5 -44.5q0 -28 -7 -35t-37 -7q-38 0 -48.5 8t-10.5 32q0 31 1.5 94.5
t1.5 94.5q0 50 -1 150.5t-1 150.5q0 78 -3 134q-1 13 -10 13q-20 0 -40 -4q2 10 2 17t-2 15q46 -5 112 -5q-11 0 45 3q-5 -107 -5 -277q0 -60 6 -112t51 -52q70 0 89 98q11 57 11 145q0 59 -5 152q-1 14 -3 17t-12 3q-24 0 -44 -4q2 11 2 17q0 7 -2 16q38 -5 99 -5
q15 0 64 4q-5 -160 -5 -237q0 -105 4 -200q1 -15 5 -18t12 -3q24 0 47 3z" />
    <glyph glyph-name="paragraph" unicode="&#xb6;" horiz-adv-x="547" 
d="M495 673q-45 4 -40 4q-22 0 -22 -18q-2 -88 -2 -215q0 -391 5 -612q-14 4 -22 4q-5 0 -24 -4q6 196 6 440v113q0 167 -3 271q0 17 -24 20q1 0 -39 0h-42q-25 -4 -26 -25q-4 -162 -4 -406q0 -251 5 -413q-14 4 -21 4q-5 0 -24 -4l5 430q0 42 -5 57q-3 10 -14 13
q-131 32 -131 178q0 196 200 196q4 0 38.5 -2.5t60.5 -2.5q73 0 123 5q-3 -6 -3 -14q0 -10 3 -19z" />
    <glyph glyph-name="periodcentered" unicode="&#xb7;" horiz-adv-x="193" 
d="M157 264q0 -24 -18 -41t-43 -17t-43 17t-18 41t18 41t43 17t43 -17t18 -41z" />
    <glyph glyph-name="periodcentered" unicode="&#x2219;" horiz-adv-x="193" 
d="M157 264q0 -24 -18 -41t-43 -17t-43 17t-18 41t18 41t43 17t43 -17t18 -41z" />
    <glyph glyph-name="cedilla" unicode="&#xb8;" 
d="M191 -105q0 -82 -92 -82q-28 0 -80 37q11 8 16 23q28 -32 54 -32q25 0 32 7q10 11 10 50q0 36 -11 48q-8 8 -28 8q-11 0 -19 -1q3 27 3 47h21l1 -24q93 0 93 -81z" />
    <glyph glyph-name="onesuperior" unicode="&#xb9;" horiz-adv-x="281" 
d="M237 246q-40 4 -94 4q-53 0 -103 -4q3 11 3 14q0 1 -3 16l38 -2q14 0 17.5 3t3.5 15q1 70 1 109v86q-1 51 -1 62q0 16 2 31.5l2 15.5q-1 0 -5 -5q-17 -22 -60 -58q-5 15 -17 26q92 68 125 144q10 -2 15 -2q4 0 16 3q-2 -80 -2 -254q0 -97 2 -156q0 -13 4 -16.5t18 -3.5
q-3 0 38 2q-2 -11 -2 -16t2 -14z" />
    <glyph glyph-name="ordmasculine" unicode="&#xba;" horiz-adv-x="281" 
d="M270 547q0 -163 -130 -163q-129 0 -129 161q0 167 133 167q126 0 126 -165zM197 546q0 94 -13 123q-10 22 -41 22q-37 0 -47 -20q-11 -25 -11 -127q0 -85 13 -114q11 -24 43 -24q31 0 42 23q14 30 14 117z" />
    <glyph glyph-name="guillemotright" unicode="&#xbb;" horiz-adv-x="383" 
d="M356 255q-34 -31 -66 -63q-63 -63 -81 -93q-11 17 -24 23q40 38 57 66q20 35 20 79t-20 78q-17 27 -57 65q12 6 24 24q31 -50 147 -157q-2 -9 -2 -11t2 -11zM196 255q-34 -31 -66 -63q-63 -63 -81 -93q-11 17 -24 23q40 38 57 66q20 35 20 79t-20 78q-17 27 -57 65
q12 6 24 24q31 -50 147 -157q-2 -9 -2 -11t2 -11z" />
    <glyph glyph-name="onequarter" unicode="&#xbc;" horiz-adv-x="688" 
d="M663 138l-44 2h-10t-10 -7v-6q1 -4 1 -6l2 -73q1 -20 23 -20q-3 0 37 2q-2 -11 -2 -16t2 -14q-40 4 -93 4q-55 0 -104 -4q2 8 2 14t-2 16q9 -1 24 -2q11 -1 16 -1q18 0 19 20q2 71 2 78q0 15 -30 15q-38 0 -99 -1q-2 10 -11 31q87 123 174 286q15 -3 18 -3q2 0 23 3
q-1 -129 -2 -133v-132q0 -18 12 -18h7l45 3q-1 -9 -1 -20t1 -18zM506 707q-144 -319 -300 -708q-16 5 -21 5q-6 0 -23 -7q157 346 300 710q12 -4 19 -4q9 0 25 4zM237 244q-40 4 -93 4q-55 0 -104 -4q3 11 3 14q0 1 -3 16q37 -2 38 -2q14 0 17.5 3.5t3.5 15.5q1 71 1 108v87
q-1 52 -1 63q0 17 2 31.5l2 14.5q-1 0 -5 -5q-17 -21 -60 -58q-6 17 -17 27q93 68 125 144q10 -2 15 -2q4 0 16 3q-2 -80 -2 -255q0 -97 2 -157q0 -13 4 -16.5t18 -3.5q-3 0 38 2q-2 -11 -2 -16t2 -14zM529 333q-1 3 -2 3q-2 0 -6 -10l-5 -13q-27 -46 -80 -126q-6 -8 -6 -11
q0 -2 3 -2h42q27 -1 41 -1q11 0 11 10q0 18 -1 53.5t-1 53.5q0 23 4 43z" />
    <glyph glyph-name="onehalf" unicode="&#xbd;" horiz-adv-x="688" 
d="M666 130q-34 -70 -45 -130q-57 5 -122 5t-111 -5q1 3 1 8q0 6 -3 15q35 35 95 97q52 54 69 86q22 43 22 110q0 94 -63 94q-75 0 -75 -97q0 -78 60 -107q-12 -12 -17 -31l-18 15q-53 44 -53 119q0 61 29 97q34 43 102 43q52 0 81 -26q40 -36 40 -99q0 -59 -36 -106
q-15 -20 -78 -79q-19 -16 -58 -55q-3 -3 -3 -6t5 -3h44q58 0 75.5 11t31.5 57q13 -10 27 -13zM506 707q-144 -319 -300 -708q-16 5 -21 5q-6 0 -23 -7q157 346 300 710q12 -4 19 -4q9 0 25 4zM237 244q-40 4 -94 4t-103 -4q3 11 3 14q0 1 -3 16q37 -2 38 -2q14 0 17.5 3.5
t3.5 15.5q1 70 1 108v87q-1 52 -1 63q0 17 2 31.5l2 14.5q-2 -1 -5 -5q-17 -21 -60 -58q-6 17 -17 27q93 68 125 144q10 -2 15 -2q4 0 16 3q-2 -80 -2 -255q0 -97 2 -157q0 -13 4 -16.5t18 -3.5q-3 0 38 2q-2 -11 -2 -16t2 -14z" />
    <glyph glyph-name="threequarters" unicode="&#xbe;" horiz-adv-x="688" 
d="M663 138l-44 2h-10t-10 -7v-6q1 -4 1 -6l2 -73q1 -20 23 -20q-3 0 37 2q-2 -11 -2 -16t2 -14q-40 4 -93 4q-55 0 -104 -4q2 8 2 14t-2 16q9 -1 24 -2q11 -1 16 -1q18 0 19 20q2 71 2 78q0 15 -30 15q-38 0 -99 -1q-2 10 -11 31q87 123 174 286q15 -3 18 -3q2 0 23 3
q-1 -129 -2 -133v-132q0 -18 12 -18h7l45 3q-1 -9 -1 -20t1 -18zM506 707q-144 -319 -300 -708q-16 5 -21 5q-6 0 -23 -7q157 346 300 710q12 -4 19 -4q9 0 25 4zM262 398q0 -87 -31.5 -123.5t-98.5 -36.5q-60 0 -88 32q-20 23 -33 77q15 1 31 13q6 -49 25 -70t59 -21
q54 0 54 127q0 68 -9 90.5t-34 22.5q-39 0 -77 -63q-11 17 -24 26q69 64 125 134q9 11 9 13t-1 3l-17 -3q-2 0 -23.5 1t-33.5 1q-23 0 -28 -1.5t-8 -10.5q-12 -33 -15 -61q-15 12 -29 15q23 52 43 125q41 -4 95 -4q56 0 99 4q0 -3 -1 -6q0 -7 3 -15q-117 -118 -117 -127
q0 -2 2 -2t11 3q6 2 12 2q100 0 100 -145zM529 333q-1 3 -2 3q-2 0 -6 -10l-5 -13q-27 -46 -80 -126q-6 -8 -6 -11q0 -2 3 -2h42q27 -1 41 -1q11 0 11 10q0 18 -1 53.5t-1 53.5q0 23 4 43z" />
    <glyph glyph-name="questiondown" unicode="&#xbf;" horiz-adv-x="351" 
d="M286 424q0 -29 -17 -50t-47 -21t-47 21.5t-17 49.5t17 49t47 21q31 0 47.5 -21t16.5 -49zM322 -99q0 -48 -35 -86q-41 -44 -103 -44q-82 0 -122 63q-32 49 -32 120q0 75 26.5 119.5t92 78.5t65.5 83q0 8 -6 69q17 0 31 5q9 -41 9 -69q0 -72 -49.5 -104.5t-61.5 -77.5
q-8 -30 -8 -100q0 -56 6 -91q13 -73 61 -73q53 0 53 35q0 3 -13.5 30t-13.5 55q0 25 13.5 40.5t34.5 15.5q22 0 37 -18.5t15 -50.5z" />
    <glyph glyph-name="Agrave" unicode="&#xc0;" horiz-adv-x="610" 
d="M318 750q-19 2 -18 2q-6 0 -12 -1q-33 49 -96 90q-27 18 -27 33q0 13 49 13q28 0 37 -3q16 -5 22 -25q11 -37 45 -109zM592 0q-67 4 -146 4t-129 -4q3 11 3 14q0 4 -2 16q51 -4 54 -4q20 0 20 11q0 4 -2 12q-15 61 -50 183q-4 13 -17 13q-28 1 -61 1q-25 0 -61 -1
q-20 -1 -24 -13q-17 -57 -44 -170q-2 -12 -2 -16q0 -20 19 -20q6 0 25.5 2t25.5 2q-2 -6 -2 -15t2 -15q-43 4 -97 4q-55 0 -87 -4q2 7 2 15q0 7 -2 15q35 -3 37 -3q25 0 66 122.5t170 569.5q4 -1 12 -1q9 0 12 1q47 -191 201 -671q7 -22 28 -22q5 0 23 2t26 2q-2 -9 -2 -15
q0 -2 2 -15zM326 278q0 1 -2 8q-19 61 -56 183q-8 29 -8 52q0 3 -2 3q-1 0 -4 -13q-8 -37 -61 -222q-1 -3 -1 -7q0 -8 13 -8q38 -1 54 -1q20 0 55 1q12 0 12 4z" />
    <glyph glyph-name="Aacute" unicode="&#xc1;" horiz-adv-x="610" 
d="M421 881q0 -15 -28 -34q-61 -40 -95 -90l-13 2q1 0 -18 -2q35 74 45 108q6 20 22 25q9 3 37 3q50 0 50 -12zM592 0q-67 4 -146 4t-129 -4q3 11 3 14q0 4 -2 16q51 -4 54 -4q20 0 20 11q0 4 -2 12q-15 61 -50 183q-4 13 -17 13q-28 1 -61 1q-25 0 -61 -1q-20 -1 -24 -13
q-17 -57 -44 -170q-2 -12 -2 -16q0 -20 19 -20q6 0 25.5 2t25.5 2q-2 -6 -2 -15t2 -15q-43 4 -97 4q-55 0 -87 -4q2 7 2 15q0 7 -2 15q35 -3 37 -3q25 0 66 122.5t170 569.5q4 -1 12 -1q9 0 12 1q47 -191 201 -671q7 -22 28 -22q5 0 23 2t26 2q-2 -9 -2 -15q0 -2 2 -15z
M326 278q0 1 -2 8q-19 61 -56 183q-8 29 -8 52q0 3 -2 3q-1 0 -4 -13q-8 -37 -61 -222q-1 -3 -1 -7q0 -8 13 -8q38 -1 54 -1q20 0 55 1q12 0 12 4z" />
    <glyph glyph-name="Acircumflex" unicode="&#xc2;" horiz-adv-x="610" 
d="M402 755q-19 2 -39 2q-24 0 -35 -1q-12 25 -38 65l-9 13l-6 -8q-21 -27 -42 -70q-6 1 -14 1q-5 0 -18 -2q54 71 89 139q5 -2 8 -2q2 0 10 2q36 -67 94 -139zM592 0q-67 4 -146 4t-129 -4q3 11 3 14q0 4 -2 16q51 -4 54 -4q20 0 20 11q0 4 -2 12q-15 61 -50 183
q-4 13 -17 13q-28 1 -61 1q-25 0 -61 -1q-20 -1 -24 -13q-17 -57 -44 -170q-2 -12 -2 -16q0 -20 19 -20q6 0 25.5 2t25.5 2q-2 -6 -2 -15t2 -15q-43 4 -97 4q-55 0 -87 -4q2 7 2 15q0 7 -2 15q35 -3 37 -3q25 0 66 122.5t170 569.5q4 -1 12 -1q9 0 12 1q47 -191 201 -671
q7 -22 28 -22q5 0 23 2t26 2q-2 -9 -2 -15q0 -2 2 -15zM326 278q0 1 -2 8q-19 61 -56 183q-8 29 -8 52q0 3 -2 3q-1 0 -4 -13q-8 -37 -61 -222q-1 -3 -1 -7q0 -8 13 -8q38 -1 54 -1q20 0 55 1q12 0 12 4z" />
    <glyph glyph-name="Atilde" unicode="&#xc3;" horiz-adv-x="610" 
d="M441 873q-21 -56 -36 -77q-19 -25 -46 -25q-22 0 -61.5 20.5t-59.5 20.5q-27 0 -45 -43q-5 4 -18 10q19 53 32 72q19 29 47 29q21 0 61.5 -22t56.5 -22q26 0 51 48q7 -8 18 -11zM592 0q-67 4 -146 4t-129 -4q3 11 3 14q0 4 -2 16q51 -4 54 -4q20 0 20 11q0 4 -2 12
q-15 61 -50 183q-4 13 -17 13q-28 1 -61 1q-25 0 -61 -1q-20 -1 -24 -13q-17 -57 -44 -170q-2 -12 -2 -16q0 -20 19 -20q6 0 25.5 2t25.5 2q-2 -6 -2 -15t2 -15q-43 4 -97 4q-55 0 -87 -4q2 7 2 15q0 7 -2 15q35 -3 37 -3q25 0 66 122.5t170 569.5q4 -1 12 -1q9 0 12 1
q47 -191 201 -671q7 -22 28 -22q5 0 23 2t26 2q-2 -9 -2 -15q0 -2 2 -15zM326 278q0 1 -2 8q-19 61 -56 183q-8 29 -8 52q0 3 -2 3q-1 0 -4 -13q-8 -37 -61 -222q-1 -3 -1 -7q0 -8 13 -8q38 -1 54 -1q20 0 55 1q12 0 12 4z" />
    <glyph glyph-name="Adieresis" unicode="&#xc4;" horiz-adv-x="610" 
d="M418 828q0 -22 -12 -36q-14 -17 -37 -17q-24 0 -37 16t-13 37t13 36.5t37 15.5q49 0 49 -52zM256 828q0 -22 -12 -36q-14 -17 -37 -17q-24 0 -37 16t-13 37t13 36.5t37 15.5q49 0 49 -52zM592 0q-67 4 -146 4t-129 -4q3 11 3 14q0 4 -2 16q51 -4 54 -4q20 0 20 11
q0 4 -2 12q-15 61 -50 183q-4 13 -17 13q-28 1 -61 1q-25 0 -61 -1q-20 -1 -24 -13q-17 -57 -44 -170q-2 -12 -2 -16q0 -20 19 -20q6 0 25.5 2t25.5 2q-2 -6 -2 -15t2 -15q-43 4 -97 4q-55 0 -87 -4q2 7 2 15q0 7 -2 15q35 -3 37 -3q25 0 66 122.5t170 569.5q4 -1 12 -1
q9 0 12 1q47 -191 201 -671q7 -22 28 -22q5 0 23 2t26 2q-2 -9 -2 -15q0 -2 2 -15zM326 278q0 1 -2 8q-19 61 -56 183q-8 29 -8 52q0 3 -2 3q-1 0 -4 -13q-8 -37 -61 -222q-1 -3 -1 -7q0 -8 13 -8q38 -1 54 -1q20 0 55 1q12 0 12 4z" />
    <glyph glyph-name="Aring" unicode="&#xc5;" horiz-adv-x="610" 
d="M386 836q0 -35 -23 -61t-65 -26q-41 0 -64 26t-23 61t23 61t64 26q42 0 65 -26t23 -61zM592 0q-67 4 -146 4t-129 -4q3 11 3 14q0 4 -2 16q51 -4 54 -4q20 0 20 11q0 4 -2 12q-15 61 -50 183q-4 13 -17 13q-28 1 -61 1q-25 0 -61 -1q-20 -1 -24 -13q-17 -57 -44 -170
q-2 -12 -2 -16q0 -20 19 -20q6 0 25.5 2t25.5 2q-2 -6 -2 -15t2 -15q-43 4 -97 4q-55 0 -87 -4q2 7 2 15q0 7 -2 15q35 -3 37 -3q25 0 66 122.5t170 569.5q4 -1 12 -1q9 0 12 1q47 -191 201 -671q7 -22 28 -22q5 0 23 2t26 2q-2 -9 -2 -15q0 -2 2 -15zM349 836q0 22 -13 38
t-37 16t-37.5 -16t-13.5 -38t13.5 -38t37.5 -16q23 0 36.5 16t13.5 38zM326 278q0 1 -2 8q-19 61 -56 183q-8 29 -8 52q0 3 -2 3q-1 0 -4 -13q-8 -37 -61 -222q-1 -3 -1 -7q0 -8 13 -8q38 -1 54 -1q20 0 55 1q12 0 12 4z" />
    <glyph glyph-name="AE" unicode="&#xc6;" horiz-adv-x="887" 
d="M841 247q-10 -95 -10 -180q0 -35 3 -67q-106 4 -241 4q-124 0 -267 -4q3 10 3 15t-3 16q11 -1 25.5 -2.5t19.5 -1.5q19 0 20 22q4 92 4 277q0 12 -4.5 16t-15.5 4h-48q-9 0 -45 -1q-30 -1 -52 -40q-55 -98 -99 -216q-11 -29 -11 -43q0 -20 20 -20q6 0 20 2t21 2
q-2 -11 -2 -16t2 -14q-43 4 -87 4q-45 0 -77 -4q2 8 2 14q0 7 -2 16q35 -3 27 -3q13 0 19 13q85 164 246 496q54 117 54 170q41 -4 134 -4q56 0 155 2q105 2 155 2q-5 -35 -5 -76q0 -78 11 -149q-16 2 -12 2q-2 0 -13 -4q-3 26 -10 71q-15 61 -49 89q-38 31 -114 34
q-9 0 -34 2q-20 1 -33 1q-26 0 -32 -4.5t-7 -23.5q-8 -135 -8 -245q0 -21 3.5 -25.5t18.5 -4.5q57 0 82 13q33 17 39 68q4 31 4 73q7 -1 15 -1t14 1q-8 -99 -8 -181q0 -83 8 -159q-5 1 -14 1q-8 0 -15 -1q0 55 -2 79q-4 51 -40 69q-25 13 -83 13q-16 0 -19 -4.5t-3 -24.5
q0 -5 1 -60q2 -105 7 -198q1 -21 12 -25.5t67 -4.5q105 0 144 22q54 30 75 133q6 30 7 60q10 -2 11 -2q3 0 16 3zM400 654q0 3 -3 4q-3 0 -5 -5q-5 -14 -16 -40q-92 -189 -102 -224q-1 -3 -1 -8q0 -7 13 -7l38 -1h55q16 0 16 17v71q0 54 -1 87q-2 46 -2 68q1 14 4.5 24.5
t3.5 13.5z" />
    <glyph glyph-name="Ccedilla" unicode="&#xc7;" horiz-adv-x="600" 
d="M554 58q-59 -37 -95 -51q-50 -20 -107 -20h-7q-4 0 -6 -5l3 -6q88 0 88 -81q0 -82 -97 -82q-28 0 -80 37q11 8 16 23q28 -32 54 -32q42 0 42 57q0 33 -2 39q-5 17 -27 17q-11 0 -19 -1q2 20 2 25q0 10 -9 11q-120 15 -186.5 110t-66.5 251q0 175 85 272q82 94 220 94
q53 0 100 -15q32 -11 92 -41q-9 -49 -9 -116q0 -36 4 -73q-9 1 -14 1t-13 -1q-11 220 -156 220q-116 0 -158 -117q-26 -72 -26 -216q0 -147 23 -220q40 -125 153 -125q82 0 126 82q33 64 38 163q10 -2 14 -2q2 0 13 3q-5 -34 -5 -78q0 -72 10 -123z" />
    <glyph glyph-name="Egrave" unicode="&#xc8;" horiz-adv-x="587" 
d="M344 754q-9 1 -18 1q-7 0 -13 -1q-34 50 -95 90q-28 19 -28 33q0 13 50 13q28 0 37 -3q16 -5 22 -25q10 -34 45 -108zM541 247q-10 -95 -10 -180q0 -35 3 -67q-105 4 -235 4q-140 0 -283 -4q3 10 3 15t-3 16q10 -1 31 -2q18 -2 24 -2q19 0 20 22q4 93 4 312q0 217 -4 300
q-1 18 -23 18q-7 0 -25 -2q-21 -2 -27 -2q3 12 3 15q0 2 -3 16q73 -4 178 -4q53 0 154 2q107 2 159 2q-5 -35 -5 -76q0 -78 11 -149q-16 2 -12 2q-2 0 -13 -4q-3 26 -10 71q-15 61 -49 89q-38 31 -114 34q-9 0 -34 2q-20 1 -33 1q-28 0 -33 -4t-6 -24q-8 -135 -8 -245
q0 -21 3.5 -25.5t18.5 -4.5q57 0 82 13q33 17 39 68q4 31 4 73q7 -1 15 -1t14 1q-8 -99 -8 -181q0 -83 8 -159q-5 1 -14 1q-8 0 -15 -1q0 55 -2 79q-4 51 -39 69q-25 13 -83 13q-16 0 -19.5 -4.5t-3.5 -24.5q0 -5 1 -60q1 -79 8 -198q1 -21 12 -25.5t66 -4.5q105 0 144 22
q54 30 75 133q6 30 7 60q10 -2 11 -2q3 0 16 3z" />
    <glyph glyph-name="Eacute" unicode="&#xc9;" horiz-adv-x="587" 
d="M401 877q0 -14 -28 -33q-61 -40 -95 -90q-6 1 -13 1q-9 0 -18 -1q35 74 45 108q6 20 22 25q9 3 37 3q50 0 50 -13zM541 247q-10 -95 -10 -180q0 -35 3 -67q-105 4 -235 4q-140 0 -283 -4q3 10 3 15t-3 16q10 -1 31 -2q18 -2 24 -2q19 0 20 22q4 93 4 312q0 217 -4 300
q-1 18 -23 18q-7 0 -25 -2q-21 -2 -27 -2q3 12 3 15q0 2 -3 16q73 -4 178 -4q53 0 154 2q107 2 159 2q-5 -35 -5 -76q0 -78 11 -149q-16 2 -12 2q-2 0 -13 -4q-3 26 -10 71q-15 61 -49 89q-38 31 -114 34q-9 0 -34 2q-20 1 -33 1q-28 0 -33 -4t-6 -24q-8 -135 -8 -245
q0 -21 3.5 -25.5t18.5 -4.5q57 0 82 13q33 17 39 68q4 31 4 73q7 -1 15 -1t14 1q-8 -99 -8 -181q0 -83 8 -159q-5 1 -14 1q-8 0 -15 -1q0 55 -2 79q-4 51 -39 69q-25 13 -83 13q-16 0 -19.5 -4.5t-3.5 -24.5q0 -5 1 -60q1 -79 8 -198q1 -21 12 -25.5t66 -4.5q105 0 144 22
q54 30 75 133q6 30 7 60q10 -2 11 -2q3 0 16 3z" />
    <glyph glyph-name="Ecircumflex" unicode="&#xca;" horiz-adv-x="587" 
d="M402 755q-19 2 -39 2q-24 0 -35 -1q-12 25 -38 65l-9 13l-6 -8q-21 -27 -42 -70q-6 1 -14 1q-5 0 -18 -2q54 71 89 139q5 -2 8 -2q2 0 10 2q36 -67 94 -139zM541 247q-10 -95 -10 -180q0 -35 3 -67q-105 4 -235 4q-140 0 -283 -4q3 10 3 15t-3 16q10 -1 31 -2
q18 -2 24 -2q19 0 20 22q4 93 4 312q0 217 -4 300q-1 18 -23 18q-7 0 -25 -2q-21 -2 -27 -2q3 12 3 15q0 2 -3 16q73 -4 178 -4q53 0 154 2q107 2 159 2q-5 -35 -5 -76q0 -78 11 -149q-16 2 -12 2q-2 0 -13 -4q-3 26 -10 71q-15 61 -49 89q-38 31 -114 34q-9 0 -34 2
q-20 1 -33 1q-28 0 -33 -4t-6 -24q-8 -135 -8 -245q0 -21 3.5 -25.5t18.5 -4.5q57 0 82 13q33 17 39 68q4 31 4 73q7 -1 15 -1t14 1q-8 -99 -8 -181q0 -83 8 -159q-5 1 -14 1q-8 0 -15 -1q0 55 -2 79q-4 51 -39 69q-25 13 -83 13q-16 0 -19.5 -4.5t-3.5 -24.5q0 -5 1 -60
q1 -79 8 -198q1 -21 12 -25.5t66 -4.5q105 0 144 22q54 30 75 133q6 30 7 60q10 -2 11 -2q3 0 16 3z" />
    <glyph glyph-name="Edieresis" unicode="&#xcb;" horiz-adv-x="587" 
d="M425 828q0 -21 -13 -37t-37 -16t-37 16t-13 37t13 36.5t37 15.5t37 -15.5t13 -36.5zM263 828q0 -21 -13 -37t-37 -16t-37 16t-13 37t13 36.5t37 15.5t37 -15.5t13 -36.5zM541 247q-10 -95 -10 -180q0 -35 3 -67q-105 4 -235 4q-140 0 -283 -4q3 10 3 15t-3 16
q10 -1 31 -2q18 -2 24 -2q19 0 20 22q4 93 4 312q0 217 -4 300q-1 18 -23 18q-7 0 -25 -2q-21 -2 -27 -2q3 12 3 15q0 2 -3 16q73 -4 178 -4q53 0 154 2q107 2 159 2q-5 -35 -5 -76q0 -78 11 -149q-16 2 -12 2q-2 0 -13 -4q-3 26 -10 71q-15 61 -49 89q-38 31 -114 34
q-9 0 -34 2q-20 1 -33 1q-28 0 -33 -4t-6 -24q-8 -135 -8 -245q0 -21 3.5 -25.5t18.5 -4.5q57 0 82 13q33 17 39 68q4 31 4 73q7 -1 15 -1t14 1q-8 -99 -8 -181q0 -83 8 -159q-5 1 -14 1q-8 0 -15 -1q0 55 -2 79q-4 51 -39 69q-25 13 -83 13q-16 0 -19.5 -4.5t-3.5 -24.5
q0 -5 1 -60q1 -79 8 -198q1 -21 12 -25.5t66 -4.5q105 0 144 22q54 30 75 133q6 30 7 60q10 -2 11 -2q3 0 16 3z" />
    <glyph glyph-name="Igrave" unicode="&#xcc;" horiz-adv-x="302" 
d="M192 754q-9 1 -18 1q-6 0 -12 -1q-34 50 -95 90q-28 19 -28 33q0 13 49 13q28 0 37 -3q17 -5 23 -25q12 -40 44 -108zM285 0q-56 4 -126 4q-68 0 -143 -4q3 11 3 15q0 2 -3 16q6 0 28 -2q18 -2 25 -2q20 0 21 17q5 110 5 317q0 205 -5 304q-1 14 -22 14q-7 0 -25 -2
q-22 -2 -27 -2q3 12 3 15q0 2 -3 16q73 -4 143 -4q71 0 126 4q-1 -8 -1 -16q0 -9 1 -15q-8 0 -28.5 2t-26.5 2q-19 0 -20 -14q-9 -145 -9 -305q0 -292 10 -322q4 -11 21 -11q7 0 26.5 2t26.5 2q-1 -8 -1 -16q0 -9 1 -15z" />
    <glyph glyph-name="Iacute" unicode="&#xcd;" horiz-adv-x="302" 
d="M246 877q0 -14 -28 -33q-61 -40 -95 -90q-6 1 -13 1q-9 0 -18 -1q35 74 45 108q6 20 23 25q9 3 37 3q49 0 49 -13zM285 0q-56 4 -126 4q-68 0 -143 -4q3 11 3 15q0 2 -3 16q6 0 28 -2q18 -2 25 -2q20 0 21 17q5 110 5 317q0 205 -5 304q-1 14 -22 14q-7 0 -25 -2
q-22 -2 -27 -2q3 12 3 15q0 2 -3 16q73 -4 143 -4q71 0 126 4q-1 -8 -1 -16q0 -9 1 -15q-8 0 -28.5 2t-26.5 2q-19 0 -20 -14q-9 -145 -9 -305q0 -292 10 -322q4 -11 21 -11q7 0 26.5 2t26.5 2q-1 -8 -1 -16q0 -9 1 -15z" />
    <glyph glyph-name="Icircumflex" unicode="&#xce;" horiz-adv-x="302" 
d="M247 754q-19 2 -39 2q-13 0 -35 -2q-13 29 -38 66q-2 5 -7 12h-1l-6 -7q-20 -25 -42 -71q-13 2 -14 2q-6 0 -19 -2q54 71 89 139q5 -2 9 -2q5 0 9 1q34 -64 94 -138zM285 0q-56 4 -126 4q-68 0 -143 -4q3 11 3 15q0 2 -3 16q6 0 28 -2q18 -2 25 -2q20 0 21 17
q5 110 5 317q0 205 -5 304q-1 14 -22 14q-7 0 -25 -2q-22 -2 -27 -2q3 12 3 15q0 2 -3 16q73 -4 143 -4q71 0 126 4q-1 -8 -1 -16q0 -9 1 -15q-8 0 -28.5 2t-26.5 2q-19 0 -20 -14q-9 -145 -9 -305q0 -292 10 -322q4 -11 21 -11q7 0 26.5 2t26.5 2q-1 -8 -1 -16q0 -9 1 -15z
" />
    <glyph glyph-name="Idieresis" unicode="&#xcf;" horiz-adv-x="302" 
d="M281 827q0 -22 -12 -36q-14 -17 -37 -17q-24 0 -37 16t-13 37t13 36.5t37 15.5q49 0 49 -52zM119 827q0 -22 -12 -36q-14 -17 -37 -17q-24 0 -37 16t-13 37t13 36.5t37 15.5q49 0 49 -52zM285 0q-56 4 -126 4q-68 0 -143 -4q3 11 3 15q0 2 -3 16q6 0 28 -2q18 -2 25 -2
q20 0 21 17q5 110 5 317q0 205 -5 304q-1 14 -22 14q-7 0 -25 -2q-22 -2 -27 -2q3 12 3 15q0 2 -3 16q73 -4 143 -4q71 0 126 4q-1 -8 -1 -16q0 -9 1 -15q-8 0 -28.5 2t-26.5 2q-19 0 -20 -14q-9 -145 -9 -305q0 -292 10 -322q4 -11 21 -11q7 0 26.5 2t26.5 2q-1 -8 -1 -16
q0 -9 1 -15z" />
    <glyph glyph-name="Eth" unicode="&#xd0;" horiz-adv-x="697" 
d="M641 358q0 -118 -35 -203.5t-98 -121.5q-57 -33 -151 -33q-31 0 -113 2q-73 1 -112 1q-60 0 -116 -3q3 11 3 16q0 7 -3 15q7 0 20.5 -2t19.5 -2q23 0 24 18q5 108 5 296q0 13 -16 13q-18 0 -47 -3q3 10 3 19q0 8 -3 23q34 -3 46 -3q16 0 17 23v29q0 134 -4 218
q-1 19 -22 19q-6 0 -20 -2t-23 -2q3 9 3 15q0 5 -3 16q55 -3 121 -3q36 0 106.5 1.5t106.5 1.5q90 0 143 -26q148 -72 148 -322zM523 353q0 195 -68 275q-37 44 -133 49q-106 6 -117 -3q-4 -3 -5 -20q-6 -100 -6 -218q0 -34 6.5 -41t36.5 -7q17 0 134 5q-5 -17 -5 -23
q0 -8 5 -19q-102 5 -158 5q-19 0 -19 -14q0 -174 6 -284q1 -20 9.5 -24.5t50.5 -4.5q79 0 105 4q58 9 90 48q68 82 68 272z" />
    <glyph glyph-name="Ntilde" unicode="&#xd1;" horiz-adv-x="626" 
d="M443 873q-21 -57 -36 -77q-18 -25 -45 -25q-22 0 -61.5 20.5t-60.5 20.5q-26 0 -44 -43q-11 9 -19 10q19 53 32 72q19 29 47 29q21 0 61.5 -22t56.5 -22q26 0 51 48q7 -8 18 -11zM610 676q-46 4 -45 4q-14 0 -17 -18q-14 -97 -14 -275q0 -91 4 -396q-14 0 -26 -7
q-13 35 -32 69q-172 308 -337 571q-4 9 -12 28q-2 5 -5 5q-2 -1 -2 -5t2 -13t2 -14l-1 -312q0 -165 14 -267q3 -19 29 -19q6 0 24.5 1.5t24.5 1.5q-2 -8 -2 -17q0 -7 2 -13q-45 3 -107 3q-61 0 -95 -3q2 8 2 14q0 7 -2 16q57 -4 49 -4q18 0 19 16q4 121 6 304l1 147
q0 124 -5 170q-2 17 -22 17q1 0 -49 -4q3 12 3 14q0 1 -3 16q36 -4 107 -4q61 0 111 4q91 -176 247 -426q10 -16 17 -39q2 -6 4 -6q3 0 3 5q0 8 -1 24.5t-1 24.5q0 247 -12 374q-2 17 -25 17q-7 0 -27 -2t-26 -2q3 13 3 15l-3 15q36 -4 94 -4q57 0 103 4q-2 -10 -2 -16
t2 -14z" />
    <glyph glyph-name="Ograve" unicode="&#xd2;" horiz-adv-x="674" 
d="M370 753q-19 2 -18 2l-13 -2q-34 50 -95 90q-28 19 -28 34q0 12 49 12q28 0 37 -2q17 -6 23 -25q11 -37 45 -109zM617 367q0 -148 -61 -252q-75 -126 -219 -126q-139 0 -215 118q-65 100 -65 244q0 151 64 249q75 116 217 116q137 0 213 -109q66 -96 66 -240zM502 336
q0 56 -6 136q-7 88 -26 132q-38 88 -129 88q-138 1 -162 -193q-8 -64 -8 -142q0 -182 37 -259q40 -84 130 -84q115 0 148 145q16 70 16 177z" />
    <glyph glyph-name="Oacute" unicode="&#xd3;" horiz-adv-x="674" 
d="M473 918q0 -20 -28 -45q-61 -54 -95 -120q-10 2 -13 2q-4 0 -18 -2q35 99 45 144q5 25 20 32q10 5 40 5q49 0 49 -16zM617 367q0 -148 -61 -252q-75 -126 -219 -126q-139 0 -215 118q-65 100 -65 244q0 151 64 249q75 116 217 116q137 0 213 -109q66 -96 66 -240z
M502 336q0 56 -6 136q-7 88 -26 132q-38 88 -129 88q-138 1 -162 -193q-8 -64 -8 -142q0 -182 37 -259q40 -84 130 -84q115 0 148 145q16 70 16 177z" />
    <glyph glyph-name="Ocircumflex" unicode="&#xd4;" horiz-adv-x="674" 
d="M440 756q-29 3 -39 3q-13 0 -35 -2q-13 29 -38 66q-8 12 -9 12q1 0 -5 -8q-21 -27 -42 -70q-6 1 -14 1q-6 0 -19 -2q54 71 89 139q5 -2 8 -2q2 0 10 2q36 -67 94 -139zM617 367q0 -148 -61 -252q-75 -126 -219 -126q-139 0 -215 118q-65 100 -65 244q0 151 64 249
q75 116 217 116q137 0 213 -109q66 -96 66 -240zM502 336q0 56 -6 136q-7 88 -26 132q-38 88 -129 88q-138 1 -162 -193q-8 -64 -8 -142q0 -182 37 -259q40 -84 130 -84q115 0 148 145q16 70 16 177z" />
    <glyph glyph-name="Otilde" unicode="&#xd5;" horiz-adv-x="674" 
d="M466 876q-21 -56 -36 -77q-19 -25 -46 -25q-22 0 -63.5 20.5t-57.5 20.5q-27 0 -45 -43q-5 4 -18 10q19 52 32 72q19 28 47 28q21 0 61.5 -22t56.5 -22q26 0 51 48q6 -7 18 -10zM617 367q0 -148 -61 -252q-75 -126 -219 -126q-139 0 -215 118q-65 100 -65 244
q0 151 64 249q75 116 217 116q137 0 213 -109q66 -96 66 -240zM502 336q0 56 -6 136q-7 88 -26 132q-38 88 -129 88q-138 1 -162 -193q-8 -64 -8 -142q0 -182 37 -259q40 -84 130 -84q115 0 148 145q16 70 16 177z" />
    <glyph glyph-name="Odieresis" unicode="&#xd6;" horiz-adv-x="674" 
d="M465 829q0 -21 -13 -37t-37 -16t-37 16t-13 37t13 36.5t37 15.5t37 -15.5t13 -36.5zM303 829q0 -21 -13 -37t-37 -16t-37 16t-13 37t13 36.5t37 15.5t37 -15.5t13 -36.5zM617 367q0 -148 -61 -252q-75 -126 -219 -126q-139 0 -215 118q-65 100 -65 244q0 151 64 249
q75 116 217 116q137 0 213 -109q66 -96 66 -240zM502 336q0 56 -6 136q-7 88 -26 132q-38 88 -129 88q-138 1 -162 -193q-8 -64 -8 -142q0 -182 37 -259q40 -84 130 -84q115 0 148 145q16 70 16 177z" />
    <glyph glyph-name="multiply" unicode="&#xd7;" horiz-adv-x="547" 
d="M490 464l-172 -159q-8 -7 -8 -14q0 -8 8 -15l171 -160q-25 -18 -39 -38l-162 168q-8 8 -15 8t-14 -7l-163 -170q-14 24 -40 39l174 163q6 6 6 11q0 8 -8 15l-172 159q23 13 41 39l161 -168q8 -8 15 -8t16 9l161 168q15 -24 40 -40z" />
    <glyph glyph-name="Oslash" unicode="&#xd8;" horiz-adv-x="674" 
d="M629 367q0 -149 -61 -252q-75 -126 -219 -126q-93 0 -160 55q-29 24 -39 45q-2 4 -5 4q-1 0 -13 -16q-21 -29 -64 -86q-8 18 -25 24q23 27 70 84q10 12 10 19q0 5 -8 21q-46 92 -46 212q0 151 64 249q75 116 217 116q79 0 139 -38q31 -20 41 -35l3 -4q3 1 5 3
q18 23 55 75q8 -17 26 -27q-60 -70 -60 -73q0 -4 9 -18q61 -95 61 -232zM486 586q0 8 -2 13q-38 93 -131 93q-139 1 -163 -193q-7 -56 -7 -142q0 -75 6 -130q1 -9 1 -12v-8q0 -2 6 -3q3 5 11 16q135 169 277 355q2 5 2 11zM514 336q0 56 -6 136q-5 67 -5 66q0 4 -3 4
q-4 0 -7 -5t-7 -11q-139 -175 -269 -342q-13 -17 -13 -33q0 -20 16 -53q40 -84 130 -84q114 0 147 145q17 74 17 177z" />
    <glyph glyph-name="Ugrave" unicode="&#xd9;" horiz-adv-x="632" 
d="M393 752q-14 2 -18 2q-8 0 -13 -1q-34 66 -95 120q-27 24 -27 44q0 17 49 17q30 0 40 -5q14 -7 19 -32q11 -48 45 -145zM617 676q-6 0 -23 1.5t-22 1.5q-17 0 -20 -13q-10 -49 -11 -119q-2 -77 -2 -313q0 -71 -2 -92q-5 -55 -25 -87q-41 -65 -186 -65q-138 0 -191.5 47.5
t-53.5 177.5q0 41 1 144q1 95 1 144q0 114 -2 162q-1 15 -17 15q1 0 -48 -4q3 13 3 15t-3 15q54 -3 128 -3q72 0 123 3q-2 -10 -2 -16q0 -7 2 -14q-7 1 -25.5 3t-23.5 2q-16 0 -16 -16.5t-2 -127.5q-2 -82 -2 -141q0 -100 3 -180q1 -33 2 -67q3 -40 15 -64q28 -57 131 -57
q106 0 139 50q21 32 21 116q0 365 2 236q-2 146 -25 235q-4 15 -25 15q-7 0 -24 -2q-20 -2 -26 -2q3 22 3 15q0 2 -1.5 6.5t-1.5 8.5q36 -4 98 -4q63 0 107 4q-2 -10 -2 -16q0 -2 3 -14z" />
    <glyph glyph-name="Uacute" unicode="&#xda;" horiz-adv-x="632" 
d="M426 878q0 -14 -28 -33q-61 -40 -95 -90q-6 1 -13 1q1 0 -18 -2q34 72 45 109q6 20 22 25q9 3 37 3q50 0 50 -13zM617 676q-6 0 -23 1.5t-22 1.5q-17 0 -20 -13q-10 -49 -11 -119q-2 -77 -2 -313q0 -71 -2 -92q-5 -55 -25 -87q-41 -65 -186 -65q-138 0 -191.5 47.5
t-53.5 177.5q0 41 1 144q1 95 1 144q0 114 -2 162q-1 15 -17 15q1 0 -48 -4q3 13 3 15t-3 15q54 -3 128 -3q72 0 123 3q-2 -10 -2 -16q0 -7 2 -14q-7 1 -25.5 3t-23.5 2q-16 0 -16 -16.5t-2 -127.5q-2 -82 -2 -141q0 -100 3 -180q1 -33 2 -67q3 -40 15 -64q28 -57 131 -57
q106 0 139 50q21 32 21 116q0 365 2 236q-2 146 -25 235q-4 15 -25 15q-7 0 -24 -2q-20 -2 -26 -2q3 22 3 15q0 2 -1.5 6.5t-1.5 8.5q36 -4 98 -4q63 0 107 4q-2 -10 -2 -16q0 -2 3 -14z" />
    <glyph glyph-name="Ucircumflex" unicode="&#xdb;" horiz-adv-x="632" 
d="M430 756q-29 3 -39 3q-13 0 -35 -2q-13 29 -38 66l-8 12l-6 -8q-21 -27 -42 -70q-6 1 -14 1q-6 0 -19 -2q57 75 90 139q5 -2 8 -2q1 0 9 2q36 -67 94 -139zM617 676q-6 0 -23 1.5t-22 1.5q-17 0 -20 -13q-10 -49 -11 -119q-2 -77 -2 -313q0 -71 -2 -92q-5 -55 -25 -87
q-41 -65 -186 -65q-138 0 -191.5 47.5t-53.5 177.5q0 41 1 144q1 95 1 144q0 114 -2 162q-1 15 -17 15q1 0 -48 -4q3 13 3 15t-3 15q54 -3 128 -3q72 0 123 3q-2 -10 -2 -16q0 -7 2 -14q-7 1 -25.5 3t-23.5 2q-16 0 -16 -16.5t-2 -127.5q-2 -82 -2 -141q0 -100 3 -180
q1 -33 2 -67q3 -40 15 -64q28 -57 131 -57q106 0 139 50q21 32 21 116q0 365 2 236q-2 146 -25 235q-4 15 -25 15q-7 0 -24 -2q-20 -2 -26 -2q3 22 3 15q0 2 -1.5 6.5t-1.5 8.5q36 -4 98 -4q63 0 107 4q-2 -10 -2 -16q0 -2 3 -14z" />
    <glyph glyph-name="Udieresis" unicode="&#xdc;" horiz-adv-x="632" 
d="M471 828q0 -21 -13 -36.5t-37 -15.5t-37 15.5t-13 36.5t13 37t37 16t37 -16t13 -37zM309 828q0 -21 -13 -36.5t-37 -15.5t-37 15.5t-13 36.5t13 37t37 16t37 -16t13 -37zM617 676q-6 0 -23 1.5t-22 1.5q-17 0 -20 -13q-10 -49 -11 -119q-2 -77 -2 -313q0 -71 -2 -92
q-5 -55 -25 -87q-41 -65 -186 -65q-138 0 -191.5 47.5t-53.5 177.5q0 41 1 144q1 95 1 144q0 114 -2 162q-1 15 -17 15q1 0 -48 -4q3 13 3 15t-3 15q54 -3 128 -3q72 0 123 3q-2 -10 -2 -16q0 -7 2 -14q-7 1 -25.5 3t-23.5 2q-16 0 -16 -16.5t-2 -127.5q-2 -82 -2 -141
q0 -100 3 -180q1 -33 2 -67q3 -40 15 -64q28 -57 131 -57q106 0 139 50q21 32 21 116q0 365 2 236q-2 146 -25 235q-4 15 -25 15q-7 0 -24 -2q-20 -2 -26 -2q3 22 3 15q0 2 -1.5 6.5t-1.5 8.5q36 -4 98 -4q63 0 107 4q-2 -10 -2 -16q0 -2 3 -14z" />
    <glyph glyph-name="Yacute" unicode="&#xdd;" horiz-adv-x="571" 
d="M398 877q0 -14 -28 -33q-61 -40 -95 -90q-6 1 -13 1q-9 0 -18 -1q35 74 45 108q6 20 22 25q9 3 37 3q50 0 50 -13zM554 676q-39 4 -46 4q-11 0 -22 -19q-34 -58 -128 -275q-9 -20 -9 -38v-64q0 -123 6 -234q1 -23 22 -23q6 0 25 2t28 2q-2 -9 -2 -17q0 -3 3 -14
q-56 4 -127 4q-69 0 -143 -4q3 14 3 16q0 4 -3 15q7 0 26 -2t25 -2q22 0 23 20q3 77 3 177v62q-1 51 -1 63q0 20 -8 36l-102 201q-8 16 -46 80q-8 13 -22 13q-4 0 -42 -3q2 8 2 14q0 7 -2 16q46 -2 136 -2q89 0 129 2q-3 -12 -3 -16q0 -6 3 -14q-46 2 -47 2q-14 0 -14 -7
q0 -18 26 -77q7 -16 75 -157q1 -2 5.5 -17.5t6.5 -15.5q4 1 5 4t2 9q35 79 44 103q27 67 48 142q1 4 1 7q0 10 -15 10q-5 0 -20 -1q-18 -2 -24 -2q2 8 2 15q0 5 -2 15q32 -3 82 -3t97 3q-2 -13 -2 -16q0 -5 2 -14z" />
    <glyph glyph-name="Thorn" unicode="&#xde;" horiz-adv-x="511" 
d="M474 400q0 -89 -43 -139t-145 -50q-13 0 -39 1h-40t-13 -16q0 -47 6 -152q1 -17 22 -17q6 0 20.5 2t22.5 2q-1 -8 -1 -16q0 -9 1 -15q-56 4 -116 4q-58 0 -133 -4q3 11 3 15q0 2 -3 16q7 0 22 -2t21 -2q20 0 21 17q5 110 5 317q0 205 -5 304q-1 14 -22 14q-7 0 -20 -2
q-16 -2 -22 -2q3 12 3 15q0 2 -3 16q73 -4 133 -4q61 0 116 4q-1 -8 -1 -16q0 -9 1 -15q-9 0 -24 2t-21 2q-18 0 -22 -11t-4 -60q0 -14 17 -14q12 0 36.5 1.5t36.5 1.5q66 0 110 -23q80 -44 80 -174zM359 398q0 101 -31 138q-26 32 -94 32q-28 0 -33.5 -4.5t-6.5 -26.5
q-3 -86 -3 -177q0 -34 1 -109q0 -11 39 -11q73 0 99 30q29 34 29 128z" />
    <glyph glyph-name="germandbls" unicode="&#xdf;" horiz-adv-x="510" 
d="M455 237q0 -137 -32 -191.5t-108 -54.5q-55 0 -74 42q-14 32 -14 113q14 -5 21 -5q-1 0 8 2q-2 -39 -2 -51q0 -65 49 -65t49 124q0 257 -28 286q-14 15 -36 15q-13 0 -42 -5q3 12 3 19t-3 17q24 -5 36 -5q53 0 53 97q0 114 -76 114q-54 0 -70 -30q-18 -34 -18 -146
q0 -11 5 -467q0 -19 20 -19q10 0 34 4q-2 -11 -2 -17q0 -7 2 -15q-46 5 -97 5q-64 0 -117 -4q2 10 2 16q0 7 -2 16q24 -6 32 -6q20 0 20 17l4 495q1 102 50 143q44 35 144 35q83 0 120 -27q46 -33 46 -115q0 -74 -46 -97q-18 -9 -46 -9q-7 0 -7 -2t13 -4.5t40 -12.5
q36 -20 51 -59q18 -48 18 -153z" />
    <glyph glyph-name="agrave" unicode="&#xe0;" horiz-adv-x="452" 
d="M270 524q-14 2 -18 2q-8 0 -13 -1q-34 66 -95 120q-28 25 -28 44q0 17 49 17q30 0 40 -5q15 -7 20 -32q11 -48 45 -145zM436 0q-51 -6 -86 -6q-55 0 -72 38q-3 7 -3 21q0 2 1 4.5t1 4.5q0 3 -3 4q-1 0 -6 -13q-25 -63 -117 -63q-124 0 -124 136q0 108 152 145
q77 19 86 27q3 3 3 13v51q0 61 -19 86q-17 22 -55 22q-16 0 -35 -3q-11 -2 -11 -16v-32q-1 -25 -1 -30q0 -24 -15.5 -38t-35.5 -14q-45 0 -45 50q0 56 57 85q45 22 106 22q83 0 118 -35.5t35 -119.5v-226q0 -60 7 -78q6 -14 22 -14t38 8q-2 -9 -2 -12q0 -7 4 -17zM267 260
q0 11 -3 11q-4 0 -59 -18q-77 -25 -77 -124q0 -47 17.5 -75t40.5 -28q36 0 56 29t21 71q4 120 4 134z" />
    <glyph glyph-name="aacute" unicode="&#xe1;" horiz-adv-x="452" 
d="M328 689q0 -19 -28 -44q-61 -54 -95 -120q-5 1 -13 1q-4 0 -18 -2q34 97 45 145q5 25 20 32q10 5 40 5q49 0 49 -17zM436 0q-51 -6 -86 -6q-55 0 -72 38q-3 7 -3 21q0 2 1 4.5t1 4.5q0 3 -3 4q-1 0 -6 -13q-25 -63 -117 -63q-124 0 -124 136q0 108 152 145q77 19 86 27
q3 3 3 13v51q0 61 -19 86q-17 22 -55 22q-16 0 -35 -3q-11 -2 -11 -16v-32q-1 -25 -1 -30q0 -24 -15.5 -38t-35.5 -14q-45 0 -45 50q0 56 57 85q45 22 106 22q83 0 118 -35.5t35 -119.5v-226q0 -60 7 -78q6 -14 22 -14t38 8q-2 -9 -2 -12q0 -7 4 -17zM267 260q0 11 -3 11
q-4 0 -59 -18q-77 -25 -77 -124q0 -47 17.5 -75t40.5 -28q36 0 56 29t21 71q4 120 4 134z" />
    <glyph glyph-name="acircumflex" unicode="&#xe2;" horiz-adv-x="452" 
d="M331 522q-22 3 -40 3t-34 -2q-12 35 -38 87q-8 17 -9 17l-6 -10q-21 -35 -42 -94q-5 1 -14 1t-18 -2q54 95 89 185q6 -3 8 -3q1 0 10 3q35 -88 94 -185zM436 0q-51 -6 -86 -6q-55 0 -72 38q-3 7 -3 21q0 2 1 4.5t1 4.5q0 3 -3 4q-1 0 -6 -13q-25 -63 -117 -63
q-124 0 -124 136q0 108 152 145q77 19 86 27q3 3 3 13v51q0 61 -19 86q-17 22 -55 22q-16 0 -35 -3q-11 -2 -11 -16v-32q-1 -25 -1 -30q0 -24 -15.5 -38t-35.5 -14q-45 0 -45 50q0 56 57 85q45 22 106 22q83 0 118 -35.5t35 -119.5v-226q0 -60 7 -78q6 -14 22 -14t38 8
q-2 -9 -2 -12q0 -7 4 -17zM267 260q0 11 -3 11q-4 0 -59 -18q-77 -25 -77 -124q0 -47 17.5 -75t40.5 -28q36 0 56 29t21 71q4 120 4 134z" />
    <glyph glyph-name="atilde" unicode="&#xe3;" horiz-adv-x="452" 
d="M355 662q-21 -56 -36 -77q-19 -25 -46 -25q-22 0 -63.5 20.5t-57.5 20.5q-27 0 -45 -43q-5 4 -18 10q19 52 32 72q19 28 47 28q21 0 61.5 -22t56.5 -22q26 0 51 48q6 -7 18 -10zM436 0q-51 -6 -86 -6q-55 0 -72 38q-3 7 -3 21q0 2 1 4.5t1 4.5q0 3 -3 4q-1 0 -6 -13
q-25 -63 -117 -63q-124 0 -124 136q0 108 152 145q77 19 86 27q3 3 3 13v51q0 61 -19 86q-17 22 -55 22q-16 0 -35 -3q-11 -2 -11 -16v-32q-1 -25 -1 -30q0 -24 -15.5 -38t-35.5 -14q-45 0 -45 50q0 56 57 85q45 22 106 22q83 0 118 -35.5t35 -119.5v-226q0 -60 7 -78
q6 -14 22 -14t38 8q-2 -9 -2 -12q0 -7 4 -17zM267 260q0 11 -3 11q-4 0 -59 -18q-77 -25 -77 -124q0 -47 17.5 -75t40.5 -28q36 0 56 29t21 71q4 120 4 134z" />
    <glyph glyph-name="adieresis" unicode="&#xe4;" horiz-adv-x="452" 
d="M347 633q0 -21 -13 -36.5t-37 -15.5t-37 15.5t-13 36.5t13 37t37 16t37 -16t13 -37zM185 633q0 -21 -13 -36.5t-37 -15.5t-37 15.5t-13 36.5t13 37t37 16t37 -16t13 -37zM436 0q-51 -6 -86 -6q-55 0 -72 38q-3 7 -3 21q0 2 1 4.5t1 4.5q0 3 -3 4q-1 0 -6 -13
q-25 -63 -117 -63q-124 0 -124 136q0 108 152 145q77 19 86 27q3 3 3 13v51q0 61 -19 86q-17 22 -55 22q-16 0 -35 -3q-11 -2 -11 -16v-32q-1 -25 -1 -30q0 -24 -15.5 -38t-35.5 -14q-45 0 -45 50q0 56 57 85q45 22 106 22q83 0 118 -35.5t35 -119.5v-226q0 -60 7 -78
q6 -14 22 -14t38 8q-2 -9 -2 -12q0 -7 4 -17zM267 260q0 11 -3 11q-4 0 -59 -18q-77 -25 -77 -124q0 -47 17.5 -75t40.5 -28q36 0 56 29t21 71q4 120 4 134z" />
    <glyph glyph-name="aring" unicode="&#xe5;" horiz-adv-x="452" 
d="M305 620q0 -35 -22 -60q-24 -28 -66 -28q-41 0 -63.5 26t-22.5 61t23 61.5t64 26.5t64 -26t23 -61zM436 0q-51 -6 -86 -6q-55 0 -72 38q-3 7 -3 21q0 2 1 4.5t1 4.5q0 3 -3 4q-1 0 -6 -13q-25 -63 -117 -63q-124 0 -124 136q0 108 152 145q77 19 86 27q3 3 3 13v51
q0 61 -19 86q-17 22 -55 22q-16 0 -35 -3q-11 -2 -11 -16v-32q-1 -25 -1 -30q0 -24 -15.5 -38t-35.5 -14q-45 0 -45 50q0 56 57 85q45 22 106 22q83 0 118 -35.5t35 -119.5v-226q0 -60 7 -78q6 -14 22 -14t38 8q-2 -9 -2 -12q0 -7 4 -17zM268 619q0 22 -13 38t-37 16
q-50 0 -50 -53q0 -22 13.5 -38t37.5 -16q49 0 49 53zM267 260q0 11 -3 11q-4 0 -59 -18q-77 -25 -77 -124q0 -47 17.5 -75t40.5 -28q36 0 56 29t21 71q4 120 4 134z" />
    <glyph glyph-name="ae" unicode="&#xe6;" horiz-adv-x="662" 
d="M636 266q-89 6 -246 6q-16 0 -19 -2t-3 -11v-1q0 -157 32 -205q22 -34 90 -34q73 0 104 110q11 -11 30 -11q-16 -64 -59 -97.5t-101 -33.5q-66 0 -96 17q-12 7 -70 61q-2 2 -6 2q-9 0 -14 -8q-42 -69 -127 -69q-124 0 -124 126q0 118 152 155q77 19 86 27q3 3 3 13v51
q0 61 -19 86q-17 22 -55 22q-16 0 -35 -3q-11 -2 -11 -16v-32q-1 -25 -1 -30q0 -24 -15.5 -38t-35.5 -14q-45 0 -45 50q0 56 57 85q45 22 106 22q88 0 116 -35q3 -4 9 -4q2 0 13 9q40 32 109 32q161 0 175 -230zM522 329q0 143 -69 143q-34 0 -57 -41q-26 -45 -26 -127
q0 -10 8 -10q14 0 121 10q16 2 19.5 5t3.5 20zM267 264q0 7 -7 7q-1 0 -25 -8q-17 -6 -30 -10q-77 -25 -77 -134q0 -46 17 -69.5t41 -23.5q36 0 56 29t21 71q4 119 4 138z" />
    <glyph glyph-name="ccedilla" unicode="&#xe7;" horiz-adv-x="383" 
d="M366 371q0 -24 -16 -39t-37 -15q-49 0 -49 60v31q0 42 -5.5 50t-36.5 8q-25 0 -40 -12q-22 -18 -36 -75t-14 -128q0 -229 106 -229q48 0 68 21t32 77q12 -8 27 -9q-25 -121 -136 -121q-28 0 -28 -13q0 -4 5 -4q77 -4 77 -78q0 -82 -92 -82q-28 0 -80 37q11 8 16 23
q28 -32 54 -32q42 0 42 57q0 34 -11.5 44t-45.5 15q16 35 16 30q0 6 -11 9q-144 34 -144 242q0 143 66 206q49 48 128 48q65 0 103 -29q42 -32 42 -92z" />
    <glyph glyph-name="egrave" unicode="&#xe8;" horiz-adv-x="427" 
d="M282 524q-14 2 -17 2q-8 0 -13 -1q-34 66 -95 120q-28 25 -28 44q0 17 49 17q30 0 40 -5q15 -7 20 -32q12 -55 44 -145zM406 266q-89 6 -246 6q-16 0 -19 -2t-3 -12q0 -157 32 -205q22 -34 90 -34q73 0 104 110q11 -11 30 -11q-16 -64 -59 -97.5t-101 -33.5
q-202 0 -202 256q0 128 58 194q52 59 141 59q161 0 175 -230zM292 329q0 143 -69 143q-34 0 -57 -41q-26 -45 -26 -127q0 -10 8 -10q14 0 121 10q16 2 19.5 5t3.5 20z" />
    <glyph glyph-name="eacute" unicode="&#xe9;" horiz-adv-x="427" 
d="M332 689q0 -19 -28 -44q-61 -54 -95 -120q-5 1 -13 1q-4 0 -18 -2q34 97 45 145q5 25 20 32q10 5 40 5q49 0 49 -17zM406 266q-89 6 -246 6q-16 0 -19 -2t-3 -12q0 -157 32 -205q22 -34 90 -34q73 0 104 110q11 -11 30 -11q-16 -64 -59 -97.5t-101 -33.5q-202 0 -202 256
q0 128 58 194q52 59 141 59q161 0 175 -230zM292 329q0 143 -69 143q-34 0 -57 -41q-26 -45 -26 -127q0 -10 8 -10q14 0 121 10q16 2 19.5 5t3.5 20z" />
    <glyph glyph-name="ecircumflex" unicode="&#xea;" horiz-adv-x="427" 
d="M329 522q-22 3 -39 3q-19 0 -35 -2q-12 35 -38 87q-8 17 -9 17l-6 -10q-21 -35 -42 -94q-5 1 -13 1q-10 0 -19 -2q54 95 89 185q6 -3 8 -3q1 0 10 3q35 -88 94 -185zM406 266q-89 6 -246 6q-16 0 -19 -2t-3 -12q0 -157 32 -205q22 -34 90 -34q73 0 104 110q11 -11 30 -11
q-16 -64 -59 -97.5t-101 -33.5q-202 0 -202 256q0 128 58 194q52 59 141 59q161 0 175 -230zM292 329q0 143 -69 143q-34 0 -57 -41q-26 -45 -26 -127q0 -10 8 -10q14 0 121 10q16 2 19.5 5t3.5 20z" />
    <glyph glyph-name="edieresis" unicode="&#xeb;" horiz-adv-x="427" 
d="M362 621q0 -21 -13 -36.5t-37 -15.5t-37 15.5t-13 36.5t13 37t37 16t37 -16t13 -37zM200 621q0 -21 -13 -36.5t-37 -15.5t-37 15.5t-13 36.5t13 37t37 16t37 -16t13 -37zM406 266q-89 6 -246 6q-16 0 -19 -2t-3 -12q0 -157 32 -205q22 -34 90 -34q73 0 104 110
q11 -11 30 -11q-16 -64 -59 -97.5t-101 -33.5q-202 0 -202 256q0 128 58 194q52 59 141 59q161 0 175 -230zM292 329q0 143 -69 143q-34 0 -57 -41q-26 -45 -26 -127q0 -10 8 -10q14 0 121 10q16 2 19.5 5t3.5 20z" />
    <glyph glyph-name="igrave" unicode="&#xec;" horiz-adv-x="276" 
d="M191 524q-14 2 -18 2q-8 0 -13 -1q-34 66 -95 120q-27 24 -27 44q0 17 49 17q30 0 40 -5q14 -7 19 -32q11 -48 45 -145zM260 -1q-38 5 -115 5q-91 0 -129 -4q1 7 1 15q0 10 -1 17q28 -7 46 -7q25 0 26 27q4 92 4 195q0 106 -4 192q-1 21 -22 21q-6 0 -24 -1.5t-25 -1.5
q2 8 2 14q0 7 -2 16q30 -2 79 -2q53 0 98 4q-5 -136 -5 -248q0 -94 4 -189q1 -26 21 -26q14 0 45 5q-1 -6 -1 -16q0 -6 2 -16z" />
    <glyph glyph-name="iacute" unicode="&#xed;" horiz-adv-x="276" 
d="M235 689q0 -19 -28 -44q-61 -54 -95 -120q-5 1 -13 1q-4 0 -18 -2q34 97 45 145q5 25 20 32q10 5 40 5q49 0 49 -17zM260 -1q-38 5 -115 5q-91 0 -129 -4q1 7 1 15q0 10 -1 17q28 -7 46 -7q25 0 26 27q4 92 4 195q0 106 -4 192q-1 21 -22 21q-6 0 -24 -1.5t-25 -1.5
q2 8 2 14q0 7 -2 16q30 -2 79 -2q53 0 98 4q-5 -136 -5 -248q0 -94 4 -189q1 -26 21 -26q14 0 45 5q-1 -6 -1 -16q0 -6 2 -16z" />
    <glyph glyph-name="icircumflex" unicode="&#xee;" horiz-adv-x="276" 
d="M236 522q-22 3 -39 3q-19 0 -35 -2q-12 35 -38 87q-8 17 -9 17l-6 -10q-21 -35 -42 -94q-5 1 -13 1q-10 0 -19 -2q54 95 89 185q6 -3 8 -3q1 0 10 3q35 -88 94 -185zM260 -1q-38 5 -115 5q-91 0 -129 -4q1 7 1 15q0 10 -1 17q28 -7 46 -7q25 0 26 27q4 92 4 195
q0 106 -4 192q-1 21 -22 21q-6 0 -24 -1.5t-25 -1.5q2 8 2 14q0 7 -2 16q30 -2 79 -2q53 0 98 4q-5 -136 -5 -248q0 -94 4 -189q1 -26 21 -26q14 0 45 5q-1 -6 -1 -16q0 -6 2 -16z" />
    <glyph glyph-name="idieresis" unicode="&#xef;" horiz-adv-x="276" 
d="M270 621q0 -21 -13 -36.5t-37 -15.5t-37 15.5t-13 36.5t13 37t37 16t37 -16t13 -37zM108 621q0 -21 -13 -36.5t-37 -15.5t-37 15.5t-13 36.5t13 37t37 16t37 -16t13 -37zM261 -1q-38 5 -115 5q-91 0 -129 -4q1 7 1 15q0 10 -1 17q28 -7 46 -7q25 0 26 27q4 92 4 195
q0 106 -4 192q-1 21 -22 21q-6 0 -24 -1.5t-25 -1.5q2 8 2 14q0 7 -2 16q30 -2 79 -2q53 0 98 4q-5 -136 -5 -248q0 -94 4 -189q1 -26 21 -26q14 0 45 5q-1 -6 -1 -16q0 -6 2 -16z" />
    <glyph glyph-name="eth" unicode="&#xf0;" horiz-adv-x="458" 
d="M427 283q0 -78 -18 -138q-23 -77 -56 -110q-43 -44 -124 -44q-198 0 -198 250q0 259 202 259q48 0 73 -29q7 -8 8 -8q2 0 2 8q0 41 -35 119q-4 8 -6 8q-12 0 -128 -56q0 20 -12 37q26 6 74 21q56 18 56 24q0 3 -2 6q-37 59 -72 73q10 10 12 22q49 -24 102 -78q5 -5 8 -5
q11 0 86 37q3 -26 13 -37q-16 -3 -75 -20q-3 -1 -3 -3q0 -1 3 -5q90 -126 90 -331zM326 244q0 69 -4 110q-6 58 -22 85q-22 37 -72 37q-52 0 -71 -42q-24 -51 -24 -196q0 -136 24 -183q20 -40 73 -40q51 0 71 40q25 50 25 189z" />
    <glyph glyph-name="ntilde" unicode="&#xf1;" horiz-adv-x="508" 
d="M389 662q-21 -56 -36 -77q-19 -25 -46 -25q-22 0 -63.5 20.5t-57.5 20.5q-27 0 -45 -43q-5 4 -18 10q19 52 32 72q19 28 47 28q21 0 61.5 -22t56.5 -22q26 0 51 48q6 -7 18 -10zM492 0q-45 5 -117 5q-56 0 -100 -6q1 6 1 16t-1 17q23 -6 33 -6q22 0 23 16q4 81 4 236
q0 69 -6 121t-51 52q-98 0 -98 -207q0 -147 3 -203q1 -15 24 -15q11 0 35 5q-2 -11 -2 -16q0 -7 2 -16q-38 5 -100 5q-87 0 -125 -4q2 10 2 16q0 7 -2 15q25 -5 43 -5q19 0 20 18q4 85 4 192t-4 201q-1 20 -22 20q-13 0 -42 -4q2 8 2 14q0 3 -2 16q23 -2 56 -2q52 0 114 6
q0 -8 -3 -39q-2 -23 -2 -38l3 -2q36 83 133 83q63 0 90.5 -39t27.5 -121v-78q-1 -51 -1 -77q0 -81 3 -137q1 -12 16 -12q21 0 39 4q-2 -10 -2 -16q0 -7 2 -15z" />
    <glyph glyph-name="ograve" unicode="&#xf2;" horiz-adv-x="450" 
d="M283 524q-14 2 -17 2q-8 0 -13 -1q-34 66 -95 120q-28 25 -28 44q0 17 49 17q30 0 40 -5q15 -7 20 -32q12 -55 44 -145zM423 243q0 -124 -55 -189q-52 -60 -143 -60q-95 0 -146.5 63.5t-51.5 182.5q0 114 46 180q53 74 158 74q192 0 192 -251zM315 242q0 184 -40 218
q-15 13 -44 13q-32 0 -49 -14q-46 -38 -46 -222q0 -168 42 -207q16 -15 44 -15q35 0 52 20q41 49 41 207z" />
    <glyph glyph-name="oacute" unicode="&#xf3;" horiz-adv-x="450" 
d="M336 689q0 -20 -27 -44q-61 -54 -95 -120q-5 1 -13 1q-4 0 -18 -2q34 97 45 145q5 25 19 32q10 5 40 5q49 0 49 -17zM423 243q0 -124 -55 -189q-52 -60 -143 -60q-95 0 -146.5 63.5t-51.5 182.5q0 114 46 180q53 74 158 74q192 0 192 -251zM315 242q0 184 -40 218
q-15 13 -44 13q-32 0 -49 -14q-46 -38 -46 -222q0 -168 42 -207q16 -15 44 -15q35 0 52 20q41 49 41 207z" />
    <glyph glyph-name="ocircumflex" unicode="&#xf4;" horiz-adv-x="450" 
d="M329 522q-22 3 -39 3q-19 0 -35 -2q-12 35 -38 87q-8 17 -9 17l-6 -10q-18 -30 -41 -94q-5 1 -14 1q-10 0 -19 -2q54 95 89 185q6 -3 8 -3q1 0 10 3q35 -88 94 -185zM423 243q0 -124 -55 -189q-52 -60 -143 -60q-95 0 -146.5 63.5t-51.5 182.5q0 114 46 180q53 74 158 74
q192 0 192 -251zM315 242q0 184 -40 218q-15 13 -44 13q-32 0 -49 -14q-46 -38 -46 -222q0 -168 42 -207q16 -15 44 -15q35 0 52 20q41 49 41 207z" />
    <glyph glyph-name="otilde" unicode="&#xf5;" horiz-adv-x="450" 
d="M365 662q-21 -57 -36 -77q-18 -25 -45 -25q-22 0 -63.5 20.5t-58.5 20.5q-26 0 -44 -43q-11 9 -19 10q19 52 32 72q19 28 47 28q21 0 61.5 -22t56.5 -22q26 0 51 48q6 -7 18 -10zM423 243q0 -124 -55 -189q-52 -60 -143 -60q-95 0 -146.5 63.5t-51.5 182.5q0 114 46 180
q53 74 158 74q192 0 192 -251zM315 242q0 184 -40 218q-15 13 -44 13q-32 0 -49 -14q-46 -38 -46 -222q0 -168 42 -207q16 -15 44 -15q35 0 52 20q41 49 41 207z" />
    <glyph glyph-name="odieresis" unicode="&#xf6;" horiz-adv-x="450" 
d="M360 633q0 -21 -13 -36.5t-37 -15.5q-49 0 -49 52q0 22 13 37.5t36 15.5q24 0 37 -16t13 -37zM198 633q0 -21 -13 -36.5t-37 -15.5q-49 0 -49 52q0 22 13 37.5t36 15.5q24 0 37 -16t13 -37zM423 243q0 -124 -55 -189q-52 -60 -143 -60q-95 0 -146.5 63.5t-51.5 182.5
q0 114 46 180q53 74 158 74q192 0 192 -251zM315 242q0 184 -40 218q-15 13 -44 13q-32 0 -49 -14q-46 -38 -46 -222q0 -168 42 -207q16 -15 44 -15q35 0 52 20q41 49 41 207z" />
    <glyph glyph-name="divide" unicode="&#xf7;" horiz-adv-x="547" 
d="M319 447q0 -17 -12.5 -29.5t-30.5 -12.5t-30.5 12.5t-12.5 29.5t12.5 29.5t30.5 12.5t30.5 -12.5t12.5 -29.5zM518 264q-96 5 -227 5q-130 0 -262 -5q3 12 3 27q0 13 -3 28q131 -5 262 -5q132 0 227 5q-3 -12 -3 -26q0 -13 3 -29zM319 133q0 -18 -12.5 -30.5t-30.5 -12.5
t-30.5 12.5t-12.5 30.5q0 17 12.5 29.5t30.5 12.5t30.5 -12.5t12.5 -29.5z" />
    <glyph glyph-name="oslash" unicode="&#xf8;" horiz-adv-x="450" 
d="M428 472l-36 -42q-7 -8 -7 -16q0 -5 2 -10q34 -77 34 -161q0 -124 -56 -189q-51 -60 -143 -60q-74 0 -122 39q-1 1 -5 6.5t-6 5.5q-1 0 -17 -23q-8 -12 -22 -32q-10 16 -25 26q13 15 38 43q4 4 5 10q0 -1 -7 11q-36 61 -36 160q0 114 46 180q53 74 158 74q78 0 124 -42
l10 -9q2 0 16 20q9 12 24 34q6 -20 25 -25zM304 382q0 18 -9.5 42.5t-21.5 35.5q-15 13 -45 13q-32 0 -49 -14q-45 -37 -45 -222q0 -13 1 -34v-30q0 -2 -1 -10.5t-1 -11.5q0 -4 2 -4q1 0 4 5t11 16q45 57 144 185q10 13 10 29zM314 330l-3 3q-4 -7 -10 -15
q-71 -89 -145 -186q-12 -16 -12 -29q0 -16 10 -39t22 -34q16 -15 44 -15q35 0 52 20q41 49 41 207q0 11 -1 33t-1 33q0 5 1.5 12t1.5 10z" />
    <glyph glyph-name="ugrave" unicode="&#xf9;" horiz-adv-x="523" 
d="M283 524q-14 2 -18 2q-8 0 -13 -1q-34 66 -95 120q-28 25 -28 44q0 17 49 17q30 0 40 -5q15 -7 20 -32q11 -48 45 -145zM507 30q-2 -8 -2 -14q0 -10 1 -16q-24 2 -65 2q-52 0 -114 -6q0 9 3 64q1 2 2 6q-1 4 -2 4q-2 0 -7 -9q-35 -69 -127 -69q-63 0 -90.5 39t-27.5 121
q0 26 1 78v78q0 78 -3 134q-1 13 -10 13q-35 0 -50 -3q2 10 2 16q0 7 -2 15q46 -5 122 -5q-11 0 45 3q-5 -106 -5 -276q0 -69 6 -121t51 -52q68 0 89 107q11 57 11 145q0 58 -5 151q-1 14 -3 17t-12 3q-39 0 -54 -3q2 11 2 16q0 7 -2 16q38 -5 109 -5q15 0 64 4
q-5 -160 -5 -236q0 -104 4 -199q1 -22 17 -22q27 0 57 4z" />
    <glyph glyph-name="uacute" unicode="&#xfa;" horiz-adv-x="523" 
d="M367 689q0 -19 -28 -44q-61 -54 -95 -120q-5 1 -13 1q-4 0 -18 -2q34 97 45 145q5 25 20 32q10 5 40 5q49 0 49 -17zM507 30q-2 -8 -2 -14q0 -10 1 -16q-24 2 -65 2q-52 0 -114 -6q0 9 3 64q1 2 2 6q-1 4 -2 4q-2 0 -7 -9q-35 -69 -127 -69q-63 0 -90.5 39t-27.5 121
q0 26 1 78v78q0 78 -3 134q-1 13 -10 13q-35 0 -50 -3q2 10 2 16q0 7 -2 15q46 -5 122 -5q-11 0 45 3q-5 -106 -5 -276q0 -69 6 -121t51 -52q68 0 89 107q11 57 11 145q0 58 -5 151q-1 14 -3 17t-12 3q-39 0 -54 -3q2 11 2 16q0 7 -2 16q38 -5 109 -5q15 0 64 4
q-5 -160 -5 -236q0 -104 4 -199q1 -22 17 -22q27 0 57 4z" />
    <glyph glyph-name="ucircumflex" unicode="&#xfb;" horiz-adv-x="523" 
d="M345 522q-22 3 -40 3t-34 -2q-12 35 -38 87q-8 17 -9 17l-6 -10q-21 -35 -42 -94q-5 1 -14 1t-18 -2q54 95 89 185q6 -3 8 -3q1 0 10 3q35 -88 94 -185zM507 30q-2 -8 -2 -14q0 -10 1 -16q-24 2 -65 2q-52 0 -114 -6q0 9 3 64q1 2 2 6q-1 4 -2 4q-2 0 -7 -9
q-35 -69 -127 -69q-63 0 -90.5 39t-27.5 121q0 26 1 78v78q0 78 -3 134q-1 13 -10 13q-35 0 -50 -3q2 10 2 16q0 7 -2 15q46 -5 122 -5q-11 0 45 3q-5 -106 -5 -276q0 -69 6 -121t51 -52q68 0 89 107q11 57 11 145q0 58 -5 151q-1 14 -3 17t-12 3q-39 0 -54 -3q2 11 2 16
q0 7 -2 16q38 -5 109 -5q15 0 64 4q-5 -160 -5 -236q0 -104 4 -199q1 -22 17 -22q27 0 57 4z" />
    <glyph glyph-name="udieresis" unicode="&#xfc;" horiz-adv-x="523" 
d="M376 633q0 -21 -13 -36.5t-37 -15.5t-37 15.5t-13 36.5t13 37t37 16t37 -16t13 -37zM214 633q0 -21 -13 -36.5t-37 -15.5t-37 15.5t-13 36.5t13 37t37 16t37 -16t13 -37zM507 30q-2 -8 -2 -14q0 -10 1 -16q-24 2 -65 2q-52 0 -114 -6q0 9 3 64q1 2 2 6q-1 4 -2 4
q-2 0 -7 -9q-35 -69 -127 -69q-63 0 -90.5 39t-27.5 121q0 26 1 78v78q0 78 -3 134q-1 13 -10 13q-35 0 -50 -3q2 10 2 16q0 7 -2 15q46 -5 122 -5q-11 0 45 3q-5 -106 -5 -276q0 -69 6 -121t51 -52q68 0 89 107q11 57 11 145q0 58 -5 151q-1 14 -3 17t-12 3q-39 0 -54 -3
q2 11 2 16q0 7 -2 16q38 -5 109 -5q15 0 64 4q-5 -160 -5 -236q0 -104 4 -199q1 -22 17 -22q27 0 57 4z" />
    <glyph glyph-name="yacute" unicode="&#xfd;" horiz-adv-x="472" 
d="M350 689q0 -19 -28 -44q-61 -54 -95 -120q-5 1 -13 1q-4 0 -18 -2q34 97 45 145q5 25 20 32q10 5 40 5q49 0 49 -17zM457 454q-25 5 -37 5t-19 -12t-20 -51q-20 -61 -124 -449q-8 -28 -15 -56q-10 -32 -22 -54q-31 -55 -85 -55q-79 0 -79 72q0 64 42 64q53 0 53 -87
q0 -24 7 -24q4 0 15 8q22 16 43 83q3 10 25 94q2 8 2 12q0 5 -3 13l-118 320q-30 77 -49 111q-5 8 -15 8q-18 0 -42 -5q2 9 2 16q0 4 -2 16q48 -5 131 -5q70 0 115 6q-2 -11 -2 -18q0 -4 3 -14q-34 5 -50 5q-15 0 -15 -9q0 -12 24 -89q13 -40 58 -171q2 -10 5 -29q0 -3 2 -7
q2 1 4 10q17 65 48 195q13 63 13 91q0 12 -12 12q-11 0 -43 -6q3 10 3 15q0 2 -3 14q25 -2 90 -2q51 0 70 2q-2 -9 -2 -14t2 -15z" />
    <glyph glyph-name="thorn" unicode="&#xfe;" horiz-adv-x="473" 
d="M446 241q0 -254 -171 -254q-73 0 -95 57q-1 2 -2 2q-2 0 -2 -3v-111q0 -68 3 -112q1 -20 22 -20q10 0 33 5q-3 -18 0 -32q-38 5 -99 5q-69 0 -116 -5q5 14 0 32q30 -6 36 -6q20 0 21 20q2 69 2 144v39q0 475 -12 660q-1 20 -16 20q-14 0 -34 -3q2 14 2 16q0 5 -2 12
q25 -1 56 -1q52 0 106 5q-2 -27 -4 -69q-2 -73 -5 -218v-5q0 -2 3 0q19 72 109 72q165 0 165 -250zM340 224q0 142 -26 193q-19 38 -64 38q-54 0 -70 -98q-6 -38 -6 -105q0 -85 10 -150q13 -81 75 -81q42 0 58 31q23 43 23 172z" />
    <glyph glyph-name="ydieresis" unicode="&#xff;" horiz-adv-x="472" 
d="M376 621q0 -21 -13 -36.5t-37 -15.5q-49 0 -49 52q0 22 13 37.5t36 15.5q24 0 37 -16t13 -37zM214 621q0 -21 -13 -36.5t-37 -15.5q-49 0 -49 52q0 22 13 37.5t36 15.5q24 0 37 -16t13 -37zM457 454q-25 5 -37 5t-19 -12t-20 -51q-20 -61 -124 -449q-8 -28 -15 -56
q-10 -32 -22 -54q-31 -55 -85 -55q-79 0 -79 72q0 64 42 64q53 0 53 -87q0 -24 7 -24q4 0 15 8q22 16 43 83q3 10 25 94q2 8 2 12q0 5 -3 13l-118 320q-30 77 -49 111q-5 8 -15 8q-18 0 -42 -5q2 9 2 16q0 4 -2 16q48 -5 131 -5q70 0 115 6q-2 -11 -2 -18q0 -4 3 -14
q-34 5 -50 5q-15 0 -15 -9q0 -12 24 -89q13 -40 58 -171q2 -10 5 -29q0 -3 2 -7q2 1 4 10q17 65 48 195q13 63 13 91q0 12 -12 12q-11 0 -43 -6q3 10 3 15q0 2 -3 14q25 -2 90 -2q51 0 70 2q-2 -9 -2 -14t2 -15z" />
    <glyph glyph-name="dotlessi" unicode="&#x131;" horiz-adv-x="276" 
d="M260 -1q-38 5 -115 5q-91 0 -129 -4q1 7 1 15q0 10 -1 17q28 -7 46 -7q25 0 26 27q4 92 4 195q0 106 -4 192q-1 21 -22 21q-6 0 -24 -1.5t-25 -1.5q2 8 2 14q0 7 -2 16q30 -2 79 -2q53 0 98 4q-5 -136 -5 -248q0 -94 4 -189q1 -26 21 -26q14 0 45 5q-1 -6 -1 -16
q0 -6 2 -16z" />
    <glyph glyph-name="Lslash" unicode="&#x141;" horiz-adv-x="547" 
d="M527 0q-52 0 -166.5 2t-172.5 2q-97 0 -172 -4q3 8 3 17t-3 14q7 0 22 -2q12 -2 19 -2q27 0 28 71q-1 47 -3 94q0 7 2 21.5t2 21.5q0 3 -3 3q-4 0 -33 -34l-34 -40q5 39 5 36q0 10 -4 20q17 15 50 47q16 15 16 37v95q0 174 -3 262q-1 18 -20 18q-6 0 -21 -2t-23 -2
q3 9 3 16q0 8 -3 15q73 -4 133 -4q61 0 116 4q-2 -12 -2 -17q0 -6 2 -14q-7 0 -21 2.5t-21 2.5q-22 0 -23 -17q-3 -54 -6 -215q0 -9 -3 -28.5t-3 -29.5q1 -2 2 -2l42.5 44t126.5 132q-6 -27 -6 -34q0 -9 4 -22q-62 -58 -144 -140q-13 -13 -16.5 -24.5t-3.5 -43.5
q0 -126 7 -251q1 -19 49 -19q144 0 189 41t65 192q6 -2 12 -2q5 0 12 2q-3 -60 -3 -139q0 -80 3 -124z" />
    <glyph glyph-name="lslash" unicode="&#x142;" horiz-adv-x="246" 
d="M245 495q-6 -24 -6 -35q0 -10 4 -22q-19 -17 -59 -54q-11 -11 -11 -28q0 -194 3 -310q0 -19 20 -19q10 0 34 4q-2 -11 -2 -17t2 -14q-37 4 -97 4q-64 0 -117 -4q2 10 2 16q0 7 -2 16q24 -6 32 -6q19 0 20 17q4 93 5 164q0 24 4 64q0 2 -2 3q-2 0 -5 -3t-69 -79q6 25 6 35
t-4 21q30 26 55 51q15 15 15 37v44q0 170 -5 278q-1 24 -17 24q-4 0 -35 -4q2 7 2 13q0 5 -2 15q32 -1 48 -1q59 0 113 5q-4 -86 -4 -245q0 -8 -1.5 -23.5t-1.5 -23.5q0 -2 2 -2q-1 0 21 23q15 16 52 56z" />
    <glyph glyph-name="OE" unicode="&#x152;" horiz-adv-x="947" 
d="M901 247q-10 -95 -10 -180q0 -35 3 -67q-79 3 -241 3q-144 0 -195 -1q-22 0 -62 -6.5t-59 -6.5q-139 0 -215 118q-65 100 -65 244q0 151 64 249q75 116 217 116q27 0 69 -9q14 -3 49 -4t101 -1q56 0 155 2q105 2 155 2q-5 -35 -5 -76q0 -78 11 -149q-16 2 -12 2
q-2 0 -13 -4q-3 26 -10 71q-15 61 -49 89q-38 31 -114 34q-9 0 -34 2q-20 1 -33 1q-28 0 -33 -4t-6 -23q-8 -135 -8 -246q0 -21 3.5 -25.5t18.5 -4.5q57 0 82 13q33 17 39 68q4 31 4 73q7 -1 15 -1t14 1q-8 -99 -8 -181q0 -83 8 -159q-5 1 -14 1q-8 0 -15 -1q0 55 -2 79
q-4 51 -40 69q-25 13 -83 13q-16 0 -19 -4.5t-3 -24.5q0 -5 1 -60q2 -107 7 -199q1 -21 12 -25t67 -4q105 0 144 22q54 30 75 133q6 30 7 60q10 -2 11 -2q3 0 16 3zM455 361q0 139 -2 225q-1 61 -33 83.5t-79 22.5q-138 1 -162 -193q-8 -64 -8 -142q0 -182 37 -259
q40 -84 130 -84q53 0 86 29q27 24 29 105q2 106 2 213z" />
    <glyph glyph-name="oe" unicode="&#x153;" horiz-adv-x="717" 
d="M691 266q-89 6 -246 6q-16 0 -19 -2t-3 -12q0 -157 32 -205q22 -34 90 -34q73 0 104 110q11 -11 30 -11q-16 -64 -59 -97.5t-101 -33.5q-100 0 -139 53l-3 4q-6 8 -11 8t-11 -7l-3 -4q-37 -47 -127 -47q-95 0 -146.5 63.5t-51.5 182.5q0 114 46 180q53 74 158 74
q94 0 129 -48l13 -17q4 0 12 14q29 52 126 52q167 0 180 -229zM577 329q0 143 -69 143q-34 0 -57 -41q-26 -45 -26 -127q0 -10 8 -10q14 0 121 10q16 2 19.5 5t3.5 20zM315 242q0 184 -40 218q-15 13 -44 13q-32 0 -49 -14q-46 -38 -46 -222q0 -168 42 -207q16 -15 44 -15
q35 0 52 20q41 49 41 207z" />
    <glyph glyph-name="Scaron" unicode="&#x160;" horiz-adv-x="508" 
d="M332 893q-57 -75 -90 -139q-5 2 -8 2q-1 0 -9 -2q-34 64 -94 138q19 -2 39 -2q13 0 35 2q13 -29 38 -66l8 -12l6 7q20 25 42 71q6 -1 14 -1q6 0 19 2zM451 209q0 -105 -61.5 -163.5t-173.5 -58.5q-72 0 -172 48q3 22 3 59q0 61 -11 144q9 -2 13 -2q6 0 14 2
q31 -219 178 -219q130 0 130 132q0 61 -47 100q-24 20 -99 55q-92 44 -125 75q-54 52 -54 136q0 98 52 150t146 52q58 0 155 -44q-7 -46 -7 -103q0 -35 3 -57q-14 1 -28 -1q-12 178 -135 178q-115 0 -115 -120q0 -50 42 -82q13 -10 85 -45q114 -56 145 -84q62 -56 62 -152z
" />
    <glyph glyph-name="scaron" unicode="&#x161;" horiz-adv-x="380" 
d="M283 707q-54 -95 -89 -185q-6 3 -8 3q-1 0 -10 -3q-35 88 -94 185q22 -3 39 -3q19 0 35 2q12 -35 38 -87q8 -17 9 -17l6 10q21 35 42 94q5 -1 14 -1t18 2zM353 155q0 -79 -45 -122t-121 -43q-53 0 -145 33q2 19 2 40q0 38 -7 110q4 -1 11 -1q6 0 14 3q4 -68 31 -110
q33 -51 94 -51q46 0 67 18q25 21 25 74q0 50 -73 82q-96 42 -109 51q-53 37 -53 102q0 75 39.5 114.5t109.5 39.5q52 0 130 -28q-9 -42 -9 -81q0 -17 4 -42q-5 1 -11 1t-10 -1q-20 127 -107 127q-32 0 -54 -15q-28 -20 -28 -60q0 -54 75 -86q20 -8 59 -23q54 -22 78 -47
q33 -32 33 -85z" />
    <glyph glyph-name="Ydieresis" unicode="&#x178;" horiz-adv-x="571" 
d="M437 826q0 -21 -13 -37t-37 -16t-37 16t-13 37t13 36.5t37 15.5t37 -15.5t13 -36.5zM275 826q0 -21 -13 -37t-37 -16t-37 16t-13 37t13 36.5t37 15.5t37 -15.5t13 -36.5zM554 676q-39 4 -46 4q-11 0 -22 -19q-34 -58 -128 -275q-9 -20 -9 -38v-64q0 -123 6 -234
q1 -23 22 -23q6 0 25 2t28 2q-2 -9 -2 -17q0 -3 3 -14q-56 4 -127 4q-69 0 -143 -4q3 14 3 16q0 4 -3 15q7 0 26 -2t25 -2q22 0 23 20q3 77 3 177v62q-1 51 -1 63q0 20 -8 36l-102 201q-8 16 -46 80q-8 13 -22 13q-4 0 -42 -3q2 8 2 14q0 7 -2 16q46 -2 136 -2q89 0 129 2
q-3 -12 -3 -16q0 -6 3 -14q-46 2 -47 2q-14 0 -14 -7q0 -18 26 -77q7 -16 75 -157q1 -2 5.5 -17.5t6.5 -15.5q4 1 5 4t2 9q35 79 44 103q27 67 48 142q1 4 1 7q0 10 -15 10q-5 0 -20 -1q-18 -2 -24 -2q2 8 2 15q0 5 -2 15q32 -3 82 -3t97 3q-2 -13 -2 -16q0 -5 2 -14z" />
    <glyph glyph-name="Zcaron" unicode="&#x17d;" horiz-adv-x="571" 
d="M372 893q-57 -75 -90 -139q-5 2 -8 2q-1 0 -9 -2q-34 64 -94 138q19 -2 39 -2q13 0 35 2q13 -29 38 -66l8 -12l6 7q20 25 42 71q6 -1 14 -1q6 0 19 2zM525 0q-129 3 -261 3q-129 0 -244 -3q0 5 -3 16q17 15 38 54q142 260 285 553q4 8 20 33q7 11 7 16q0 4 -5 4h-15
q-70 0 -96 -2q-59 -5 -91 -22q-71 -36 -71 -166q-9 2 -12 2q-1 0 -12 -2q5 47 5 116q0 62 -5 104q92 -4 228 -4q120 0 207 4q0 -7 6 -15q-9 -13 -27 -42q-167 -308 -296 -577q-6 -13 -19 -32q-5 -7 -5 -11q0 -3 4 -3q1 0 4 1h6q174 0 231 30q89 46 93 203q13 -2 14 -2
q4 0 14 1q-7 -80 -7 -137q0 -58 7 -122z" />
    <glyph glyph-name="zcaron" unicode="&#x17e;" horiz-adv-x="408" 
d="M306 707q-54 -95 -89 -185q-6 3 -8 3q-1 0 -10 -3q-35 88 -94 185q22 -3 39 -3q19 0 35 2q12 -35 38 -87q8 -17 9 -17l6 10q18 30 41 94q5 -1 14 -1q10 0 19 2zM392 0q-89 3 -191 3q-86 0 -173 -3q-1 10 -6 14q20 29 31 48q36 63 212 390q2 4 2 5q0 2 -2 2q-5 -1 -4 -1
q-99 0 -132 -21q-44 -28 -47 -123q-11 2 -17 2q-1 0 -11 -2q4 37 4 81q0 42 -4 88q71 -3 181 -3q88 0 150 3q1 -8 4 -15q-93 -164 -124 -222q-22 -43 -108 -210q-3 -6 -3 -8t2 -2q-2 0 5 1q119 0 152 21q49 30 52 142q8 -2 13 -2t14 2q-4 -41 -4 -90q0 -48 4 -100z" />
    <glyph glyph-name="florin" unicode="&#x192;" horiz-adv-x="351" 
d="M428 605q0 -21 -12 -36.5t-29 -15.5q-18 0 -32.5 14.5t-14.5 38.5q0 9 6.5 26.5t5.5 32.5t-23 15q-31 0 -47 -52q-11 -37 -21 -135q-1 -11 1.5 -13t14.5 -2q39 1 71 3q-7 -17 -5 -32q-25 2 -68 4q-13 0 -15.5 -1.5t-3.5 -11.5q-22 -291 -71 -430q-68 -190 -174 -190
q-35 0 -61 27t-26 67q0 24 11 40t30 16t32 -15.5t13 -33.5q0 -8 -3 -24t-3 -24q0 -18 4.5 -22t21.5 -4q65 0 92 159q12 70 28 262q4 54 16 172q1 13 -8 13h-10q-16 0 -62 -4q6 16 5 32q21 -2 60 -3q14 0 17.5 2t6.5 14q48 206 154 206q40 0 69.5 -27.5t29.5 -67.5z" />
    <glyph glyph-name="circumflex" unicode="&#x2c6;" 
d="M206 522q-22 3 -39 3q-19 0 -35 -2q-12 35 -38 87q-8 17 -9 17l-6 -10q-21 -35 -42 -94q-5 1 -14 1t-18 -2q54 95 89 185q6 -3 8 -3q1 0 10 3q35 -88 94 -185z" />
    <glyph glyph-name="caron" unicode="&#x2c7;" 
d="M206 707q-54 -95 -89 -185q-6 3 -8 3q-1 0 -10 -3q-35 88 -94 185q22 -3 39 -3q19 0 35 2q12 -35 38 -87l8 -17l6 10q21 35 42 94q5 -1 14 -1q10 0 19 2z" />
    <glyph glyph-name="breve" unicode="&#x2d8;" 
d="M211 679q-4 -128 -105 -128q-52 0 -81 40q-24 35 -26 87q14 -4 16 -4q3 0 14 4q19 -60 77 -60q56 0 77 60l14 -4q2 0 14 5z" />
    <glyph glyph-name="dotaccent" unicode="&#x2d9;" 
d="M153 619q0 -19 -14.5 -32.5t-34.5 -13.5t-34.5 13.5t-14.5 32.5t14.5 32.5t34.5 13.5t34.5 -13.5t14.5 -32.5z" />
    <glyph glyph-name="ring" unicode="&#x2da;" 
d="M193 620q0 -35 -22 -60q-24 -28 -66 -28q-41 0 -64 26t-23 61t23 61.5t64 26.5q42 0 65 -26t23 -61zM156 619q0 22 -13 38t-37 16q-50 0 -50 -53q0 -22 13 -38t37 -16t37 15.5t13 37.5z" />
    <glyph glyph-name="ogonek" unicode="&#x2db;" 
d="M181 -126q-54 -31 -78 -31q-34 0 -54 23q-16 19 -16 44q0 38 58 98q8 -2 16 -2q10 0 27 4q-15 -18 -31 -36q-17 -23 -17 -42q0 -51 50 -51q8 0 36 11q2 -9 9 -18z" />
    <glyph glyph-name="tilde" unicode="&#x2dc;" 
d="M238 662q-21 -57 -36 -77q-18 -25 -45 -25q-22 0 -63.5 20.5t-58.5 20.5q-26 0 -44 -43q-11 9 -19 10q19 52 32 72q19 28 47 28q21 0 61.5 -22t56.5 -22q26 0 51 48q6 -7 18 -10z" />
    <glyph glyph-name="hungarumlaut" unicode="&#x2dd;" 
d="M241 680q0 -14 -20 -37l-103 -119h-30l45 144q12 38 40 38h38q30 0 30 -26zM121 680q0 -14 -20 -37l-102 -119h-30l44 144q12 38 40 38h39q29 0 29 -26z" />
    <glyph glyph-name="endash" unicode="&#x2013;" horiz-adv-x="425" 
d="M409 241q-73 3 -179 3t-214 -3q3 13 3 23q0 8 -3 24q103 -3 211 -3q107 0 182 3q-4 -15 -4 -25q0 -11 4 -22z" />
    <glyph glyph-name="emdash" unicode="&#x2014;" horiz-adv-x="596" 
d="M580 241q-99 3 -297 3q-190 0 -267 -3q4 16 4 23t-4 24q92 -3 265 -3q178 0 299 3q-3 -16 -3 -25q0 -11 3 -22z" />
    <glyph glyph-name="quoteleft" unicode="&#x2018;" horiz-adv-x="193" 
d="M169 463q0 -28 -18.5 -49t-51.5 -21t-54 30t-21 79q0 122 125 204q2 -11 14 -23q-98 -74 -98 -156q0 -12 5 -12q5 3 12 7q11 6 23 6q30 0 47 -19.5t17 -45.5z" />
    <glyph glyph-name="quoteright" unicode="&#x2019;" horiz-adv-x="193" 
d="M169 604q0 -122 -125 -204q-2 11 -15 24q99 75 99 156q0 11 -6 11l-11 -6t-24 -6q-30 0 -46.5 19t-16.5 45q0 28 18.5 49.5t50.5 21.5q33 0 54.5 -30.5t21.5 -79.5z" />
    <glyph glyph-name="quotesinglbase" unicode="&#x201a;" horiz-adv-x="193" 
d="M169 9q0 -122 -125 -204q-2 11 -15 24q99 75 99 156q0 11 -6 11l-11 -6t-24 -6q-30 0 -46.5 19t-16.5 45q0 28 18.5 49.5t50.5 21.5q33 0 54.5 -30.5t21.5 -79.5z" />
    <glyph glyph-name="quotedblleft" unicode="&#x201c;" horiz-adv-x="369" 
d="M350 473q0 -28 -18.5 -49t-51.5 -21t-54 30t-21 79q0 122 125 204q2 -11 14 -23q-98 -74 -98 -156q0 -12 5 -12q5 3 12 7q11 6 23 6q30 0 47 -19.5t17 -45.5zM169 473q0 -28 -18.5 -49t-51.5 -21t-54 30t-21 79q0 122 125 204q2 -11 14 -23q-98 -74 -98 -156q0 -12 5 -12
q5 3 12 7q11 6 23 6q30 0 47 -19.5t17 -45.5z" />
    <glyph glyph-name="quotedblright" unicode="&#x201d;" horiz-adv-x="369" 
d="M344 604q0 -122 -125 -204q-2 11 -15 24q99 75 99 156q0 11 -6 11l-11 -6t-24 -6q-30 0 -46.5 19t-16.5 45q0 28 18.5 49.5t50.5 21.5q33 0 54.5 -30.5t21.5 -79.5zM169 604q0 -122 -125 -204q-2 11 -15 24q99 75 99 156q0 11 -6 11l-11 -6t-24 -6q-30 0 -46.5 19
t-16.5 45q0 28 18.5 49.5t50.5 21.5q33 0 54.5 -30.5t21.5 -79.5z" />
    <glyph glyph-name="quotedblbase" unicode="&#x201e;" horiz-adv-x="369" 
d="M344 9q0 -122 -125 -204q-2 11 -15 24q99 75 99 156q0 11 -6 11l-11 -6t-24 -6q-30 0 -46.5 19t-16.5 45q0 28 18.5 49.5t50.5 21.5q33 0 54.5 -30.5t21.5 -79.5zM169 9q0 -122 -125 -204q-2 11 -15 24q99 75 99 156q0 11 -6 11l-11 -6t-24 -6q-30 0 -46.5 19t-16.5 45
q0 28 18.5 49.5t50.5 21.5q33 0 54.5 -30.5t21.5 -79.5z" />
    <glyph glyph-name="dagger" unicode="&#x2020;" horiz-adv-x="395" 
d="M378 431q0 -21 -15 -37.5t-38 -16.5q-16 0 -52 18.5t-53 18.5q-5 0 -5 -13q0 -30 17 -186q22 -202 22 -250q0 -51 -16.5 -80.5t-40.5 -29.5q-23 0 -38.5 27t-15.5 75q0 63 22 255q16 139 16 185q0 17 -6 17q-9 0 -47 -19t-55 -19q-24 0 -40 16.5t-16 37.5q0 20 15 35.5
t37 15.5q19 0 56.5 -19.5t49.5 -19.5q5 0 5 8q0 6 -5 37q-2 15 -19 82q-14 53 -14 80q0 67 56 67t56 -67q0 -26 -14 -81q-17 -65 -20 -83q-5 -35 -5 -34q0 -7 5 -7q9 0 49 18.5t58 18.5q22 0 36.5 -15t14.5 -35z" />
    <glyph glyph-name="daggerdbl" unicode="&#x2021;" horiz-adv-x="395" 
d="M378 199q0 -20 -15 -35t-37 -15q-19 0 -56.5 19t-49.5 19q-5 0 -5 -8l5 -38q2 -18 20 -103q13 -65 13 -102q0 -81 -56 -81t-56 81q0 39 14 104q17 79 20 103q5 42 5 36q0 6 -5 6q-9 0 -48 -18t-59 -18q-22 0 -36.5 15t-14.5 35q0 21 15 37t38 16q18 0 53 -18t52 -18
q4 0 4 3v2q-1 2 -1 4q0 15 -7.5 44.5t-7.5 44.5q0 16 8.5 45.5t8.5 42.5q0 12 -5 12q-9 0 -47 -19t-55 -19q-24 0 -40 16.5t-16 37.5q0 20 15 35.5t37 15.5q19 0 56.5 -19.5t49.5 -19.5q5 0 5 8q0 6 -5 37q-2 15 -19 82q-14 53 -14 80q0 67 56 67t56 -67q0 -26 -14 -81
q-17 -65 -20 -83q-5 -35 -5 -34q0 -7 5 -7q9 0 49 18.5t58 18.5q22 0 36.5 -15t14.5 -35q0 -21 -15 -37.5t-38 -16.5q-16 0 -52 18.5t-53 18.5q-3 0 -3 -3v-7q0 -15 8 -44.5t8 -44.5t-9 -44t-9 -44q0 -11 5 -11q11 0 48 18.5t54 18.5q24 0 40 -16.5t16 -37.5z" />
    <glyph glyph-name="bullet" unicode="&#x2022;" horiz-adv-x="263" 
d="M238 350q0 -42 -30.5 -72t-74.5 -30t-74.5 30t-30.5 72t30.5 72t74.5 30t74.5 -30t30.5 -72z" />
    <glyph glyph-name="ellipsis" unicode="&#x2026;" horiz-adv-x="830" 
d="M762 58q0 -27 -17 -47t-47 -20q-31 0 -47.5 20.5t-16.5 47.5t17 47.5t47 20.5t47 -21t17 -48zM479 58q0 -27 -17 -47t-47 -20q-31 0 -47.5 20.5t-16.5 47.5t17 47.5t47 20.5t47 -21t17 -48zM196 58q0 -27 -17 -47t-47 -20q-31 0 -47.5 20.5t-16.5 47.5t17 47.5t47 20.5
t47 -21t17 -48z" />
    <glyph glyph-name="perthousand" unicode="&#x2030;" horiz-adv-x="910" 
d="M923 194q0 -201 -134 -201q-60 0 -96 47q-40 54 -40 158q0 99 35.5 151t98.5 52q136 0 136 -207zM623 194q0 -201 -134 -201q-60 0 -96 47q-40 54 -40 158q0 99 35.5 151t98.5 52q136 0 136 -207zM485 689q-149 -324 -293 -690q-14 4 -22 4t-27 -4q132 284 294 690
q13 -4 19 -4q7 0 29 4zM277 489q0 -201 -134 -201q-60 0 -96 47q-40 54 -40 158q0 102 39 155q36 48 95 48q60 0 95 -45q41 -53 41 -162zM842 192q0 111 -17 153q-13 32 -39 32q-53 0 -53 -179q0 -182 56 -182q27 0 38 30q15 40 15 146zM542 192q0 111 -17 153
q-13 32 -39 32q-53 0 -53 -179q0 -182 56 -182q27 0 38 30q15 40 15 146zM196 488q0 110 -16 152q-12 32 -40 32q-25 0 -38 -32q-15 -42 -15 -147q0 -104 16 -146q12 -35 40 -35q25 0 37 30q16 40 16 146z" />
    <glyph glyph-name="guilsinglleft" unicode="&#x2039;" horiz-adv-x="223" 
d="M198 122q-13 -6 -24 -23q-29 47 -147 156q1 5 1 11t-1 11q116 107 147 157q12 -18 24 -24q-41 -38 -57 -65q-21 -35 -21 -78q0 -44 21 -79q16 -28 57 -66z" />
    <glyph glyph-name="guilsinglright" unicode="&#x203a;" horiz-adv-x="223" 
d="M196 255q-34 -31 -66 -63q-63 -63 -81 -93q-11 17 -24 23q40 38 57 66q20 35 20 79t-20 78q-17 27 -57 65q12 6 24 24q31 -50 147 -157q-2 -9 -2 -11t2 -11z" />
    <glyph glyph-name="fraction" unicode="&#x2044;" horiz-adv-x="86" 
d="M215 707q-144 -319 -300 -708q-22 7 -44 -2q157 346 300 710q19 -6 44 0z" />
    <glyph glyph-name="Euro" unicode="&#x20ac;" horiz-adv-x="469" 
d="M467 646q-12 -11 -32 -68q-19 -51 -24 -78q-10 3 -21 3h-5q6 35 6 65q0 111 -68 111q-58 0 -96 -81q-35 -76 -35 -181q0 -9 12 -9q28 0 189 5q-8 -9 -8 -26q0 -5 1 -10q-121 4 -175 4q-24 0 -25 -11q-3 -36 -3 -41q0 -13 15 -13q52 0 180 5q-7 -18 -7 -31v-5
q-121 4 -172 4q-15 0 -15 -11q0 -135 39 -202q34 -58 92 -58q87 0 111 107q16 -5 25 -5q7 0 11 2q-32 -135 -167 -135q-196 0 -218 288q-1 13 -14 13q-15 0 -58 -2q7 20 7 28q0 2 -1 7q36 -3 49 -3t13 23q0 4 1 11v10q0 18 -12 18q-20 0 -56 -2q6 17 6 25q0 5 -1 10
q34 -4 55 -4q12 0 14 12q20 125 81 198q66 80 166 80q103 0 140 -53z" />
    <glyph glyph-name="trademark" unicode="&#x2122;" horiz-adv-x="490" 
d="M460 488q-24 3 -47 3t-44 -3q3 9 3 12q0 4 -2 13q11 -2 17 -2q7 0 7 13q0 2 1 26v32q0 30 3 63q-22 -60 -54 -157q-5 1 -8 1t-7 -1q-20 57 -54 156q3 -38 3 -56v-35q0 -16 1 -28.5t13 -12.5q2 0 15 1q-3 -11 -3 -13t4 -12q-19 3 -42 3q-22 0 -41 -3l3 13q0 2 -3 12
q17 -2 16 -2q11 0 11 16v15q1 39 1 63q0 58 -2 72q-1 6 -6 6t-17 -3q2 9 2 12t-2 13q28 -2 34 -2t32 2q10 -32 47 -135q1 -5 3 -19q1 3 2 8q14 43 39 113q5 12 7 32q13 -2 29 -2q18 0 36 3q-3 -12 -3 -13q0 -2 3 -12q-15 3 -17 3q-5 0 -6 -10q-1 -15 -1 -95q0 -53 1 -60
t8 -7q6 0 17 2q-3 -9 -3 -12q0 -5 4 -13zM199 646l-21 -4q-1 41 -33 41q-9 0 -10 -9q-2 -30 -2 -49q0 8 3 -100q0 -14 10 -14q2 0 16 2q-3 -8 -3 -12q0 -2 2 -9l1 -4q-20 3 -46 3t-49 -3q3 10 3 12l-3 13q12 -2 15 -2q11 0 12 15v14q2 54 2 81t-1 51q0 11 -11 11
q-32 0 -35 -41l-19 4q4 31 4 41q0 8 -1 17q38 -3 86 -3q47 0 78 3q-2 -11 -2 -19q0 -16 4 -39z" />
    <glyph glyph-name="fi" unicode="&#xf001;" horiz-adv-x="505" 
d="M490 -1q-38 5 -105 5q-76 0 -114 -4q1 7 1 16t-1 16q28 -7 31 -7q25 0 26 27q4 92 4 195q0 101 -4 187q-1 19 -25 23h-40h-41q-30 -1 -33 -1q-22 0 -22 -11q-1 -34 -1 -88q0 -132 7 -313q1 -19 14 -19q7 0 17.5 2.5t15.5 3.5q-3 -15 -3 -17q0 -4 3 -14q-53 4 -109 4
q-58 0 -95 -4q1 7 1 14t-1 17q50 -6 39 -6q13 0 13 18q3 145 3 243q0 88 -2 161q0 10 -10 10q-8 0 -43 -4q2 10 2 15q0 3 -2 17q32 -3 40 -3q12 0 13 15l4 66q9 149 173 149q42 0 69 -3q46 -5 72.5 -25.5t26.5 -49.5q0 -23 -16 -40t-40 -17q-55 0 -55 54q0 8 2.5 22.5
t2.5 21.5q0 12 -26 13q-1 0 -13 1h-15q-79 0 -84 -120q-3 -71 -3 -73q0 -13 26 -13q173 0 241 6q-5 -136 -5 -248q0 -94 4 -189q1 -26 21 -26q4 0 35 5q-1 -6 -1 -13q0 -9 2 -19z" />
    <glyph glyph-name="fl" unicode="&#xf002;" horiz-adv-x="516" 
d="M500 0q-37 4 -97 4q-64 0 -117 -4q2 10 2 16q0 7 -2 16q24 -6 32 -6q19 0 20 17q5 116 5 337v59q0 13 -9 16q-3 1 -20 1h-125q-22 0 -22 -11q-1 -24 -1 -88q0 -132 7 -313q1 -19 14 -19q-11 0 38 6q-3 -15 -3 -17q0 -4 3 -14q-53 4 -114 4q-58 0 -95 -4q1 7 1 14t-1 17
q50 -6 39 -6q13 0 13 18q3 146 3 243q0 88 -2 161q0 10 -10 10q-8 0 -43 -4q2 10 2 15q0 3 -2 17q32 -3 40 -3q12 0 13 15l5 66q11 149 202 149q-9 0 77 -6q14 -1 22 -1q19 0 72 5q-4 -93 -4 -313q0 -235 3 -351q0 -19 19 -19q11 0 35 4q-2 -11 -2 -17t2 -14zM342 499v77
q-21 13 -21 49v41q0 9 -2 15q-12 8 -49 8q-51 0 -73 -25.5t-26 -94.5l-4 -71q-1 -15 26 -15h120q19 0 24 3t5 13z" />
    </font>
</defs>
</svg>
