<?xml version="1.0" standalone="no"?>
<!DOCTYPE svg PUBLIC "-//W3C//DTD SVG 1.1//EN" "http://www.w3.org/Graphics/SVG/1.1/DTD/svg11.dtd" >
<svg xmlns="http://www.w3.org/2000/svg" xmlns:xlink="http://www.w3.org/1999/xlink" version="1.1">
<metadata>
Created by FontForge 20201107 at Tue Feb 26 19:04:29 2002
 By 
Version 2. Walburn is a trademark of Shinn Type Foundry. Copyright  2002 by Nick Shinn. Published 2002 by Shinn Type Foundry.
</metadata>
<defs>
<font id="WalburnBold" horiz-adv-x="250" >
  <font-face 
    font-family="Walburn"
    font-weight="700"
    font-stretch="normal"
    units-per-em="1000"
    panose-1="0 0 7 0 0 0 0 0 0 0"
    ascent="800"
    descent="-200"
    x-height="483"
    cap-height="706"
    bbox="-133 -260 964 873"
    underline-thickness="50"
    underline-position="-125"
    unicode-range="U+0020-F002"
  />
<missing-glyph horiz-adv-x="500" 
d="M63 0v753h375v-753h-375zM125 63h250v628h-250v-628z" />
    <glyph glyph-name=".notdef" horiz-adv-x="500" 
d="M63 0v753h375v-753h-375zM125 63h250v628h-250v-628z" />
    <glyph glyph-name=".null" horiz-adv-x="0" 
 />
    <glyph glyph-name="nonmarkingreturn" horiz-adv-x="190" 
 />
    <glyph glyph-name="space" unicode=" " horiz-adv-x="190" 
 />
    <glyph glyph-name="exclam" unicode="!" horiz-adv-x="208" 
d="M188 627q0 -24 -20 -142q-15 -69 -29 -138q-22 -105 -23 -154q-4 1 -13 1t-12 -1q-1 41 -22 145q-29 141 -30 147q-18 111 -18 140q0 44 26 69q23 23 56 23q34 0 59.5 -24t25.5 -66zM178 67q0 -31 -22.5 -54t-54.5 -23q-31 0 -53.5 22.5t-22.5 54.5t22.5 54t53.5 22
q32 0 54.5 -22.5t22.5 -53.5z" />
    <glyph glyph-name="quotedbl" unicode="&#x22;" horiz-adv-x="359" 
d="M327 658q0 -10 -2 -19l-48 -224h-16l-47 220q-2 9 -2 23q0 31 16.5 48t39.5 17t41 -17.5t18 -47.5zM148 658q0 -11 -2 -20l-48 -223h-16l-47 220q-3 14 -3 23q0 31 18 49q15 16 38 16q24 0 42 -17t18 -48z" />
    <glyph glyph-name="numbersign" unicode="#" horiz-adv-x="538" 
d="M518 512q-4 -12 -4 -27v-9q-40 6 -120 6q-23 0 -25 -21l-10 -90v-10q0 -10 10 -10q71 0 131 7q-4 -16 -4 -26q0 -5 1 -8q-50 5 -120 5q-15 0 -19 -3.5t-6 -19.5q-9 -64 -11 -132q-12 2 -19 2q-6 0 -20 -2q14 61 24 134v9q0 11 -24 11h-80q-17 0 -20.5 -4t-6.5 -23
q-10 -79 -12 -127q-12 2 -18 2q-5 0 -19 -2q11 55 22 128q1 7 1 14q0 13 -17 13q-73 0 -126 -5q5 12 5 23q0 6 -1 10q40 -6 122 -6q15 0 19 4t6 21l9 85q1 3 1 9q0 12 -16 12q-64 0 -127 -6q5 20 5 28v4q-1 2 -1 4q70 -7 120 -7q17 0 20.5 4.5t5.5 22.5q4 52 11 150
q14 -2 23 -2q11 0 17 1q-25 -108 -25 -163q0 -13 23 -13h76q21 0 25.5 4t6.5 21q7 60 11 152q12 -2 19 -2q12 0 18 1q-23 -128 -23 -165q0 -12 18 -12q58 0 124 8zM343 463v8q0 10 -26 10h-74q-20 0 -23.5 -3t-5.5 -20l-10 -82q-1 -8 -1 -13q0 -12 22 -12h77q20 0 24 3t6 17
z" />
    <glyph glyph-name="dollar" unicode="$" horiz-adv-x="421" 
d="M413 207q0 -169 -143 -209q-3 -1 -18 -4q-26 -5 -26 -20t1 -46.5t1 -45.5q-7 3 -16 3q-6 0 -15 -3q4 56 4 98q0 9 -13.5 10.5t-24.5 2.5q-20 2 -39 5q-26 4 -40 12q-29 16 -48 47q-23 37 -23 80q0 67 46 67q19 0 37 -12q24 -16 24 -46q0 -3 -1 -22t-1 -23q0 -88 73 -88
q9 0 9 9v221q0 27 -4 35t-25 19q-70 38 -102 76q-46 53 -46 128t43 125q40 47 108 61q27 6 27 11q0 1 -1 8t-1 13l-2 73q12 -2 17 -2q4 0 14 2l-2 -74q0 -4 -1 -10v-7q0 -6 9 -8q13 -1 43.5 -5t56.5 -19q51 -30 51 -87q0 -50 -41 -50q-56 0 -62 46q-3 30 -5 60q-8 34 -40 34
q-12 0 -12 -10q-2 -150 -2 -202v-1q0 -22 24 -34q80 -41 113 -77q53 -56 53 -141zM201 482v180q0 8 -6 8q-34 0 -59 -24q-30 -29 -30 -80q0 -59 68 -102q16 -10 20 -10q7 0 7 28zM334 145q0 61 -81 108q-17 10 -22 10q-8 0 -8 -28q0 -56 2 -210q0 -11 6 -11q16 0 32 7
q37 16 54 43.5t17 80.5z" />
    <glyph glyph-name="percent" unicode="%" horiz-adv-x="650" 
d="M640 193q0 -200 -141 -200q-143 0 -143 204q0 201 141 201q143 0 143 -205zM490 688q-152 -332 -290 -688q-10 3 -20 3t-22 -3q128 278 291 688q9 -3 17 -3q11 0 24 3zM294 491q0 -200 -141 -200q-143 0 -143 204q0 201 141 201q143 0 143 -205zM545 191q0 116 -12 156
q-10 33 -37 33q-25 0 -35 -34q-11 -40 -11 -149q0 -111 12 -151q11 -35 37 -35q27 0 36 32q10 36 10 148zM199 489q0 115 -11 154q-10 35 -38 35q-26 0 -35 -34q-11 -39 -11 -149t10.5 -148t38.5 -38q25 0 35 32q11 38 11 148z" />
    <glyph glyph-name="ampersand" unicode="&#x26;" horiz-adv-x="628" 
d="M608 169q0 -80 -42 -131q-38 -46 -87 -46t-106 54q-6 6 -9 6t-9 -7q-48 -53 -141 -53q-84 0 -128 43q-33 32 -51 84q-15 42 -15 75q0 71 25 118q26 51 91 93q10 6 10 14q0 4 -5 17q-29 73 -29 133q0 147 175 147q41 0 66.5 -26t25.5 -66q0 -85 -97 -148q-14 -9 -14 -14
q0 -2 5 -13q60 -129 130 -239q8 -12 11 -12q5 0 10 15q26 75 26 144q0 106 -79 106q-7 0 -25 -2q2 10 2 11q0 3 -2 13q63 -7 127 -7q61 0 120 7q-2 -10 -2 -13t2 -11q-8 1 -23 1q-41 0 -59 -23q-14 -17 -27 -70q-12 -59 -47 -174q-3 -10 -3 -18q0 -14 7 -23q59 -79 88 -79
q58 0 58 106q0 58 -22 109q12 0 22 9q21 -88 21 -130zM328 613q0 85 -51 85q-63 0 -63 -81q0 -27 36 -115q5 -13 10 -13q4 0 13 6q55 36 55 118zM344 72q0 3 -13 19q-81 101 -166 289q-5 11 -9 11t-13 -6q-42 -27 -42 -80q0 -45 28 -112q30 -71 71 -112.5t86 -41.5
q31 0 52 21q6 6 6 12z" />
    <glyph glyph-name="quotesingle" unicode="'" horiz-adv-x="182" 
d="M148 658q0 -11 -2 -20l-48 -223h-16l-47 220q-3 14 -3 23q0 31 18 49q15 16 38 16q24 0 42 -17t18 -48z" />
    <glyph glyph-name="parenleft" unicode="(" horiz-adv-x="297" 
d="M279 -234q-9 -9 -13 -26q-103 73 -155 148q-93 137 -93 341q0 198 91 335q52 78 157 157q3 -14 13 -24q-75 -44 -119 -145q-39 -91 -39 -337q0 -147 12 -220q10 -64 36 -113q45 -83 110 -116z" />
    <glyph glyph-name="parenright" unicode=")" horiz-adv-x="297" 
d="M279 229q0 -204 -94 -341q-51 -74 -154 -148q-4 17 -13 26q67 34 110 116q28 52 37 112q10 68 10 221q0 247 -39 337q-44 102 -118 145q9 12 13 24q106 -80 157 -157q91 -137 91 -335z" />
    <glyph glyph-name="asterisk" unicode="*" horiz-adv-x="337" 
d="M326 474q0 -44 -38 -44q-16 0 -29.5 12t-25.5 24q-1 1 -19 27q-14 19 -23 19q-14 0 -14 -18q0 -9 7 -20q11 -18 11 -19q15 -33 15 -49q0 -43 -41 -43q-42 0 -42 43q0 16 15 49q0 1 11 19q7 11 7 20q0 18 -14 18q-7 0 -13 -7q-10 -15 -29 -39l-24 -24q-15 -12 -31 -12
q-38 0 -38 44q0 39 58 44q22 0 57 7q10 5 10 14q0 15 -32 15h-18q-75 0 -75 51q0 41 39 41q19 0 34 -14q4 -4 25 -29q30 -37 38 -37q9 0 9 9q0 6 -6 19q-8 19 -9 23q-14 43 -14 57q0 39 42 39q41 0 41 -39q0 -14 -14 -57q-1 -4 -9 -23q-6 -13 -6 -19q0 -9 9 -9q8 0 38 37
q21 25 25 29q15 14 34 14q39 0 39 -41q0 -51 -75 -51h-18q-32 0 -32 -15q0 -8 8 -13t27 -7q16 0 32 -1q58 -5 58 -44z" />
    <glyph glyph-name="plus" unicode="+" horiz-adv-x="527" 
d="M512 266q-189 6 -208 6q-23 0 -23 -21q0 12 7 -219q-13 3 -24 3q-14 0 -26 -4q6 204 6 220q0 21 -22 21q-40 0 -104 -3q-86 -3 -104 -4q3 8 3 23q0 12 -3 27q189 -6 208 -6q22 0 22 22q0 41 -2 110q-3 82 -3 109q12 -3 26 -3q10 0 24 2q0 -15 -5 -109q-3 -66 -3 -109
q0 -22 22 -22q2 0 209 6q-2 -16 -2 -25q0 -6 2 -24z" />
    <glyph glyph-name="comma" unicode="," horiz-adv-x="215" 
d="M185 24q0 -85 -50 -146q-30 -37 -77 -67q-1 9 -14 22q107 62 107 159q0 13 -11 13q-7 0 -15 -5q-16 -10 -25 -10q-33 0 -53 23q-17 20 -17 49q0 32 20.5 56t55.5 24q40 0 61 -38q18 -33 18 -80z" />
    <glyph glyph-name="hyphen" unicode="-" horiz-adv-x="279" 
d="M262 236q-52 5 -112 5q-65 0 -133 -5q3 12 3 28t-3 29q50 -5 131 -5q75 0 114 5q-3 -16 -3 -30q0 -12 3 -27z" />
    <glyph glyph-name="hyphen" unicode="&#x2010;" horiz-adv-x="279" 
d="M262 236q-52 5 -112 5q-65 0 -133 -5q3 12 3 28t-3 29q50 -5 131 -5q75 0 114 5q-3 -16 -3 -30q0 -12 3 -27z" />
    <glyph glyph-name="period" unicode="." horiz-adv-x="213" 
d="M183 67q0 -32 -22.5 -54.5t-54.5 -22.5q-31 0 -53.5 22.5t-22.5 54.5t22.5 54t53.5 22q32 0 54.5 -22t22.5 -54z" />
    <glyph glyph-name="slash" unicode="/" horiz-adv-x="303" 
d="M303 706q-136 -339 -250 -706q-13 4 -25 4q-8 0 -28 -4q174 458 250 706q18 -4 27 -4q13 0 26 4z" />
    <glyph glyph-name="zero" unicode="0" horiz-adv-x="515" 
d="M482 353q0 -205 -61 -291q-52 -73 -163 -73q-225 0 -225 353q0 357 227 357q108 0 161 -73q61 -83 61 -273zM345 351q0 127 -2 162q-7 114 -33 142q-22 23 -53 23q-35 0 -55 -24q-33 -40 -33 -306q0 -259 27 -304q19 -32 60 -32q40 0 60 32q29 46 29 307z" />
    <glyph glyph-name="one" unicode="1" horiz-adv-x="314" 
d="M304 0q-78 3 -156 3q-68 0 -134 -3q2 8 2 11t-2 13q5 0 23 -2q14 -2 22 -2q32 0 33 37q3 171 3 284v113q0 16 1 38.5t1 33.5q0 9 -3 9q-1 0 -21 -23q-8 -9 -53 -57q-6 14 -18 21q87 77 161 220q14 -2 36 -2q15 0 27 2q-5 -140 -5 -323q0 -194 4 -313q1 -40 35 -40
q8 0 23.5 2t20.5 2v-7q-1 -4 -1 -6q0 -7 1 -11z" />
    <glyph glyph-name="two" unicode="2" horiz-adv-x="453" 
d="M436 170q-3 -5 -13 -28q-33 -86 -44 -142q-59 4 -183 4q-108 0 -183 -4l-3 19q93 102 197 243q74 100 74 233q0 89 -28 125q-25 32 -83 32q-59 0 -93.5 -42t-34.5 -120q0 -59 22 -99t70 -77q-17 -12 -18 -27q-101 83 -101 204q0 97 54 152t151 55q198 0 198 -196
q0 -73 -57 -150q-35 -46 -128 -134q-32 -30 -82 -84q-6 -6 -6 -10q0 -12 100 -12h42q71 0 91.5 11t36.5 58q9 -11 21 -11z" />
    <glyph glyph-name="three" unicode="3" horiz-adv-x="435" 
d="M410 235q0 -245 -221 -245q-161 0 -189 154q20 0 32 10q9 -65 35 -93q30 -31 96 -31q54 0 81 36q36 48 36 171q0 100 -25 140q-21 33 -68 33q-33 0 -62 -24q-19 -16 -53 -62q-6 13 -20 20q123 117 187 210q11 12 11 16t-10 4q-26 0 -78 -2t-78 -2q-22 0 -31 -16
q-6 -11 -18 -59q-11 10 -28 13q36 67 61 180q67 -5 164 -5q81 0 146 5q1 -7 2 -19q-100 -102 -204 -226q-2 -4 -2 -6q0 -4 5 -4h6q34 13 53 13q90 0 131 -51t41 -160z" />
    <glyph glyph-name="four" unicode="4" horiz-adv-x="439" 
d="M419 0q-55 4 -133 4q-83 0 -140 -4q1 3 1 11q0 9 -1 13q22 -2 43 -2q18 0 22.5 8.5t4.5 44.5q0 12 1 47q1 30 1 48v13q0 16 -3 20t-14 4q-66 2 -108 2q-52 0 -100 -3q0 14 -4 27q94 133 201 316q20 33 40 67q22 39 41 85q12 -3 39 -3q29 0 39 3q-5 -147 -5 -407v-35
q0 -13 2.5 -15.5t16.5 -2.5h13q16 0 40 4q-2 -7 -2 -20q0 -15 2 -22q-24 4 -58 4q-14 0 -14 -24v-15q0 -9 1 -44t1 -48q0 -40 4 -46.5t26 -6.5q25 0 43 1q-1 -4 -1 -13q0 -8 1 -11zM224 540q-1 1 -5 1l-25 -39q-51 -82 -154 -245q-2 -6 -2 -8q0 -7 22 -8q31 -2 84 -2h55
q12 0 14.5 2.5t2.5 15.5q0 54 2 206q0 20 3.5 45.5t2.5 31.5z" />
    <glyph glyph-name="five" unicode="5" horiz-adv-x="427" 
d="M402 238q0 -248 -220 -248q-89 0 -133 56q-35 44 -49 140q19 2 32 10q8 -80 27 -113q31 -51 109 -51q61 0 84 43t23 154q0 119 -30 167q-23 38 -71 38q-47 0 -85 -46q-30 -37 -40 -85q-5 5 -16 5h-3q-2 -1 -3 -1q23 90 45 223q10 59 21 157q19 0 90 -2q56 -2 90 -2
q39 0 56 10q24 15 31 57q9 -5 21 -5q-34 -132 -57 -157q-26 -28 -120 -28q-12 0 -43 2t-43 2q-17 0 -21 -20q-8 -40 -22 -114q-5 -30 -5 -28q0 -4 5 -4q3 0 6 5q35 67 129 67q102 0 147 -55t45 -177z" />
    <glyph glyph-name="six" unicode="6" horiz-adv-x="478" 
d="M453 243q0 -253 -206 -253q-109 0 -158 66q-56 76 -56 266q0 206 63 297q56 80 171 80q170 0 170 -125q0 -23 -15.5 -39.5t-38.5 -16.5q-50 0 -56 58q-6 65 -8 69q-10 34 -51 34q-53 0 -77 -52t-27 -178q-1 -12 -4 -34v-5q0 -9 3 -9q4 0 8 8q28 63 122 63q160 0 160 -229
zM323 223q0 128 -17 172q-16 38 -57 38q-44 0 -61 -33q-23 -44 -23 -173q0 -128 22 -175q18 -40 62 -40q42 0 58 43.5t16 167.5z" />
    <glyph glyph-name="seven" unicode="7" horiz-adv-x="374" 
d="M412 671q-20 -30 -38 -59q-42 -69 -64 -120q-94 -214 -111 -492q-30 4 -50 4q-22 0 -58 -4q32 149 78 263.5t139 278.5q4 7 4 11q0 8 -18 9q-48 3 -115 3q-68 0 -120 -3q-23 -1 -31 -20q-4 -10 -15 -70q-12 9 -31 12q47 116 66 204q93 -5 178 -5q67 0 181 4q2 -10 5 -16z
" />
    <glyph glyph-name="eight" unicode="8" horiz-adv-x="460" 
d="M440 204q0 -101 -62 -159q-59 -54 -157 -54q-201 0 -201 179q0 129 112 167q10 3 10 7t-6 7q-32 16 -52 36q-46 48 -46 129q0 75 42 122q52 59 151 59q65 0 106 -23q68 -38 68 -125q0 -55 -38 -90q-25 -23 -62 -34q-5 -3 -5 -6q0 -6 33 -22q107 -53 107 -193zM332 539
q0 73 -24 105t-81 32q-101 0 -101 -108q0 -52 38 -83q18 -15 83 -46q11 -5 21 -5q15 0 28 13q36 37 36 92zM347 142q0 79 -43 117q-15 13 -113 63q-12 6 -22 6q-16 0 -28 -10q-29 -23 -38 -58q-5 -21 -5 -71q0 -175 127 -175q66 0 94 30.5t28 97.5z" />
    <glyph glyph-name="nine" unicode="9" horiz-adv-x="478" 
d="M445 367q0 -206 -63 -297q-56 -80 -171 -80q-170 0 -170 125q0 23 15.5 39.5t38.5 16.5q50 0 56 -58q6 -65 8 -69q10 -34 51 -34q53 0 77 52t27 178q2 12 4 34v5q0 9 -3 9q-4 0 -8 -8q-28 -63 -122 -63q-160 0 -160 229q0 253 206 253q109 0 158 -66q56 -76 56 -266z
M313 462q0 128 -22 175q-18 40 -62 40q-42 0 -57 -42q-17 -45 -17 -169q0 -128 17 -172q16 -38 57 -38q44 0 61 33q23 44 23 173z" />
    <glyph glyph-name="colon" unicode=":" horiz-adv-x="213" 
d="M183 377q0 -32 -22.5 -54.5t-54.5 -22.5q-31 0 -53.5 22.5t-22.5 54.5t22.5 54t53.5 22q32 0 54.5 -22t22.5 -54zM183 67q0 -32 -22.5 -54.5t-54.5 -22.5q-31 0 -53.5 22.5t-22.5 54.5t22.5 54t53.5 22q32 0 54.5 -22t22.5 -54z" />
    <glyph glyph-name="semicolon" unicode=";" horiz-adv-x="217" 
d="M183 377q0 -32 -22.5 -54.5t-54.5 -22.5q-31 0 -53.5 22.5t-22.5 54.5t22.5 54t53.5 22q32 0 54.5 -22t22.5 -54zM187 24q0 -86 -49 -146q-29 -35 -78 -67q-1 9 -14 22q107 62 107 159q0 13 -11 13q-8 0 -15 -5q-14 -10 -25 -10q-33 0 -53 23q-17 20 -17 49q0 32 20.5 56
t56.5 24q39 0 60 -38q18 -33 18 -80z" />
    <glyph glyph-name="less" unicode="&#x3c;" horiz-adv-x="527" 
d="M510 50q-220 132 -271 162q-185 108 -222 118q3 30 3 27q0 10 -3 20q39 9 225 119l268 160q-3 -18 -3 -30q0 -10 3 -25q-175 -88 -402 -228q-9 -6 -30 -11q-15 -3 -15 -10q-1 -5 17 -9q22 -5 28 -9q212 -137 402 -229q-3 -16 -3 -28q0 -10 3 -27z" />
    <glyph glyph-name="equal" unicode="=" horiz-adv-x="527" 
d="M504 351q-76 5 -222 5q-129 0 -259 -5q3 14 3 24q0 12 -3 27q98 -5 259 -5q146 0 222 5q-3 -13 -3 -24q0 3 3 -27zM504 177q-76 5 -222 5q-129 0 -259 -5q3 14 3 24q0 12 -3 27q98 -5 259 -5q146 0 222 5q-3 -13 -3 -24q0 3 3 -27z" />
    <glyph glyph-name="greater" unicode="&#x3e;" horiz-adv-x="527" 
d="M510 330q-48 -13 -493 -280q3 17 3 27q0 12 -3 28q194 94 402 229q6 4 28 9q17 4 17 9q0 6 -16 10q-22 7 -29 11q-236 144 -402 228q3 15 3 25q0 12 -3 30l268 -160q185 -110 225 -119q-3 -10 -3 -20q0 3 3 -27z" />
    <glyph glyph-name="question" unicode="?" horiz-adv-x="365" 
d="M345 512q0 -75 -32 -114q-25 -31 -105 -72q-41 -21 -55 -37.5t-14 -42.5q0 -31 12 -65q-8 2 -14 2q-7 0 -14 -2q-12 46 -12 62q0 61 50 94q40 27 53 77q8 30 8 94q0 110 -14 151q-13 38 -46 38q-41 0 -41 -29q0 -11 15.5 -36t15.5 -49q0 -34 -19.5 -53.5t-46.5 -19.5
t-45 19q-21 21 -21 57q0 54 41 91t113 37q80 0 125 -50q46 -53 46 -152zM219 67q0 -32 -22.5 -54.5t-53.5 -22.5q-32 0 -54.5 22.5t-22.5 54.5t22.5 54t54.5 22t54 -22t22 -54z" />
    <glyph glyph-name="at" unicode="@" horiz-adv-x="731" 
d="M701 393q0 -142 -66 -239q-58 -85 -123 -85q-84 0 -84 63q0 3 1 9v8q0 8 -5 8q-3 0 -7 -7q-6 -12 -19 -29q-40 -50 -81 -50q-120 0 -120 170q0 115 52 196q55 87 143 87q48 0 65 -34q3 -14 9 -32q4 -9 7 -9q8 0 14 47q12 -4 40 -4t41 4l-26 -135q-33 -171 -33 -205
q0 -47 29 -47q34 0 65 41t50 111q19 66 19 132q0 141 -77 221q-69 72 -173 72q-146 0 -244 -141q-91 -131 -91 -297t95 -264q86 -89 211 -89q75 0 145.5 38.5t119.5 111.5q2 -8 9 -12t13 -8q-126 -157 -307 -157q-139 0 -237 98q-106 106 -106 281q0 180 105 316
q113 148 287 148q127 0 203 -87t76 -231zM456 395q0 52 -12 72.5t-44 20.5q-42 0 -75 -62q-41 -75 -41 -204q0 -107 51 -107q27 0 55.5 32t43.5 81q22 74 22 167z" />
    <glyph glyph-name="A" unicode="A" horiz-adv-x="578" 
d="M568 0q-63 4 -123 4q-90 0 -143 -4q1 5 1 10t-1 14q28 -4 36 -4q22 0 22 15q0 5 -2 13q-24 97 -48 178q-4 14 -21 15t-52 1q-18 0 -57 -1q-23 -1 -27 -15q-16 -55 -23 -80q-14 -53 -14 -83q0 -17 3 -26q6 -17 24 -17q6 0 18.5 2t16.5 2q-2 -7 -2 -12q0 -6 2 -12
q-37 4 -90 4q-46 0 -78 -4q2 7 2 12q0 6 -2 12q20 -2 24 -2q15 0 22 14q32 68 46 110q39 117 170 573q7 -2 18 -2t16 2q48 -194 201 -674q8 -24 29 -24q-4 0 32 3q-1 -8 -1 -13q0 -7 1 -11zM296 272q0 1 -2 8q-16 49 -50 161q-4 15 -7 39q-2 16 -5 16q-5 0 -8 -15
q-7 -29 -55 -198q-1 -3 -1 -8q0 -11 28 -12q-8 0 38 0q7 0 23 1h25q14 0 14 8z" />
    <glyph glyph-name="B" unicode="B" horiz-adv-x="567" 
d="M542 193q0 -101 -47 -147t-149 -46q-36 0 -110.5 1.5t-109.5 1.5q-62 0 -116 -3q2 10 2 13t-2 12q40 -4 35 -4q22 0 23 23q5 111 5 317q0 198 -5 303q-1 21 -24 21q-6 0 -18 -2t-16 -2q2 10 2 12q0 3 -2 13q61 -4 146 -4q27 0 85.5 2.5t85.5 2.5q168 0 168 -165
q0 -144 -155 -154q-8 -2 -8 -5q0 -4 7 -4q113 0 161 -49q42 -44 42 -137zM355 519q0 91 -14 121q-23 45 -98 45q-30 0 -31 -17q-7 -127 -7 -235q0 -23 1 -26q2 -14 16 -14h13q8 -1 16 -1q68 0 88 27q16 22 16 100zM400 191q0 100 -23 136q-29 43 -115 43q-9 0 -39 -1
q-19 -1 -19 -17q0 -56 3 -157q4 -110 4 -155q0 -11 8 -14.5t36 -3.5q92 0 119 34q26 31 26 135z" />
    <glyph glyph-name="C" unicode="C" horiz-adv-x="556" 
d="M514 47q-38 -30 -69 -42q-45 -18 -109 -18q-156 0 -228 93q-68 88 -68 270q0 201 74 286q69 80 227 80q100 0 173 -45q-8 -50 -8 -125q0 -60 3 -87q-6 1 -12 1q-8 0 -13 -1q-1 95 -30 156q-39 83 -121 83q-85 0 -117 -70q-33 -73 -33 -270q0 -210 33 -280.5t126 -70.5
q66 0 104 71q35 64 38 166q4 -1 14 -1q8 0 11 1q-4 -29 -4 -80q0 -67 9 -117z" />
    <glyph glyph-name="D" unicode="D" horiz-adv-x="662" 
d="M622 358q0 -183 -66 -268q-71 -90 -233 -90q-38 0 -96 1.5t-95 1.5q-66 0 -122 -3q2 10 2 13q0 8 -2 12q4 0 15.5 -1.5t17.5 -1.5q24 0 25 21q5 108 5 316q0 218 -4 303q-1 23 -25 23q-6 0 -17.5 -2t-16.5 -2q2 4 2 12q0 3 -2 13q59 -3 127 -3q35 0 88.5 1.5t88.5 1.5
q171 0 243 -90q65 -81 65 -258zM479 353q0 147 -12 209q-14 72 -52.5 98t-124.5 26h-51q-15 0 -17 -2t-4 -5q-5 -4 -6 -22q-6 -109 -6 -300q0 -181 6 -302q1 -12 3 -19q5 -15 29 -15h48q87 0 125.5 26.5t50.5 99.5q11 59 11 206z" />
    <glyph glyph-name="E" unicode="E" horiz-adv-x="557" 
d="M517 242q-9 -94 -9 -177q0 -36 3 -65q-105 4 -232 4q-148 0 -269 -4q2 6 2 12q0 3 -2 13q4 0 17 -2t19 -2q22 0 23 26q4 92 4 314q0 198 -5 303q-1 21 -23 21q-6 0 -18 -2t-17 -2q2 10 2 12q0 3 -2 13q75 -4 174 -4q51 0 148.5 2t150.5 2q-4 -40 -4 -73q0 -99 10 -173
q-1 0 -5 1h-6q-6 0 -14 -2q-13 130 -70 181q-48 42 -151 42q-20 0 -25.5 -5t-6.5 -26q-7 -134 -7 -248q0 -23 4 -28t21 -5q67 0 91 35q22 32 22 120q3 -1 14 -1q9 0 13 1q-8 -96 -8 -179q0 -86 8 -157q-3 1 -13 1t-14 -1q0 95 -23.5 128.5t-89.5 33.5q-18 0 -21.5 -5
t-3.5 -27q0 -122 7 -261q1 -26 7.5 -29.5t59.5 -3.5q108 0 160 51t54 166q3 -1 11 -1q11 0 14 1z" />
    <glyph glyph-name="F" unicode="F" horiz-adv-x="505" 
d="M495 459q-6 2 -12 2t-13 -2q-10 125 -61 175q-49 47 -161 47q-25 0 -30 -3t-6 -18q-7 -139 -7 -240q0 -28 1 -32q3 -18 20 -18h15q108 0 108 155h7q5 -1 7 -1q9 0 13 1q-9 -113 -9 -178q0 -74 9 -158q-5 1 -15 1q-8 0 -12 -1q0 91 -26 127t-86 36h-12q-16 0 -20 -17
q-1 -4 -1 -31q0 -121 8 -261q1 -22 24 -22q7 0 20.5 2t18.5 2q-1 -6 -1 -12q0 -5 1 -13q-51 4 -122 4q-54 0 -140 -4q2 6 2 12q0 5 -2 13q5 0 16 -2t17 -2q21 0 22 22q5 109 5 318q0 197 -5 302q-1 22 -23 22q-6 0 -18 -2t-17 -2q2 6 2 12q0 5 -2 13q73 -4 177 -4
q54 0 153 2t149 2q-4 -40 -4 -73q0 -100 10 -174z" />
    <glyph glyph-name="G" unicode="G" horiz-adv-x="638" 
d="M617 314q-4 0 -14.5 1.5t-15.5 1.5q-18 0 -20 -18q-4 -43 -4 -98q0 -86 7 -147q-118 -68 -241 -68q-147 0 -216 84q-73 87 -73 280q0 199 73 283t237 84q122 0 200 -45q-6 -45 -6 -101q0 -73 6 -112q-1 0 -6 1h-6h-7q-5 -1 -6 -1q-31 239 -178 239q-98 0 -129 -63
q-35 -71 -35 -294q0 -203 32 -273q29 -63 111 -63q44 0 65 14q16 10 29.5 38.5t13.5 123.5q0 40 -4 118q-1 17 -29 17q-15 0 -29 -2q1 4 1 11t-1 12q68 -5 133 -5q68 0 112 5q-2 -8 -2 -11q0 -4 2 -12z" />
    <glyph glyph-name="H" unicode="H" horiz-adv-x="629" 
d="M619 0q-88 4 -143 4q-70 0 -118 -4q1 5 1 14q0 7 -1 11q40 -4 36 -4q20 0 22 21q5 69 5 198v91q0 14 -3.5 17t-21.5 4q-54 2 -76 2q-30 0 -88 -2q-17 -1 -20.5 -4.5t-3.5 -18.5v-44q-1 -30 -1 -45q0 -116 5 -199q1 -20 25 -20q6 0 18.5 2t16.5 2q-2 -4 -2 -12t2 -13
q-51 4 -122 4q-54 0 -140 -4q1 4 1 12q0 9 -1 13q3 0 15.5 -2t19.5 -2q22 0 23 16q5 137 5 323q0 214 -4 301q-1 24 -23 24q-6 0 -19 -2t-17 -2q2 10 2 12q0 3 -2 13q86 -4 140 -4q71 0 122 4q-2 -5 -2 -13t2 -12q-5 0 -17.5 2t-18.5 2q-23 0 -24 -21q-6 -85 -6 -163
q0 -24 2 -86q1 -24 5 -29.5t18 -6.5q35 -2 88 -2q42 0 78 2q17 1 20.5 4.5t3.5 22.5v85q0 121 -4 172q-2 22 -24 22q-6 0 -18 -2t-17 -2q1 4 1 12t-1 13q43 -2 139 -2q84 0 122 2q-2 -5 -2 -14q0 -7 2 -11q-5 0 -17.5 2t-18.5 2q-24 0 -25 -21q-4 -81 -4 -305q0 -232 4 -317
q1 -21 25 -21q6 0 18.5 2t17.5 2q-2 -5 -2 -14q0 -7 2 -11z" />
    <glyph glyph-name="I" unicode="I" horiz-adv-x="287" 
d="M277 0q-51 4 -124 4q-57 0 -143 -4q2 8 2 12q0 3 -2 13q5 0 18 -1.5t20 -1.5q24 0 25 20q5 109 5 319q0 206 -5 306q-1 18 -25 18q-8 0 -21.5 -2t-16.5 -2q2 10 2 12q0 3 -2 13q86 -4 143 -4q73 0 124 4q-1 -4 -1 -13q0 -8 1 -12q-5 0 -18 2t-19 2q-22 0 -23 -17
q-9 -149 -9 -308q0 -163 9 -319q1 -20 25 -20q6 0 18 2t17 2q-1 -5 -1 -13t1 -12z" />
    <glyph glyph-name="J" unicode="J" horiz-adv-x="408" 
d="M398 681q-4 0 -17 2t-19 2q-27 0 -28 -21q-9 -150 -9 -303q0 -32 1 -91t1 -84q0 -70 -6 -98q-12 -57 -59 -80q-37 -18 -104 -18q-59 0 -98 23q-50 29 -50 88q0 35 20 55t46 20q23 0 40.5 -16.5t17.5 -45.5q0 -21 -20.5 -48.5t-20.5 -34.5q0 -16 44 -16q28 0 41 20.5
t14 72.5q3 143 3 253q0 197 -5 302q-1 22 -26 22q-7 0 -20 -2t-17 -2q2 7 2 13q0 5 -2 12q86 -4 146 -4q76 0 125 4q-2 -7 -2 -13q0 -5 2 -12z" />
    <glyph glyph-name="K" unicode="K" horiz-adv-x="616" 
d="M606 0q-60 3 -121 3q-81 0 -149 -3q1 4 1 11q0 8 -1 13q28 -4 37 -4q21 0 21 11l-5 13q-63 164 -136 304q-7 13 -11 15.5t-18 2.5q-15 0 -18.5 -7t-3.5 -40q0 -98 10 -271q2 -27 27 -27q-10 0 38 4q-2 -10 -2 -13q0 -4 2 -12q-51 4 -124 4q-57 0 -143 -4q2 10 2 13
q0 2 -2 12q44 -4 34 -4q21 0 26 26v44q3 95 3 270q0 204 -5 305q-1 19 -23 19q-6 0 -18.5 -2t-16.5 -2q2 8 2 11q0 2 -2 14q86 -4 138 -4q68 0 119 4q-2 -10 -2 -13q0 -4 2 -12q-5 0 -16.5 2t-17.5 2q-20 0 -21 -18q-8 -138 -8 -222q0 -58 14 -58q20 0 28.5 4t18.5 19
l82 128q61 101 61 133q0 14 -18 14q9 0 -42 -3q1 4 1 11t-1 13q40 -4 98 -4q54 0 93 4q-2 -10 -2 -13t2 -11q-6 0 -18.5 2t-17.5 2q-15 0 -31 -16q-28 -28 -105 -153q-13 -21 -13 -37q0 -15 6 -29q46 -109 192 -407q11 -23 33 -23q-3 0 21 3q-1 -6 -1 -14q0 -7 1 -10z" />
    <glyph glyph-name="L" unicode="L" horiz-adv-x="512" 
d="M492 0q-51 0 -153 2t-161 2q-96 0 -168 -4q2 10 2 14q0 3 -2 11q4 0 16 -2t18 -2q23 0 24 21q5 109 5 319q0 198 -5 303q-1 21 -23 21q-6 0 -18 -2t-17 -2q2 10 2 14q0 3 -2 11q86 -4 143 -4q73 0 124 4q-2 -12 -2 -14q0 -3 2 -11q-4 0 -17.5 2t-21.5 2q-25 0 -26 -19
q-9 -149 -9 -306q0 -161 9 -314q1 -21 27 -21q125 0 173 52q44 48 55 183q6 -2 15 -2q1 0 5 1h5q-3 -66 -3 -137q0 -78 3 -122z" />
    <glyph glyph-name="M" unicode="M" horiz-adv-x="769" 
d="M759 0q-48 4 -123 4q-47 0 -129 -4q2 8 2 12q0 3 -2 13q5 0 15.5 -2.5t15.5 -2.5q16 0 17 23q5 110 5 318q0 43 -1.5 103.5t-1.5 102.5q0 12 2.5 26.5t2.5 15.5q0 4 -4 4t-12 -17.5t-9 -23.5q-14 -33 -170 -543q-4 -12 -9 -42q-7 1 -19 1q-9 0 -13 -1q-1 8 -11 41
q-29 94 -87 255q-53 143 -105 286q-6 16 -9 37q-3 7 -9 7q-3 0 -3 -41v-146q0 -131 1 -174q2 -75 4 -107q3 -60 11 -106q3 -20 28 -20q-9 0 41 5q-1 -4 -1 -12t1 -12q-34 3 -79 3q-54 0 -98 -3q1 3 1 11q0 9 -1 13q36 -4 32 -4q19 0 22 18q11 78 11 213q0 29 1 113v129
q0 62 -7 171q-1 22 -24 22q9 0 -35 -4q2 8 2 11t-2 13q32 -3 94 -3q70 0 122 3q21 -75 160 -456q6 -16 11 -16t9 12q31 100 61 201q40 129 65 191q12 30 16 68q82 -4 107 -4q56 0 104 4q-2 -5 -2 -14q0 -7 2 -11q-4 0 -16 1.5t-18 1.5q-25 0 -26 -18q-7 -110 -7 -284
q0 -229 7 -342q1 -19 24 -19q6 0 19 2t17 2q-1 -5 -1 -13q0 -10 1 -12z" />
    <glyph glyph-name="N" unicode="N" horiz-adv-x="587" 
d="M577 682q-20 4 -25 4q-24 0 -30 -23q-7 -27 -10 -147q-1 -37 -1 -62q0 -155 4 -463q-28 0 -36 -6q-9 28 -31 67q-57 103 -157 259q-83 131 -166 261q-4 12 -13 35q-4 7 -7 7q-4 0 -4 -9q0 -8 4 -26v-207q0 -186 2 -217q6 -95 14.5 -114t39.5 -19q7 0 25 2q-2 -5 -2 -11
q0 -5 2 -13q-42 3 -94 3q-47 0 -82 -3q2 6 2 12q0 5 -2 12q18 -3 28 -3q21 0 27 20q7 24 9 115q1 56 1 254v58q0 197 -17 213q-6 5 -16 5q8 0 -32 -4q2 8 2 11t-2 13q32 -4 93 -4q49 0 109 4q33 -65 114 -191q123 -191 133 -207q14 -22 17 -39q3 -8 7 -8q3 0 3 8
q0 159 -4 249q-5 120 -13 145q-6 22 -33 22q-11 0 -29 -3q2 10 2 12t-2 12q29 -4 80 -4q36 0 90 4q-2 -10 -2 -13q0 -7 2 -11z" />
    <glyph glyph-name="O" unicode="O" horiz-adv-x="664" 
d="M624 354q0 -195 -68.5 -280t-223.5 -85q-149 0 -219 82q-73 86 -73 280q0 195 68.5 280t223.5 85q149 0 219 -82q73 -86 73 -280zM482 348q0 205 -37 282q-32 67 -113 67q-85 0 -115 -63q-35 -71 -35 -277q0 -205 37 -282q32 -67 113 -67q85 0 116 63q34 71 34 277z" />
    <glyph glyph-name="P" unicode="P" horiz-adv-x="516" 
d="M486 510q0 -187 -183 -187q-15 0 -45 2t-44 2q-16 0 -16 -18q0 -95 9 -260q2 -28 24 -28q6 0 19 2t17 2q-2 -8 -2 -13q0 -6 2 -12q-51 4 -119 4q-52 0 -138 -4q2 7 2 12q0 6 -2 13q4 0 17 -2q10 -2 16 -2q20 0 21 26q4 92 4 314q0 166 -7 306q-1 18 -20 18q-5 0 -16 -2
t-15 -2q1 6 1 12q0 5 -1 13q93 -5 141 -5q22 0 69 2.5t69 2.5q100 0 148.5 -46.5t48.5 -149.5zM347 508q0 105 -23.5 140t-88.5 35q-21 0 -25.5 -3.5t-5.5 -13.5q-6 -93 -6 -269q0 -37 4.5 -44t28.5 -7q72 0 94 29t22 133z" />
    <glyph glyph-name="Q" unicode="Q" horiz-adv-x="654" 
d="M614 367q0 -378 -287 -378q-11 0 -19 1t-13 1q-4 0 -4 -2q0 -7 26 -15q42 -13 59 -36q9 -14 16 -46q13 -62 46 -62q-1 0 44 5q-2 -10 -2 -14q0 -2 2 -10q-18 0 -55.5 -1t-47.5 -1q-57 0 -85 20q-38 28 -43 100q-3 41 -9 57t-24 24q-70 31 -105 74q-73 90 -73 266
q0 175 73 270.5t215 95.5q286 0 286 -349zM475 362q0 206 -35 277q-30 59 -109 59q-84 0 -117 -67q-35 -74 -35 -278q0 -199 32 -272t117 -73q77 0 110 70q37 79 37 284z" />
    <glyph glyph-name="R" unicode="R" horiz-adv-x="610" 
d="M600 0h-63q-88 0 -121 26q-37 30 -43 116l-5 74q-6 85 -17 107q-19 37 -85 39h-40q-15 0 -20 -2.5t-5 -14.5v-53q-1 -36 -1 -54q0 -80 7 -196q1 -21 19 -21q4 0 15 2t16 2q-2 -4 -2 -12t2 -13q-51 4 -115 4q-46 0 -132 -4q1 4 1 12q0 9 -1 13q5 0 16 -2t16 -2q20 0 21 22
q5 110 5 318q0 163 -7 305q-1 19 -20 19q-5 0 -16 -2t-15 -2q2 8 2 11q0 2 -2 14q68 -4 149 -4h22q29 0 86 2q53 2 66 2q76 0 116 -48q37 -45 37 -121q0 -126 -147 -153l-18 -3q-7 -2 -7 -5t6.5 -4t18.5 -2q92 -10 130 -59.5t46 -171.5q4 -69 14 -91q12 -28 45 -28
q5 0 13.5 2t12.5 2q-2 -10 -2 -13t2 -11zM348 528q0 74 -13 105q-20 47 -80 50h-19q-33 0 -34 -22q-3 -49 -3 -103q0 -27 1 -79.5t1 -75.5q0 -14 7 -17q4 -2 21 -2q21 0 32 1q55 5 74 47q13 29 13 96z" />
    <glyph glyph-name="S" unicode="S" horiz-adv-x="508" 
d="M478 208q0 -102 -63 -160q-65 -61 -182 -61q-98 0 -196 47q3 26 3 58q0 69 -10 141q2 -1 11 -1q6 0 14 2q26 -119 69 -170t117 -51q133 0 133 136q0 79 -87 127q-80 41 -161 82q-87 58 -87 160q0 93 51 145q56 56 164 56q88 0 171 -38q-6 -40 -6 -102q0 -38 2 -64h-11
q-8 0 -14 -1q-20 184 -144 184q-118 0 -118 -124q0 -67 89 -112l166 -82q89 -63 89 -172z" />
    <glyph glyph-name="T" unicode="T" horiz-adv-x="552" 
d="M542 459q-8 2 -13 2q-6 0 -12 -2q0 87 -35 152q-38 71 -96 71h-18q-12 0 -15 -2.5t-4 -14.5q-7 -123 -7 -302q0 -172 7 -320q1 -22 24 -22q6 0 18.5 2t17.5 2q-2 -8 -2 -13q0 -4 2 -12q-51 4 -122 4q-54 0 -140 -4q1 4 1 13t-1 12q5 0 16.5 -2t17.5 -2q23 0 24 22
q5 110 5 318q0 203 -5 304q-1 17 -20 17h-11q-55 0 -97 -69.5t-42 -153.5q-4 1 -13 1q-8 0 -12 -1q6 88 6 137q0 54 -6 110q113 -4 287 -4q152 0 245 4q-5 -63 -5 -124t5 -123z" />
    <glyph glyph-name="U" unicode="U" horiz-adv-x="583" 
d="M573 682q-24 4 -18 4q-24 0 -31 -46q-6 -42 -7 -204l-1 -207q0 -129 -28 -173q-43 -66 -182 -66q-138 0 -191 47q-56 48 -56 177q0 49 1 146t1 145v35q0 89 -2 128q-1 18 -19 18q6 0 -30 -4q2 10 2 12t-2 12q56 -3 123 -3q66 0 120 3q-1 -5 -1 -13q0 -7 1 -11
q-3 0 -14 2.5t-17 2.5q-18 0 -18 -20q0 -27 -2 -129q-2 -84 -2 -142q0 -98 3 -181q4 -116 31 -150t111 -34q88 0 122 51q24 36 24 111l-1 239q-2 163 -11 209t-40 46q-12 0 -34 -5q2 6 2 12q0 5 -2 12q32 -4 84 -4q30 0 84 4q-1 -8 -1 -13q0 -7 1 -11z" />
    <glyph glyph-name="V" unicode="V" horiz-adv-x="578" 
d="M568 683q-18 4 -23 4q-19 0 -32 -25q-8 -18 -37 -104q-42 -126 -170 -570q-7 2 -17 2q-9 0 -17 -2q-41 167 -203 680q-6 19 -26 19q7 0 -33 -4q2 8 2 11t-2 13q59 -4 144 -4q72 0 123 4q-2 -5 -2 -13q0 -7 2 -11q-3 0 -16 2t-21 2q-22 0 -22 -13v-6q40 -167 106 -371
q17 -52 17 -77q0 -9 5 -9q4 0 16 40q42 141 85 307q20 78 20 102q0 27 -25 27q-15 0 -31 -4q2 10 2 12t-2 12q52 -4 84 -4q44 0 73 4q-1 -5 -1 -13q0 -7 1 -11z" />
    <glyph glyph-name="W" unicode="W" horiz-adv-x="898" 
d="M888 683q-27 3 -24 3q-15 0 -22 -15q-30 -62 -63 -166q-41 -128 -153 -517q-3 1 -17 1q-13 0 -17 -1q-32 130 -126 434q-4 21 -9 44q-2 7 -5 7t-19 -51q-18 -59 -127 -434q-3 1 -17 1q-13 0 -17 -1q-41 167 -203 680q-6 19 -26 19q7 0 -33 -4q2 8 2 11t-2 13
q59 -4 144 -4q72 0 123 4q-2 -5 -2 -13q0 -7 2 -11q-3 0 -16 2t-21 2q-22 0 -22 -13v-6q43 -179 112 -394q12 -37 12 -54q0 -10 4 -10q3 0 21 63q20 71 56 199q6 21 6 44q0 25 -7 46q-11 38 -33 106q-6 19 -26 19q7 0 -33 -4q2 8 2 11t-2 13q59 -4 144 -4q72 0 123 4
q-2 -5 -2 -13q0 -7 2 -11q-3 0 -16 2t-21 2q-22 0 -22 -13v-6q38 -158 112 -392q10 -32 10 -57q0 -9 5 -9q3 0 10.5 22t8.5 29q17 56 58 207q49 183 49 206q0 13 -16 13q10 0 -34 -4q2 9 2 12t-2 12q52 -4 79 -4q41 0 68 4q-1 -5 -1 -13q0 -7 1 -11z" />
    <glyph glyph-name="X" unicode="X" horiz-adv-x="603" 
d="M593 0q-72 5 -140 5q-66 0 -133 -5q1 5 1 12t-1 12q2 0 14 -2t19 -2q18 0 18 11q0 6 -3 14q-35 89 -89 201q-5 15 -15 35q-4 6 -9 6q-2 0 -7 -6q-7 -14 -19 -36q-94 -169 -94 -201q0 -22 18 -22q4 0 13 1t14 1q-2 -5 -2 -13q0 -7 2 -11q-45 5 -83 5q-41 0 -86 -5
q2 4 2 11q0 3 -2 13q18 -2 26 -2q21 0 32 16q72 101 146 231q19 33 19 53q0 15 -12 39q-26 51 -79 152t-79 153q-10 19 -28 19q4 0 -26 -3q2 8 2 12q0 2 -2 12q52 -4 125 -4q58 0 150 4q-2 -5 -2 -13q0 -7 2 -11q-2 0 -16 2.5t-22 2.5q-20 0 -20 -12q0 -2 2 -7
q25 -64 70 -162q6 -14 18 -39q1 -4 7 -4q5 0 8 3l21 42q74 138 74 161q0 15 -22 15q-6 0 -26 -2q2 5 2 11q0 7 -2 13q33 -4 77 -4q31 0 87 4q-2 -5 -2 -13q0 -7 2 -11q-6 0 -16.5 2t-15.5 2q-16 0 -29 -20q-61 -91 -115 -183q-22 -38 -22 -57q0 -15 14 -43q27 -54 172 -332
q15 -29 32 -29q3 0 12.5 1t17.5 1q-1 -5 -1 -13q0 -9 1 -11z" />
    <glyph glyph-name="Y" unicode="Y" horiz-adv-x="560" 
d="M550 682q-30 4 -32 4q-13 0 -25.5 -21.5t-43.5 -83.5l-87 -203q-5 -11 -10 -40v-22v-43q0 -122 6 -226q1 -26 24 -26q6 0 19 2t17 2q-2 -10 -2 -13q0 -8 2 -12q-51 4 -120 4q-51 0 -137 -4q2 10 2 13q0 4 -2 12q5 0 16.5 -2t17.5 -2q23 0 24 24q3 95 3 167v64
q-1 42 -1 62.5t-9 38.5q-108 216 -153 293q-9 15 -23 15q4 0 -26 -3q2 7 2 12t-2 12q62 -3 131 -3q65 0 123 3q-2 -7 -2 -12q0 -6 2 -12q-2 0 -11.5 1t-15.5 1q-19 0 -19 -12q0 -4 1 -7q16 -47 28 -75q8 -17 78 -164q6 -12 11 -29q2 -5 4 -5q3 0 6 6q24 53 54 134
q38 104 38 132q0 21 -23 21q-11 0 -26 -3q1 5 1 11q0 8 -1 13q33 -3 72 -3q49 0 89 3v-7q-1 -5 -1 -6q0 -2 1 -5v-6z" />
    <glyph glyph-name="Z" unicode="Z" horiz-adv-x="551" 
d="M511 0q-114 3 -257 3q-146 0 -241 -3q0 10 -3 13q17 15 38 53q47 87 129 270q99 222 131 287q14 29 14 45q0 12 -47 12q-96 0 -140 -40q-50 -44 -50 -149q-4 2 -13 2t-14 -2q5 43 5 113q0 63 -5 102q85 -4 225 -4q90 0 204 4q0 -6 5 -13q-8 -12 -26 -40
q-51 -95 -137 -293q-105 -240 -129 -289q-14 -29 -14 -38q0 -12 35 -12q58 0 99 8q83 16 122.5 69.5t42.5 156.5q8 -2 13 -2q6 0 13 2q-6 -75 -6 -135q0 -66 6 -120z" />
    <glyph glyph-name="bracketleft" unicode="[" horiz-adv-x="263" 
d="M227 -246q-20 4 -94 4q-71 0 -96 -4q7 168 7 448q0 240 -7 504q40 -4 86 -4q44 0 104 4q-2 -5 -2 -14t2 -15q-27 3 -66 3q-29 0 -30 -25q-6 -187 -6 -451q0 -247 6 -399q1 -26 27 -25q26 0 69 3q-3 -8 -3 -13q0 -7 3 -16z" />
    <glyph glyph-name="backslash" unicode="\" horiz-adv-x="279" 
d="M291 0q-20 4 -28 4q-12 0 -25 -4q-114 367 -250 706q13 -4 27 -4q8 0 26 4q76 -248 250 -706z" />
    <glyph glyph-name="bracketright" unicode="]" horiz-adv-x="263" 
d="M227 -246q-42 4 -87 4t-103 -4q1 5 1 14t-1 15q26 -3 65 -3q29 0 30 25q6 187 6 451q0 245 -6 399q-1 26 -27 25q-26 0 -68 -3q2 10 2 13q0 4 -2 16q19 -4 93 -4q70 0 97 4q-8 -192 -8 -448q0 -262 8 -504z" />
    <glyph glyph-name="asciicircum" unicode="^" horiz-adv-x="580" 
d="M467 350q-18 3 -32 3q-13 0 -33 -3q-28 101 -91 233q-3 11 -12 32q-4 8 -8 8q-5 0 -8 -8l-12 -33q-57 -121 -94 -232q-16 4 -31 4q-17 0 -33 -4q103 199 153 356q15 -7 28 -7q12 0 25 7q47 -150 148 -356z" />
    <glyph glyph-name="underscore" unicode="_" horiz-adv-x="385" 
d="M414 -125h-443v50h443v-50z" />
    <glyph glyph-name="grave" unicode="`" 
d="M169 525q-6 1 -14 1q-7 0 -11 -1q-33 66 -95 123q-26 24 -26 43q0 15 46 15q29 0 38 -5q13 -7 18 -31q11 -50 44 -145z" />
    <glyph glyph-name="a" unicode="a" horiz-adv-x="442" 
d="M432 0q-70 -7 -76 -7q-89 0 -89 59q0 7 -5 7t-8 -8.5t-6 -16.5q-30 -44 -92 -44q-136 0 -136 125q0 109 143 149q78 22 89 34q4 5 4 14v51q0 81 -21 100q-14 13 -50 13q-30 0 -30 -22v-33q-1 -22 -1 -30q0 -22 -19 -36t-39 -14q-18 0 -35 12.5t-17 34.5q0 109 170 109
q89 0 125 -30q40 -34 40 -127v-229v-22q-1 -15 -1 -22q0 -50 28 -50q12 0 24 5q-1 -3 -1 -8q0 -8 3 -14zM255 264q0 10 -6 10q-5 0 -17 -6q-15 -8 -28 -12q-64 -21 -64 -138q0 -97 46 -97q62 0 65 103q4 122 4 140z" />
    <glyph glyph-name="b" unicode="b" horiz-adv-x="490" 
d="M457 241q0 -138 -37 -193.5t-126 -55.5q-79 0 -101 48q-9 20 -15 20q-18 0 -24 -63q-17 2 -108 3q5 11 11 58q7 159 7 305q0 153 -10 302q-2 24 -18 24q-4 0 -12.5 -2t-13.5 -2q0 1 1 6v7q0 7 -1 9q19 -1 58 -1q75 0 122 5q-1 -20 -4 -67q-2 -73 -5 -218v-8q0 -5 3 -5
t5 6q8 33 39.5 55t73.5 22q84 0 118 -51q37 -56 37 -204zM336 231q0 159 -18 205q-12 30 -51 30q-34 0 -58 -51q-26 -55 -26 -146v-30q-1 -20 -1 -30q0 -187 86 -186q39 0 52 35q16 42 16 173z" />
    <glyph glyph-name="c" unicode="c" horiz-adv-x="392" 
d="M382 382q0 -25 -17 -41t-44 -16q-23 0 -41 16.5t-19 41.5v31q0 46 -4 54t-26 8q-44 0 -58 -40q-16 -45 -16 -185q0 -139 25 -188q20 -40 70 -40q51 0 72.5 18t33.5 72q9 -6 22 -6q-19 -117 -143 -117q-108 0 -156 56.5t-48 191.5q0 139 48 200q46 58 149 58
q152 0 152 -114z" />
    <glyph glyph-name="d" unicode="d" horiz-adv-x="501" 
d="M491 0q-28 2 -48 2q-62 0 -130 -6l6 78q-2 5 -3 5t-3 -2q-24 -87 -107 -87q-99 0 -137 56q-36 53 -36 192q0 153 36 209q33 50 117 50q49 0 78 -21q22 -16 41 -55q3 -6 6 -6q5 0 5 9q0 7 -1.5 21.5t-1.5 22.5q0 131 -3 191q-1 15 -4.5 20.5t-19.5 5.5q-11 0 -32 -3
q2 10 2 13q0 4 -2 13q24 -2 83 -2q64 0 104 4q-8 -195 -8 -367q0 -158 7 -297q1 -25 21 -25q5 0 15 2t15 2q-1 -4 -1 -12q0 -9 1 -13zM312 229q0 72 -3 98q-8 71 -33 108q-22 32 -50 32q-43 0 -55 -36q-14 -40 -14 -180q0 -146 14 -187t61 -41q66 0 78 118q2 20 2 88z" />
    <glyph glyph-name="e" unicode="e" horiz-adv-x="425" 
d="M405 270q-115 5 -124 5h-98q-25 0 -25 -18q0 -151 28 -200q22 -37 85 -37q87 0 107 102q8 -6 26 -6q-26 -129 -167 -129q-109 0 -156.5 57.5t-47.5 198.5q0 253 201 253q94 0 134 -54q36 -52 37 -172zM287 365q0 62 -13.5 87.5t-47.5 25.5q-66 0 -66 -173q0 -13 11 -13
q16 0 87 7q26 3 27 16q2 34 2 50z" />
    <glyph glyph-name="f" unicode="f" horiz-adv-x="263" 
d="M350 620q0 -19 -14 -32t-35 -13q-22 0 -37 15t-15 37v41q0 26 -25 26q-30 0 -38 -26q-6 -19 -6 -87v-82q0 -18 23 -18q16 0 50 2q-2 -12 -2 -14t2 -12q-21 2 -57 2q-16 0 -16 -13q-2 -70 -2 -89q0 -162 7 -316q1 -18 24 -18q4 0 22 2q-2 -10 -2 -14q0 -3 2 -11
q-60 5 -121 5q-50 0 -100 -5q1 4 1 12t-1 13q24 -2 27 -2q19 0 20 18q2 71 2 244q0 62 -2 162q0 12 -16 12q-17 0 -31 -2q1 4 1 12q0 9 -1 14q24 -3 34 -3q13 0 13 12v83q0 67 43.5 102t116.5 35q133 0 133 -92z" />
    <glyph glyph-name="g" unicode="g" horiz-adv-x="462" 
d="M462 441q0 -38 -32 -38t-32 36q0 10 3 17q0 4 -8 4q-9 0 -20 -5q-14 -5 -14 -14q0 -4 4 -12q20 -42 20 -84q0 -84 -48 -126q-43 -39 -118 -39q-57 0 -89 22q-7 5 -15 5t-17 -6q-28 -18 -28 -45q0 -35 81 -35q9 0 64.5 1.5t66.5 1.5q75 0 117.5 -44.5t42.5 -119.5
q0 -83 -67 -126q-59 -37 -152 -37q-207 0 -207 122q0 70 116 90q5 2 5 6q0 5 -3 5q-6 2 -31 8q-73 16 -73 104q0 33 10.5 48.5t42.5 32.5q9 5 9 11q0 4 -4 8q-40 26 -40 107q0 157 172 157q62 0 106 -30q12 -8 18 -8q1 0 27.5 14.5t47.5 14.5q45 0 45 -46zM268 358
q0 73 -14 100q-12 21 -38 21q-30 0 -40 -23q-14 -30 -14 -126q0 -80 11.5 -105.5t42.5 -25.5q44 0 52 62v97zM383 -80q0 64 -57 78q-25 6 -96 6q-70 0 -92 -8q-44 -16 -44 -74q0 -46 40.5 -73.5t101.5 -27.5q147 0 147 99z" />
    <glyph glyph-name="h" unicode="h" horiz-adv-x="488" 
d="M478 0q-50 5 -117 5q-69 0 -102 -5q0 1 1 5.5t1 7.5t-1 7t-1 5q20 -5 27 -5q22 0 23 22q4 71 4 198v20q0 93 -6 140.5t-41 47.5q-36 0 -57 -41q-28 -54 -28 -150v-20q0 -125 4 -195q1 -22 23 -22q8 0 30 5q-1 -4 -1 -13q0 -8 1 -12q-33 5 -107 5q-73 0 -121 -5q2 7 2 12
q0 6 -2 13q23 -5 27 -5q20 0 21 23q4 83 4 193q0 309 -4 429q-1 24 -19 24q-4 0 -14.5 -2.5t-14.5 -2.5q1 3 1 10q0 10 -1 14q32 -2 56 -2q52 0 122 6l-2 -229q0 -11 -1.5 -35.5t-1.5 -37.5q0 -5 5 -6q2 0 8 15q29 77 114 77q67 0 95 -34q32 -37 32 -130v-73q-1 -49 -1 -74
q0 -80 3 -144q1 -20 16 -20q7 0 23 4q-1 -4 -1 -13t1 -12z" />
    <glyph glyph-name="i" unicode="i" horiz-adv-x="256" 
d="M201 636q0 -30 -18 -52t-50 -22q-33 0 -51 22t-18 52t18.5 52.5t50.5 22.5t50 -22.5t18 -52.5zM246 0q-42 6 -110 6q-62 0 -126 -6q0 1 1 6v6.5v6.5q-1 5 -1 6q17 -5 30 -5q25 0 26 30q5 113 5 197q0 85 -5 191q-1 24 -23 24q-6 0 -17 -1.5t-16 -1.5q2 5 2 11q0 5 -2 13
q22 -2 77 -2q68 0 109 4q-5 -138 -5 -245q0 -103 4 -190q1 -29 21 -29q8 0 30 4q-1 -4 -1 -13q0 -8 1 -12z" />
    <glyph glyph-name="j" unicode="j" horiz-adv-x="251" 
d="M193 636q0 -30 -18 -52t-50 -22q-33 0 -51 22t-18 52t18.5 52.5t50.5 22.5t50 -22.5t18 -52.5zM197 487q-5 -104 -5 -258v-248q0 -77 -57 -132q-48 -47 -124 -67q-3 12 -10 19q15 3 39 18q25 28 29 162q0 -4 0 161q0 242 -5 294q-3 29 -22 29q-5 0 -16 -2t-16 -2q0 1 1 5
v6v6q-1 4 -1 5h28q20 -1 31 -1q82 0 128 5z" />
    <glyph glyph-name="k" unicode="k" horiz-adv-x="495" 
d="M485 0q-45 4 -99 4q-69 0 -118 -4q2 8 2 11t-2 13q1 0 10 -1t15 -1q15 0 15 6q0 -1 -7 18q-12 33 -73 155q-13 26 -24 26h-9q-14 0 -14 -15v-16q0 -79 2 -152q1 -23 23 -23q-6 0 30 4q-1 -4 -1 -14q0 -8 1 -11q-52 5 -116 5q-48 0 -110 -5q1 4 1 13q0 8 -1 12
q20 -5 25 -5q20 0 21 22q5 109 5 340q0 189 -5 283q-1 23 -19 23q9 0 -27 -4q1 3 1 10q0 8 -1 12h25q17 -1 27 -1q62 0 122 5q-4 -77 -4 -312q0 -23 1 -68v-68q0 -14 15 -14h6q21 0 36 28q50 91 69 165q3 12 3 11q0 10 -17 10q-5 0 -18 -1.5t-19 -1.5q2 4 2 12q0 2 -2 12
q56 -4 88 -4q28 0 82 4q-2 -10 -2 -12q0 -4 2 -12q-8 0 -20 2t-17 2q-17 0 -31 -19q-57 -78 -57 -106q0 -17 10 -39q83 -183 129 -251q17 -25 34 -25q7 0 11 1q-2 -10 -2 -13q0 -7 2 -11z" />
    <glyph glyph-name="l" unicode="l" horiz-adv-x="246" 
d="M236 0q-52 5 -112 5q-52 0 -114 -5q1 4 1 13q0 8 -1 12q16 -4 26 -4q19 0 20 20q5 105 5 339q0 183 -5 281q-1 27 -18 27q-4 0 -12 -2q-11 -2 -16 -2q1 3 1 10q0 8 -1 12h25q18 -1 28 -1q66 0 126 5q-4 -77 -4 -312q0 -238 3 -355q1 -22 20 -22q-8 0 28 4q-1 -4 -1 -14
q0 -8 1 -11z" />
    <glyph glyph-name="m" unicode="m" horiz-adv-x="740" 
d="M730 0q-60 5 -118 5q-48 0 -98 -5q1 4 1 12q0 9 -1 13q25 -5 29 -5q19 0 20 27q5 98 5 245q0 79 -3 113q-4 44 -48 44q-54 0 -67 -44t-13 -216q0 -56 3 -142q1 -27 27 -27q7 0 29 5v-7q-1 -4 -1 -7q0 -8 1 -11q-40 6 -112 6q-76 0 -123 -6q1 3 1 12q0 10 -1 13
q24 -4 28 -4q22 0 23 28q3 74 3 176q0 101 -3 180q-2 44 -50 44q-44 0 -59 -44q-22 -62 -22 -204q0 -86 4 -159q1 -21 26 -21q12 0 28 4v-6q-1 -4 -1 -7q0 -2 1 -6v-6q-34 5 -109 5q-70 0 -120 -5q1 4 1 14q0 8 -1 11q20 -5 26 -5q19 0 20 20q4 81 4 195q0 110 -4 201
q-1 28 -18 28q5 0 -28 -3q1 4 1 11q0 6 -1 11h24q16 -1 25 -1q64 0 124 5l-6 -72q0 -9 4 -9q3 0 6 5q14 43 46 65q29 20 77 20q37 0 66 -12q44 -19 46 -74q2 -6 5 -6t5 6q27 84 127 84q75 0 104 -31.5t29 -108.5q0 -39 -1.5 -118t-1.5 -119q0 -20 3 -71q1 -25 17 -25
q1 0 21 4q-2 -8 -2 -13q0 -4 2 -12z" />
    <glyph glyph-name="n" unicode="n" horiz-adv-x="491" 
d="M481 0q-50 5 -121 5q-70 0 -103 -5q2 7 2 12q0 6 -2 13q14 -4 32 -4q17 0 18 19q4 75 4 219v20q0 71 -6 122q-6 48 -50 48q-40 0 -57 -44q-18 -48 -18 -200q0 -78 5 -166q1 -18 23 -18q15 0 29 4q-1 -4 -1 -13q0 -8 1 -12q-33 5 -107 5q-72 0 -120 -5q3 8 3 12q0 6 -3 13
q16 -4 20 -4q15 0 20.5 3t6.5 17q4 83 4 195q0 115 -4 203q-1 24 -17 24q6 0 -30 -4q1 3 1 10q0 10 -1 14q32 -2 46 -2q51 0 121 6q-4 -60 -4 -75q0 -7 2 -7q5 0 10 14q28 77 128 77q67 0 94.5 -37.5t27.5 -126.5v-79q-1 -52 -1 -78q0 -79 3 -138q1 -16 13 -16q3 0 31 4
q-1 -4 -1 -13t1 -12z" />
    <glyph glyph-name="o" unicode="o" horiz-adv-x="472" 
d="M439 240q0 -137 -46.5 -191.5t-156.5 -54.5t-155 54q-48 55 -48 192t46 196.5t157 59.5t157 -59.5t46 -196.5zM316 237q0 156 -21 205q-15 36 -59 36t-59 -36q-21 -49 -21 -205q0 -137 22 -186q17 -39 58 -39t58 39q22 49 22 186z" />
    <glyph glyph-name="p" unicode="p" horiz-adv-x="498" 
d="M465 241q0 -138 -37 -193.5t-126 -55.5q-74 0 -101 48q-4 8 -8 8q-3 0 -5 -6v-41q0 -96 3 -158q1 -23 22 -23q9 0 27 4q-1 -4 -1 -13q0 -8 1 -12q-33 5 -106 5q-74 0 -122 -5q2 6 2 12q0 5 -2 13q36 -4 30 -4q21 0 22 22q4 168 4 297q0 166 -7 289q-2 33 -21 33
q-4 0 -14 -2t-16 -2q1 4 1 12q0 9 -1 13q26 -2 43 -2q62 0 138 8q-5 -50 -5 -69q0 -8 4 -8t7 8q27 77 113 77q84 0 118 -51q37 -56 37 -204zM344 231q0 159 -18 205q-12 30 -51 30q-34 0 -58 -51q-26 -55 -26 -146v-30q-1 -20 -1 -30q0 -187 86 -186q39 0 52 35
q16 42 16 173z" />
    <glyph glyph-name="q" unicode="q" horiz-adv-x="476" 
d="M475 -201q-39 5 -102 5q-62 0 -124 -5q1 4 1 13q0 8 -1 12q16 -4 25 -4q16 0 20 16l3 167q0 21 3 41.5t3 21.5q0 7 -4 7q-2 0 -16 -33q-28 -48 -98 -48q-152 0 -152 249q0 252 157 252q36 0 63 -15q20 -11 27 -26q9 -19 15 -19q12 0 14 63q27 -11 102 -11q11 0 16 1
q-6 -32 -6 -143q0 -315 5 -501q1 -22 19 -22q5 0 15 2t15 2q-1 -4 -1 -14q0 -8 1 -11zM298 240v33q0 193 -81 192q-35 0 -50 -41q-11 -31 -11 -87q2 519 2 -79q0 -153 12 -194.5t53 -41.5q75 0 75 218z" />
    <glyph glyph-name="r" unicode="r" horiz-adv-x="372" 
d="M374 411q0 -39 -18 -59.5t-43 -20.5q-24 0 -42.5 17.5t-17.5 44.5q0 5 1 17.5t1 18.5q0 10 -8 10q-15 0 -32 -39.5t-23 -76.5q-6 -40 -6 -147q0 -72 3 -133q1 -22 24 -22q11 0 29 4q-1 -4 -1 -13q0 -8 1 -12q-33 5 -107 5q-77 0 -125 -5q2 10 2 13q0 4 -2 12q16 -4 31 -4
q20 0 21 22q4 83 4 193q0 108 -4 198q-1 28 -22 28q3 0 -30 -3q1 3 1 10q0 10 -1 14q18 -2 54 -2q74 0 128 6q-6 -50 -6 -81q0 -9 4 -9q3 0 7 8q43 91 108 91q33 0 52 -27q17 -23 17 -58z" />
    <glyph glyph-name="s" unicode="s" horiz-adv-x="370" 
d="M350 153q0 -77 -42.5 -120t-125.5 -43q-84 0 -147 28q3 25 3 49q0 34 -8 110h4q7 0 16 4q11 -78 35 -117q32 -51 95 -51q77 0 77 82q0 49 -49 77q-49 23 -97 45q-74 40 -74 125q0 153 151 153q83 0 131 -20q-6 -29 -6 -63q0 -35 6 -74q-3 1 -12 1q-2 0 -8 -2
q-22 138 -114 138q-70 0 -70 -75q0 -37 36 -62q17 -11 78 -37q57 -24 83 -49q38 -38 38 -99z" />
    <glyph glyph-name="t" unicode="t" horiz-adv-x="288" 
d="M290 82q-9 -47 -28 -66q-22 -21 -72 -21q-68 0 -94 22q-32 26 -32 98q0 56 1 166.5t1 165.5q0 13 -11 13l-45 -3q1 4 1 12q0 10 -1 14q13 -2 39 -2q17 0 17 14q0 26 -5 61q105 42 125 57l3 -5q-2 -34 -2 -109q0 -18 18 -18q49 0 73 2q-1 -3 -1 -13t1 -13q-36 3 -73 3
q-17 0 -17 -15v-101q-1 -98 -1 -110q0 -166 6 -184q9 -25 37 -25q35 0 35 62q7 -5 20 -5h5z" />
    <glyph glyph-name="u" unicode="u" horiz-adv-x="503" 
d="M493 0q-18 2 -100 2q-34 0 -88 -6q5 11 5 61q0 9 -8 9q-4 0 -7 -5q-34 -69 -119 -69q-68 0 -94 34t-26 125q0 27 1 79v79q0 91 -3 135q-1 18 -18 18q-10 0 -26 -4q1 4 1 13t-1 12q37 -4 100 -4q53 0 75 1l-5 -276v-102q8 -66 50 -66q31 0 53 38q30 52 30 164v46
q0 45 -5 153q-1 25 -23 25q-8 0 -30 -4q1 4 1 13q0 8 -1 12q40 -5 84 -5q43 0 97 4q-5 -169 -5 -235q0 -4 -1 -67q-1 -50 0 -80q1 -43 5.5 -62t24.5 -19q6 0 33 5q-1 -3 -1 -10q0 -10 1 -14z" />
    <glyph glyph-name="v" unicode="v" horiz-adv-x="443" 
d="M433 460q-21 4 -23 4q-15 0 -34 -53q-43 -119 -57 -160q-38 -110 -82 -260q-10 4 -15 4q-6 0 -13 -4q-64 203 -156 453q-7 19 -20 19q4 0 -23 -3q1 3 1 10q0 9 -1 13q48 -3 106 -3q69 0 126 3q-1 -4 -1 -12q0 -7 1 -11q-40 5 -32 5q-19 0 -19 -17q0 -5 1 -8
q5 -41 70 -220q2 -17 6 -39q2 -5 5 -5q3 1 4 5q2 10 11 39q37 116 47 179q3 20 3 33q0 31 -26 31q-8 0 -25 -3q1 4 1 11q0 8 -1 12q35 -3 76 -3q37 0 70 3q-1 -4 -1 -13q0 -7 1 -10z" />
    <glyph glyph-name="w" unicode="w" horiz-adv-x="663" 
d="M653 460q-16 4 -22 4q-13 0 -20 -16q-3 -6 -22 -60q-20 -57 -122 -397q-8 2 -13 2q-3 0 -15 -2l-97 312q-2 7 -3 27.5t-6 20.5q-6 0 -6 -12q-1 -5 -98 -348q-12 2 -14 2q-5 0 -13 -2q-98 306 -114 353q-9 29 -39 104q-6 16 -18 16q-5 0 -21 -4q1 3 1 11t-1 12
q60 -5 120 -5q52 0 104 5v-23q-15 3 -25 3q-16 0 -16 -9q0 -1 1 -3v-4q13 -64 15 -70q2 -10 44 -145q1 -13 5 -35q1 -3 3 -3t12 36l39 146q2 7 2 10q0 12 -9 31q-14 30 -14 31q-5 15 -16 15q4 0 -20 -3q1 3 1 10q0 9 -1 13q48 -3 102 -3q63 0 120 3q-1 -4 -1 -12q0 -7 1 -11
q-24 4 -30 4q-17 0 -17 -13q0 -27 64 -240q2 -6 3 -25q0 -15 3 -15q1 0 13 39q25 85 35 127q16 69 16 114q0 13 -19 13q-4 0 -28 -4q1 4 1 11q0 8 -1 12q35 -3 76 -3q29 0 60 3q-1 -4 -1 -13q0 -7 1 -10z" />
    <glyph glyph-name="x" unicode="x" horiz-adv-x="459" 
d="M449 0q-52 3 -116 3q-58 0 -106 -3q1 4 1 11v6q-1 4 -1 7h9q8 -1 12 -1q19 0 19 10q0 9 -4 19q-14 35 -47 101q-3 6 -10 25q-4 9 -7 9q-6 0 -17 -18q-50 -82 -63 -117q-4 -8 -4 -19t25 -11q6 0 16 1t12 1v-6q-1 -5 -1 -7t1 -6v-5q-52 4 -84 4q-43 0 -74 -4q1 4 1 11
q0 8 -1 13q5 -1 15 -1q23 0 36.5 11t51.5 64q1 1 56 91q11 18 11 28t-8 26q-67 131 -108 199q-12 20 -27 20q6 0 -27 -3q2 7 2 12t-2 12q60 -3 130 -3q60 0 111 3q-2 -7 -2 -12t2 -12q-2 0 -14.5 1.5t-19.5 1.5q-20 0 -20 -11q0 -5 3 -14q10 -22 43 -91q3 -7 5 -13
q4 -11 8 -11q7 0 19 20q22 33 59 100q3 7 3 12q0 8 -14 8q-6 0 -15.5 -1.5t-11.5 -1.5q2 4 2 12q0 7 -2 12q27 -4 66 -4q31 0 77 4q-2 -10 -2 -13t2 -11q-5 0 -13 1t-12 1q-18 0 -29 -9t-47 -54q-17 -26 -53 -77q-12 -17 -12 -26t10 -29q72 -141 80 -157q13 -24 40 -68
q11 -18 24 -18q3 0 10 1h12q-2 -5 -2 -11q0 -5 2 -13z" />
    <glyph glyph-name="y" unicode="y" horiz-adv-x="458" 
d="M448 461q-8 2 -19 2q-20 0 -29 -15q-29 -49 -78 -232l-72 -270q-21 -80 -35 -104q-27 -46 -80 -46q-76 0 -76 70q0 28 16 45t38 17t38 -17q17 -20 17 -53q0 -23 9 -23q12 0 22 21q15 30 32 101q3 12 3 29q0 27 -7 46q-74 202 -79 213q-50 129 -92 205q-7 13 -20 13
q-3 0 -26 -5q1 3 1 11q0 10 -1 14q52 -5 130 -5q79 0 114 5q-2 -8 -2 -14q0 -5 2 -11q-30 5 -32 5q-17 0 -17 -12q1 -6 1 -5q7 -30 47 -123q34 -80 36 -114q0 -7 6 -7q4 0 4.5 2t10.5 41q29 116 38 184q0 2 1 6v5q0 24 -23 24q-10 0 -25 -3q2 6 2 11t-2 11q27 -3 78 -3
q45 0 69 3q-1 -3 -1 -11t1 -11z" />
    <glyph glyph-name="z" unicode="z" horiz-adv-x="398" 
d="M383 0q-81 3 -187 3q-109 0 -180 -3q-1 8 -5 12q10 15 30 47q78 139 116.5 225t75.5 170q1 2 2 5q0 5 -9 5q-58 0 -81 -6q-29 -7 -50 -30q-30 -33 -31 -110q-8 2 -14 2h-4q-2 -1 -3 -1q3 32 3 78q0 47 -3 86q78 -3 177 -3q84 0 148 3q0 -9 3 -12q-56 -88 -116 -221
q-47 -108 -95 -215q-4 -7 -4 -10q0 -4 10 -4h30q54 0 78 6q30 6 51 27q35 34 38 132q4 -1 10 -1t10 1q-3 -34 -3 -88q0 -53 3 -98z" />
    <glyph glyph-name="braceleft" unicode="{" horiz-adv-x="271" 
d="M248 -260q-107 8 -135 39q-31 34 -31 155v116q0 107 -11.5 139t-47.5 32q1 4 1 9q0 6 -1 9q36 0 47 27t11 129v118q0 130 31 166q28 34 136 42q-1 -3 -1 -9q0 -7 1 -10q-46 0 -63 -28q-19 -33 -19 -133v-82q0 -80 -4 -112q-10 -73 -43 -100q-7 -6 -26 -9q-15 -3 -15 -8
q0 -6 15 -8q19 -4 26 -9q33 -26 43 -89q5 -31 5 -102v-103q0 -105 19 -136q15 -25 62 -25q-1 -3 -1 -9t1 -9z" />
    <glyph glyph-name="bar" unicode="|" horiz-adv-x="155" 
d="M103 -250q-9 1 -28 1q-16 0 -23 -1q6 181 6 457q0 288 -6 543q14 -2 27 -2q10 0 24 2q-7 -237 -7 -543q0 -286 7 -457z" />
    <glyph glyph-name="braceright" unicode="}" horiz-adv-x="271" 
d="M248 221q-36 0 -47.5 -32t-11.5 -139v-116q0 -121 -29.5 -153.5t-136.5 -40.5q1 3 1 9t-1 9q47 0 62 25q19 31 19 136v103q0 71 5 102q10 63 43 89q7 5 26 9q15 2 15 8q-1 5 -16 8q-18 3 -25 9q-33 27 -43 100q-4 32 -4 112v82q0 100 -19 133q-17 28 -63 28q1 3 1 10
q0 6 -1 9q108 -8 137.5 -43t29.5 -165v-118q0 -102 11 -129t47 -27q-1 -3 -1 -9q0 -5 1 -9z" />
    <glyph glyph-name="asciitilde" unicode="~" horiz-adv-x="580" 
d="M486 301q-51 -77 -109 -77q-31 0 -90 35t-88 35q-23 0 -39 -15q-11 -10 -38 -50q-9 36 -28 54q45 80 104 80q36 0 96.5 -35t82.5 -35q41 0 82 63q7 -35 27 -55z" />
    <glyph glyph-name="nonbreakingspace" unicode="&#xa0;" horiz-adv-x="190" 
 />
    <glyph glyph-name="exclamdown" unicode="&#xa1;" horiz-adv-x="208" 
d="M178 422q0 -32 -22.5 -54.5t-54.5 -22.5t-54 22.5t-22 54.5t22.5 54t53.5 22q32 0 54.5 -22.5t22.5 -53.5zM188 -139q0 -41 -25.5 -65t-59.5 -24t-56 22q-26 25 -26 69q0 29 18 140q1 6 30 147q21 105 22 145h25q1 -48 23 -153q14 -70 29 -139q20 -118 20 -142z" />
    <glyph glyph-name="cent" unicode="&#xa2;" horiz-adv-x="442" 
d="M422 155q-36 -147 -152 -162q-21 -3 -21 -15q0 -26 2 -78q-12 2 -15 2q-4 0 -16 -2q3 75 3 78q0 13 -20 15q-183 20 -183 246q0 230 186 252q17 2 17 17q0 1 -3 91q10 -2 15 -2q6 0 16 2q-3 -93 -3 -94q0 -13 17 -14q67 -3 106 -36q42 -36 42 -101q0 -26 -16.5 -40.5
t-39.5 -14.5q-24 0 -40 15q-19 17 -19 46v44q0 68 -40 68q-10 0 -10 -21q-1 -75 -1 -193q0 -136 1 -221q0 -22 12 -22q108 0 134 149q11 -9 28 -9zM223 37v414q0 20 -10 20q-39 0 -55 -58q-14 -54 -14 -180q0 -214 74 -214q5 0 5 18z" />
    <glyph glyph-name="sterling" unicode="&#xa3;" horiz-adv-x="494" 
d="M484 190q0 -113 -36.5 -161.5t-123.5 -48.5q-39 0 -71 23q-18 14 -42 44q-19 23 -27 23q-7 0 -14 -7l-40 -42q-27 -25 -52 -25q-33 0 -50.5 19t-17.5 46q0 26 17 45.5t45 19.5t54.5 -19t37.5 -19q26 0 26 75q0 35 -22 91q-25 63 -28 89q-2 15 -7 18t-26 3q-8 0 -25 -2
q-21 -2 -43 -3q2 8 2 15t-2 17q18 -1 37 -3q15 -2 25 -2q21 0 25.5 2.5t4.5 12.5q0 1 -3.5 22t-3.5 39q0 74 53 150q63 92 160 92q62 0 96 -29q29 -24 29 -60q0 -30 -18 -47.5t-43 -17.5q-24 0 -40 17q-19 19 -19 52q0 8 3 22.5t3 20.5q0 22 -33 22q-83 0 -83 -93
q0 -39 16 -105q17 -70 18 -78q1 -17 5.5 -20.5t23.5 -3.5q9 0 34 2q32 3 66 5q-3 -9 -3 -17q0 -7 3 -15q-30 1 -59 3q-23 2 -32 2q-29 0 -29 -10q0 -1 1 -4v-4q11 -39 11 -78q0 -109 -74 -165q-14 -11 -14 -15q0 -9 26 -12t63 -3q104 0 137.5 23.5t33.5 93.5q0 5 -10 52
q9 -3 15 -3q12 0 18 3q2 -32 2 -52z" />
    <glyph glyph-name="currency" unicode="&#xa4;" horiz-adv-x="487" 
d="M400 189q-18 -14 -33 -32q-6 8 -39 46q-3 3 -6 3q-1 0 -4 -2q-39 -28 -87 -28q-49 0 -88 28q-4 3 -5 3q-2 0 -6 -4q-15 -16 -39 -44q-20 25 -32 33q1 1 45 39q3 3 3 6q0 2 -1 3q-29 39 -29 88q0 48 27 86q3 4 3 6q0 4 -3 7q-12 12 -44 38q19 15 32 32q12 -15 37 -42
q5 -5 7 -5q-3 0 29 15t64 15q48 0 86 -27q4 -3 7 -3q1 0 6 5q24 26 37 43q16 -21 33 -34q-47 -37 -47 -44q0 -2 2 -4q28 -39 28 -87q0 -33 -15 -63.5t-15 -29.5q0 -7 47 -47zM347 329q0 51 -34 84t-82 33t-82 -33.5t-34 -83.5t34 -84t83 -34q48 0 81.5 33.5t33.5 84.5z" />
    <glyph glyph-name="yen" unicode="&#xa5;" horiz-adv-x="560" 
d="M542 662q-30 4 -32 4q-13 0 -25 -21q-25 -44 -31 -56.5t-66 -150.5q-11 -25 -11 -23q1 -2 6 -2q20 0 54 2q40 3 54 3q-2 -14 -2 -17t2 -15q-61 4 -108 4q-13 0 -16.5 -3t-7.5 -17q-3 -9 -3 -42q0 -30 2.5 -36.5t14.5 -6.5q40 0 118 4q-2 -12 -2 -16t2 -16q-65 5 -117 5
q-13 0 -15.5 -5.5t-2.5 -21.5q0 -60 6 -188q1 -26 25 -26q6 0 19.5 2t20.5 2q-2 -10 -2 -13q0 -8 2 -12q-51 4 -126 4q-60 0 -146 -4q2 10 2 13q0 4 -2 12q44 -4 37 -4q25 0 26 24q3 73 3 162q0 39 -3 47.5t-17 8.5q-66 0 -132 -6q2 12 2 16t-2 16q75 -5 137 -5q14 0 14 17
v46q0 37 -27 42q-97 0 -124 -3q2 5 2 15q0 5 -2 17q32 -2 104 -4q3 0 10.5 -1t9.5 -1q4 0 4 5q0 -3 -13 23q-58 117 -112 210q-9 15 -25 15q4 0 -29 -3q2 6 2 12q0 5 -2 12q62 -3 139 -3q72 0 130 3q-2 -7 -2 -12q0 -6 2 -12q-26 2 -34 2q-17 0 -17 -11q0 -5 1 -8
q17 -51 21 -62q6 -14 71 -149q13 -27 16 -27q6 0 12 14q30 70 39 94q22 58 42 128q1 4 1 8q0 14 -18 14q-4 0 -14.5 -1.5t-15.5 -1.5q1 5 1 11q0 8 -1 13q27 -3 68 -3q44 0 83 3v-7q-1 -5 -1 -6q0 -2 1 -5v-6z" />
    <glyph glyph-name="brokenbar" unicode="&#xa6;" horiz-adv-x="155" 
d="M103 325q-17 5 -25 5q-9 0 -26 -5q6 90 6 191q0 95 -6 159q14 -3 24 -3q14 0 27 3q-4 -64 -4 -170q0 -120 4 -180zM103 -175q-13 3 -27 3q-10 0 -24 -3q6 64 6 159q0 101 -6 191q17 -5 26 -5q8 0 25 5q-4 -60 -4 -180q0 -106 4 -170z" />
    <glyph glyph-name="section" unicode="&#xa7;" horiz-adv-x="474" 
d="M454 69q0 -144 -67 -216q-63 -67 -179 -67q-188 0 -188 143q0 29 19.5 48t44.5 19t41 -18q18 -21 18 -59q0 -10 -1 -31.5t-1 -32.5q0 -26 11 -35q15 -14 61 -14q69 0 111 34.5t42 95.5q0 76 -118 167l-62 48q-71 55 -105 103q-58 84 -58 196q0 116 53 185q61 82 182 82
q172 0 172 -128q0 -28 -19.5 -44.5t-44.5 -16.5q-23 0 -39.5 14t-16.5 40q0 14 2.5 40.5t2.5 39.5q0 20 -9 28q-12 10 -49 10q-62 0 -98.5 -30.5t-36.5 -78.5t45 -100q34 -39 110 -97q26 -20 76 -63q101 -102 101 -262zM425 28q0 96 -47 163q-31 45 -164 148q-60 47 -88 87
q-34 49 -34 107q0 5 1 21v23q0 20 -4 20q-17 0 -27 -51q-7 -36 -7 -64q0 -82 52 -147q38 -48 150 -134q68 -52 94 -89q41 -56 41 -131q0 -7 -1 -21t-1 -21q0 -9 6 -9q14 0 23 44q6 32 6 54z" />
    <glyph glyph-name="dieresis" unicode="&#xa8;" 
d="M225 616q0 -19 -14 -33t-34 -14q-19 0 -33 14t-14 33q0 20 14 34t33 14q20 0 34 -14t14 -34zM63 616q0 -19 -14 -33t-34 -14t-33.5 14t-13.5 33q0 20 14 34t33 14q20 0 34 -14t14 -34z" />
    <glyph glyph-name="copyright" unicode="&#xa9;" horiz-adv-x="732" 
d="M722 352q-1 -149 -103.5 -252t-253.5 -103q-143 0 -247 99q-108 103 -108 257q0 152 105 254t251 102q153 0 255 -104.5t101 -252.5zM700 352q1 138 -94.5 236.5t-237.5 98.5q-141 0 -238.5 -98t-97.5 -236q0 -140 98 -237t236 -97q140 0 236.5 97t97.5 236zM547 134
l-62 -21q-54 -18 -107 -18q-113 0 -176 77q-58 72 -58 190q0 111 62 176.5t171 65.5q47 0 96 -16q53 -17 57 -17q-2 -14 -2 -43q0 -57 10 -104q-10 0 -20 -5q-35 161 -142 161q-55 0 -75 -36q-25 -45 -25 -175q0 -157 23 -208q21 -44 82 -44q58 0 97 49q35 44 43 114
q7 -3 21 -3q-4 -23 -4 -51q0 -47 9 -92z" />
    <glyph glyph-name="ordfeminine" unicode="&#xaa;" horiz-adv-x="320" 
d="M310 392q-70 -5 -72 -5q-28 0 -38 5q-16 8 -16 31q0 9 -4 9q1 0 -10 -11q-27 -35 -76 -35q-84 0 -84 85q0 67 117 97q18 5 39 15q11 7 11 19v16q0 51 -6 64.5t-30 13.5q-14 0 -17.5 -2.5t-3.5 -15.5v-36q0 -19 -16.5 -31.5t-35.5 -12.5q-38 0 -38 39q0 38 27.5 56.5
t101.5 18.5q55 0 81 -21q28 -24 28 -80v-138q0 -39 2.5 -51t11.5 -12q10 0 28 6q-2 -6 -2 -13q0 -5 2 -11zM177 526v27q0 17 -5 17q-13 0 -35 -12.5t-29 -31.5q-5 -15 -5 -55q0 -57 24 -57q29 0 41 30q9 23 9 82z" />
    <glyph glyph-name="guillemotleft" unicode="&#xab;" horiz-adv-x="363" 
d="M343 119q-11 -5 -19 -19q-12 21 -50 61q-35 34 -103 104q18 23 50 54q42 39 53 51q38 40 50 61q8 -14 19 -19q-42 -39 -53 -66q-9 -23 -9 -80t9 -81q11 -27 53 -66zM183 119q-11 -5 -19 -19q-12 21 -50 61q-35 34 -103 104q18 23 50 54q42 39 53 51q38 40 50 61
q8 -14 19 -19q-42 -39 -53 -66q-9 -23 -9 -80t9 -81q11 -27 52 -66h1z" />
    <glyph glyph-name="logicalnot" unicode="&#xac;" horiz-adv-x="587" 
d="M577 0q-15 5 -25 5q-9 0 -26 -5q5 73 5 159q0 55 -2 95q-1 12 -4 15t-14 3q-116 4 -239 4q-140 0 -262 -6q4 11 4 22q0 7 -4 29q194 -4 307 -4q128 0 260 4q-6 -73 -6 -162q0 -100 6 -159z" />
    <glyph glyph-name="minus" unicode="&#xad;" horiz-adv-x="527" 
d="M504 266q-76 5 -222 5q-129 0 -259 -5q3 14 3 24q0 12 -3 27q98 -5 259 -5q146 0 222 5q-3 -13 -3 -24q0 3 3 -27z" />
    <glyph glyph-name="minus" unicode="&#x2212;" horiz-adv-x="527" 
d="M504 266q-76 5 -222 5q-129 0 -259 -5q3 14 3 24q0 12 -3 27q98 -5 259 -5q146 0 222 5q-3 -13 -3 -24q0 3 3 -27z" />
    <glyph glyph-name="registered" unicode="&#xae;" horiz-adv-x="242" 
d="M248 598q0 -53 -36.5 -89.5t-89.5 -36.5q-51 0 -89 36t-38 90t37.5 90.5t89.5 36.5q54 0 90 -37t36 -90zM229 598q0 45 -30.5 76t-75.5 31t-76.5 -31t-31.5 -76t31.5 -76t75.5 -31q45 0 76 31.5t31 75.5zM199 561q-7 -37 -28 -37q-22 0 -32 40q-5 22 -7 24q-4 7 -17 7
q-11 0 -11.5 -7t-0.5 -18q0 -22 3 -27t16 -7q-2 -4 -2 -8q0 -1 1 -3q-6 0 -15.5 1t-14.5 1t-13 -1t-14 -1q0 8 -2 10q11 2 14 5.5t3 17.5q2 18 2 36q0 -6 -2 50q-1 15 -17 16q3 3 3 9v2q-1 0 -1 1q11 0 19 -1t9 -1q2 0 18.5 1t19.5 1q51 0 51 -35q0 -27 -26 -34l-6.5 -1
t-6.5 -2q0 -2 5.5 -3t6.5 -2q10 -9 14 -30.5t9 -21.5q8 0 12 20q2 -2 7 -2h3zM152 637q0 23 -26 23q-15 0 -18.5 -3.5t-3.5 -18.5v-21q0 -8 11 -8q37 0 37 28z" />
    <glyph glyph-name="macron" unicode="&#xaf;" 
d="M258 595q-60 5 -123 5q-74 0 -142 -5q2 14 2 19q0 4 -2 20q62 -3 140 -3q74 0 125 3q-4 -11 -4 -20q0 -10 4 -19z" />
    <glyph glyph-name="macron" unicode="&#x2c9;" 
d="M258 595q-60 5 -123 5q-74 0 -142 -5q2 14 2 19q0 4 -2 20q62 -3 140 -3q74 0 125 3q-4 -11 -4 -20q0 -10 4 -19z" />
    <glyph glyph-name="degree" unicode="&#xb0;" horiz-adv-x="271" 
d="M261 601q0 -53 -31 -89q-35 -41 -95 -41q-59 0 -94 41q-31 36 -31 89t31 89q35 41 94 41q60 0 95 -41q31 -36 31 -89zM215 601q0 35 -21 61t-58 26q-38 0 -59 -25.5t-21 -61.5q0 -35 21 -61t59 -26t59 27q20 24 20 60z" />
    <glyph glyph-name="plusminus" unicode="&#xb1;" horiz-adv-x="527" 
d="M512 381q-189 6 -208 6q-23 0 -23 -22q3 -76 7 -218q-13 3 -24 3q-14 0 -26 -4q6 204 6 222q0 19 -22 19q-40 0 -104 -3q-86 -3 -104 -4q3 8 3 23q0 12 -3 27q189 -6 208 -6q23 0 23 24q-2 77 -6 217q12 -3 26 -3q10 0 24 2q-4 -73 -8 -218q0 -10 6 -16t16 -6q3 0 209 6
q-2 -16 -2 -25q0 -6 2 -24zM504 0q-76 5 -222 5q-129 0 -259 -5q3 14 3 24q0 12 -3 27q98 -5 259 -5q146 0 222 5q-3 -13 -3 -24q0 3 3 -27z" />
    <glyph glyph-name="twosuperior" unicode="&#xb2;" horiz-adv-x="313" 
d="M303 372q-34 -68 -43 -126q-62 5 -140 5q-60 0 -107 -5v5q0 7 -3 14q49 49 129 134q32 37 40.5 66t8.5 77q0 80 -26 101q-15 12 -38 12q-72 0 -72 -96q0 -81 58 -109q-10 -11 -13 -25q-67 56 -67 130q0 138 128 138q75 0 108 -31q30 -29 30 -92q0 -49 -38 -99
q-10 -13 -41 -39q-42 -36 -53.5 -46.5t-42.5 -40.5q-11 -12 -11 -14q1 -3 2 -3q11 4 42 4q13 0 33.5 -1t25.5 -1q33 0 46 9.5t23 42.5q9 -8 21 -10z" />
    <glyph glyph-name="threesuperior" unicode="&#xb3;" horiz-adv-x="309" 
d="M289 398q0 -86 -37.5 -122t-119.5 -36q-59 0 -86 31q-19 22 -31 73q12 0 25 10q10 -83 91 -83q52 0 52 125q0 72 -5.5 90t-30.5 18q-41 0 -77 -61q-9 13 -19 20q37 34 108 123q12 15 12 18q0 2 -5 4l-18 -4q-56 2 -81 2q-16 0 -20 -11q-12 -30 -14 -45q-10 9 -22 11
q14 31 40 127q40 -4 102 -4q65 0 106 4v-3q0 -9 2 -15q-47 -49 -118 -137q-2 -4 -2 -5q0 -4 6 -4q4 0 10.5 2.5t11.5 2.5q64 0 92 -30.5t28 -100.5z" />
    <glyph glyph-name="acute" unicode="&#xb4;" 
d="M169 691q0 -18 -27 -43q-62 -57 -95 -123q-4 1 -11 1q-8 0 -13 -1q35 109 43 145q5 24 18 31q9 5 38 5q47 0 47 -15z" />
    <glyph glyph-name="mu" unicode="&#xb5;" horiz-adv-x="491" 
d="M491 0q-18 2 -60 2q-74 0 -128 -6q4 23 4 61q0 13 -6 13q-5 0 -10 -10q-29 -59 -68 -59q-14 0 -28.5 4l-14.5 4q-5 0 -5 -8q0 -5 1.5 -31t1.5 -42q0 -37 1.5 -65.5t1.5 -45.5q0 -28 -14 -35q-9 -4 -43 -4q-49 0 -59.5 6t-10.5 32q0 4 1 107.5t1 184.5q0 329 -5 344
q-3 9 -20 9q-12 0 -23 -3q1 4 1 13t-1 12q37 -4 100 -4q53 0 75 1l-5 -276q0 -63 6 -112q7 -57 45 -57q21 0 41 26t30 77q11 58 11 146q0 43 -5 153q-1 15 -6 19.5t-23 4.5q-3 0 -24 -3q1 4 1 13q0 8 -1 12q40 -5 84 -5q43 0 97 4q-5 -169 -5 -235q0 -111 4 -202
q1 -16 5.5 -21t19.5 -5q8 0 33 5q-1 -3 -1 -10q0 -10 1 -14z" />
    <glyph glyph-name="mu" unicode="&#x3bc;" horiz-adv-x="491" 
d="M491 0q-18 2 -60 2q-74 0 -128 -6q4 23 4 61q0 13 -6 13q-5 0 -10 -10q-29 -59 -68 -59q-14 0 -28.5 4l-14.5 4q-5 0 -5 -8q0 -5 1.5 -31t1.5 -42q0 -37 1.5 -65.5t1.5 -45.5q0 -28 -14 -35q-9 -4 -43 -4q-49 0 -59.5 6t-10.5 32q0 4 1 107.5t1 184.5q0 329 -5 344
q-3 9 -20 9q-12 0 -23 -3q1 4 1 13t-1 12q37 -4 100 -4q53 0 75 1l-5 -276q0 -63 6 -112q7 -57 45 -57q21 0 41 26t30 77q11 58 11 146q0 43 -5 153q-1 15 -6 19.5t-23 4.5q-3 0 -24 -3q1 4 1 13q0 8 -1 12q40 -5 84 -5q43 0 97 4q-5 -169 -5 -235q0 -111 4 -202
q1 -16 5.5 -21t19.5 -5q8 0 33 5q-1 -3 -1 -10q0 -10 1 -14z" />
    <glyph glyph-name="paragraph" unicode="&#xb6;" horiz-adv-x="527" 
d="M481 679q-5 0 -17.5 2t-18.5 2q-25 0 -25 -21q-2 -162 -2 -217q0 -394 4 -612q-9 3 -18 3t-21 -3q5 135 5 439v124q0 192 -2 263q-1 19 -25 22q-4 1 -40 1q-41 0 -45 -1q-26 -4 -27 -27q-4 -146 -4 -409q0 -237 5 -412q-9 3 -18 3q-10 0 -21 -3q0 49 3 189q2 120 2 190
q0 41 -10 55q-5 9 -22 13q-149 36 -149 207q0 219 228 219q5 0 39 -2.5t60 -2.5q67 0 119 5l-3 -16z" />
    <glyph glyph-name="periodcentered" unicode="&#xb7;" horiz-adv-x="173" 
d="M144 264q0 -24 -17 -41t-41 -17t-41 17t-17 41t17 41t41 17t41 -17t17 -41z" />
    <glyph glyph-name="periodcentered" unicode="&#x2219;" horiz-adv-x="173" 
d="M144 264q0 -24 -17 -41t-41 -17t-41 17t-17 41t17 41t41 17t41 -17t17 -41z" />
    <glyph glyph-name="cedilla" unicode="&#xb8;" 
d="M209 -122q0 -85 -91 -85q-21 0 -42 12l-34 24q9 9 13 17q26 -30 53 -30q47 0 47 62q0 66 -34 66q-9 0 -37 2q9 30 12 54h18q-2 -10 -2 -16q0 -23 14 -23q83 0 83 -83z" />
    <glyph glyph-name="onesuperior" unicode="&#xb9;" horiz-adv-x="290" 
d="M253 246q-37 4 -103 4q-73 0 -116 -4q2 8 2 11q0 5 -2 13q14 -1 34 -1q15 0 19.5 3.5t4.5 17.5q1 54 1 110v88q-1 51 -1 62q0 17 2 32t2 14q0 5 -4 5q1 0 -8 -9q-15 -17 -54 -53q-5 14 -14 21q89 65 121 143q14 -2 31 -2q14 0 26 2q-2 -61 -2 -253q0 -116 2 -158
q1 -16 5 -19.5t20 -3.5q20 0 34 1q-1 -5 -1 -13q0 -7 1 -11z" />
    <glyph glyph-name="ordmasculine" unicode="&#xba;" horiz-adv-x="313" 
d="M303 547q0 -163 -146 -163q-147 0 -147 161q0 85 35.5 126t114.5 41q77 0 110 -40.5t33 -124.5zM206 546q0 87 -1 92q-7 58 -46 58q-37 0 -44 -21.5t-7 -130.5q0 -76 2 -88q9 -56 48 -56q38 0 47 58q1 10 1 88z" />
    <glyph glyph-name="guillemotright" unicode="&#xbb;" horiz-adv-x="363" 
d="M343 265q-35 -34 -103 -104q-38 -40 -50 -61q-10 15 -19 19q41 39 51.5 65t10.5 82t-10.5 81.5t-51.5 64.5q10 5 19 19q12 -21 50 -61q36 -32 103 -105zM183 265q-35 -34 -103 -104q-38 -40 -50 -61q-10 15 -19 19q41 39 51.5 65t10.5 82t-10.5 81.5t-51.5 64.5
q10 5 19 19q12 -21 50 -61q36 -32 103 -105z" />
    <glyph glyph-name="onequarter" unicode="&#xbc;" horiz-adv-x="627" 
d="M610 139q-34 2 -51 2q-13 0 -13 -10q0 -16 1 -45q2 -36 2 -40q1 -24 26 -24q7 0 33 2q-1 -5 -1 -13q0 -7 1 -11q-39 4 -103 4q-72 0 -116 -4q1 4 1 11q0 9 -1 13q45 -3 36 -3q22 0 22 23q2 92 2 80q0 13 -8 16q-4 2 -21 2t-50.5 -1t-49.5 -1q-2 10 -11 28q88 125 173 285
q10 -2 29 -2q23 0 37 2l-2 -250q0 -24 2.5 -29.5t12.5 -5.5q1 0 49 3q-1 -5 -1 -16q0 -12 1 -16zM480 706q-130 -290 -296 -706q-14 4 -19 4q-9 0 -17 -4q165 370 296 706q8 -3 17 -3q7 0 19 3zM233 246q-37 4 -103 4q-73 0 -116 -4q2 8 2 11q0 5 -2 13q14 -1 34 -1
q15 0 19.5 3.5t4.5 17.5q1 54 1 110v88q-1 51 -1 62q0 17 2 32t2 14q0 5 -4 5q1 0 -8 -9q-15 -17 -54 -53q-5 14 -14 21q89 65 121 143q14 -2 31 -2q14 0 26 2q-2 -61 -2 -253q0 -116 2 -158q1 -16 5 -19.5t20 -3.5q20 0 34 1q-1 -5 -1 -13q0 -7 1 -11zM453 333q-5 8 -4 8
q-1 0 -16 -26q-49 -84 -79 -128q-9 -14 -9 -12q0 -6 8 -6h52h15q10 -1 15 -1q15 0 15 14q0 17 -1 53t-1 54q0 24 5 44z" />
    <glyph glyph-name="onehalf" unicode="&#xbd;" horiz-adv-x="627" 
d="M626 126q-31 -63 -44 -126q-60 5 -139 5q-60 0 -108 -5q1 6 1 5t-3 14l86 86q56 57 75 94q15 29 15 100q0 81 -26 100q-13 10 -36 10q-73 0 -73 -97q0 -80 59 -108q-8 -10 -14 -25q-67 56 -67 130q0 60 29 96q33 42 100 42q75 0 106 -29.5t31 -93.5q0 -50 -37 -99
q-10 -13 -41 -39q-42 -35 -54 -47q-53 -50 -53 -54q0 -3 2 -3q7 3 42 3h33q21 -1 26 -1q33 0 45.5 9t22.5 43q9 -8 22 -10zM480 706q-130 -290 -296 -706q-14 4 -19 4q-9 0 -17 -4q165 370 296 706q8 -3 17 -3q7 0 19 3zM233 246q-37 4 -103 4q-73 0 -116 -4q2 8 2 11
q0 5 -2 13q14 -1 34 -1q15 0 19.5 3.5t4.5 17.5q1 54 1 110v88q-1 51 -1 62q0 17 2 32t2 14q0 5 -4 5q1 0 -8 -9q-15 -17 -54 -53q-5 14 -14 21q89 65 121 143q14 -2 31 -2q14 0 26 2q-2 -61 -2 -253q0 -116 2 -158q1 -16 5 -19.5t20 -3.5q20 0 34 1q-1 -5 -1 -13
q0 -7 1 -11z" />
    <glyph glyph-name="threequarters" unicode="&#xbe;" horiz-adv-x="627" 
d="M610 139q-34 2 -51 2q-13 0 -13 -10q0 -16 1 -45q2 -36 2 -40q1 -24 26 -24q7 0 33 2q-1 -5 -1 -13q0 -7 1 -11q-39 4 -103 4q-72 0 -116 -4q1 4 1 11q0 9 -1 13q45 -3 36 -3q22 0 22 23q2 92 2 80q0 13 -8 16q-4 2 -21 2t-50.5 -1t-49.5 -1q-2 10 -11 28q88 125 173 285
q10 -2 29 -2q23 0 37 2l-2 -250q0 -24 2.5 -29.5t12.5 -5.5q1 0 49 3q-1 -5 -1 -16q0 -12 1 -16zM490 706q-130 -290 -296 -706q-14 4 -19 4q-9 0 -17 -4q165 370 296 706q8 -3 17 -3q7 0 19 3zM274 398q0 -86 -37.5 -122t-119.5 -36q-59 0 -86 31q-19 22 -31 73q12 0 25 10
q10 -83 91 -83q52 0 52 125q0 72 -5.5 90t-30.5 18q-41 0 -77 -61q-9 13 -19 20q37 34 108 123q12 15 12 18q0 2 -5 4l-18 -4q-56 2 -81 2q-16 0 -20 -11q-12 -30 -14 -45q-10 9 -22 11q14 31 40 127q40 -4 102 -4q65 0 106 4v-3q0 -9 2 -15q-47 -49 -118 -137q-2 -4 -2 -5
q0 -4 6 -4q4 0 10.5 2.5t11.5 2.5q64 0 92 -30.5t28 -100.5zM453 333q-2 8 -4 8q-1 0 -16 -26q-49 -84 -79 -128q-9 -14 -9 -12q0 -6 8 -6h52h15q10 -1 15 -1q15 0 15 14q0 17 -1 53t-1 54q0 34 5 44z" />
    <glyph glyph-name="questiondown" unicode="&#xbf;" horiz-adv-x="365" 
d="M299 420q0 -32 -22 -54.5t-54 -22.5t-54.5 22.5t-22.5 54.5t22.5 54t54.5 22t54 -22t22 -54zM345 -100q0 -53 -39 -89q-43 -39 -115 -39q-80 0 -124 51q-47 53 -47 151q0 75 32 115q25 30 106 72q41 21 54.5 37t13.5 42q0 22 -12 68q18 -5 32 0q8 -40 8 -65
q0 -60 -50 -94q-40 -27 -53 -76q-8 -31 -8 -95q0 -79 6 -113q7 -38 15 -52q12 -23 39 -23q41 0 41 38q0 5 -15.5 27t-15.5 48q0 30 20 52t44 22q27 0 47.5 -20t20.5 -57z" />
    <glyph glyph-name="Agrave" unicode="&#xc0;" horiz-adv-x="578" 
d="M302 715q-6 1 -14 1q-7 0 -11 -1q-32 49 -94 92q-27 15 -27 33q0 11 46 11q27 0 35 -3q16 -5 21 -24q16 -40 44 -109zM568 0q-63 4 -123 4q-90 0 -143 -4q1 5 1 10t-1 14q28 -4 36 -4q22 0 22 15q0 5 -2 13q-24 97 -48 178q-4 14 -21 15t-52 1q-18 0 -57 -1
q-23 -1 -27 -15q-16 -55 -23 -80q-14 -53 -14 -83q0 -17 3 -26q6 -17 24 -17q6 0 18.5 2t16.5 2q-2 -7 -2 -12q0 -6 2 -12q-37 4 -90 4q-46 0 -78 -4q2 7 2 12q0 6 -2 12q20 -2 24 -2q15 0 22 14q32 67 43 101q36 108 167 565q13 -4 25 -4q11 0 22 4q53 -215 194 -657
q8 -24 29 -24q-4 0 32 3q-1 -8 -1 -13q0 -7 1 -11zM296 272q0 1 -2 8q-16 49 -50 161q-4 15 -7 39q-2 16 -5 16q-5 0 -8 -15q-7 -29 -55 -198q-1 -3 -1 -8q0 -11 28 -12q-8 0 38 0q7 0 23 1h25q14 0 14 8z" />
    <glyph glyph-name="Aacute" unicode="&#xc1;" horiz-adv-x="578" 
d="M403 840q0 -14 -27 -32q-61 -40 -95 -92q-2 0 -6 1h-5.5h-5.5q-5 -1 -8 -1q34 70 44 108q5 20 21 25q8 2 35 2q47 0 47 -11zM568 0q-63 4 -143 4q-70 0 -123 -4q1 5 1 10t-1 14q28 -4 36 -4q22 0 22 15q0 5 -2 13q-23 93 -50 184q-4 14 -21 15t-42 1h-10q-15 0 -54 -1
q-23 -1 -27 -15q-11 -37 -24 -86q-14 -53 -14 -83q0 -43 24 -43q-10 0 38 4q-2 -7 -2 -12q0 -4 2 -12q-37 4 -90 4q-46 0 -78 -4q2 6 2 12q0 5 -2 12q20 -2 24 -2q15 0 22 14q32 68 43 101q36 108 167 564q10 -2 22 -2q7 0 22 3q43 -175 197 -657q8 -24 29 -24q-4 0 32 3
q-1 -8 -1 -13q0 -7 1 -11zM294 278q0 1 -2 8q-15 46 -48 155q-4 15 -7 39q-2 16 -5 16q-5 0 -8.5 -16t-53.5 -191q-1 -3 -1 -8q0 -11 16 -11h25q15 -1 22 -1t23 1h25q14 0 14 8z" />
    <glyph glyph-name="Acircumflex" unicode="&#xc2;" horiz-adv-x="578" 
d="M396 728q-20 2 -32 2t-34 -2q-13 29 -37 66q-9 14 -10 14q-3 0 -10 -9q-20 -26 -42 -71q-5 1 -12 1t-12 -1q53 73 85 137q2 -1 6 -1q5 0 8 1q36 -69 90 -137zM568 0q-63 4 -143 4q-70 0 -123 -4q1 5 1 10t-1 14q28 -4 36 -4q22 0 22 15q0 5 -2 13q-23 93 -50 184
q-4 14 -21 15t-42 1h-10q-15 0 -54 -1q-23 -1 -27 -15q-11 -37 -24 -86q-14 -53 -14 -83q0 -43 24 -43q-10 0 38 4q-2 -5 -2 -10t2 -14q-37 4 -90 4q-46 0 -78 -4q2 7 2 13q0 5 -2 11q20 -2 24 -2q15 0 22 14q32 68 46 110q39 117 170 573q15 -3 17 -3t17 3
q48 -194 201 -674q8 -24 29 -24q-4 0 32 3q-1 -8 -1 -13q0 -7 1 -11zM294 278q0 1 -2 8q-15 46 -48 155q-4 15 -7 39q-2 16 -5 16q-5 0 -8.5 -16t-53.5 -191q-1 -3 -1 -8q0 -11 16 -11h25q15 -1 22 -1t23 1h25q14 0 14 8z" />
    <glyph glyph-name="Atilde" unicode="&#xc3;" horiz-adv-x="578" 
d="M417 836q-21 -58 -35 -78q-18 -25 -43 -25q-21 0 -63 21.5t-59 21.5q-28 0 -46 -44l-13 7q18 53 31 73q18 29 44 29q20 0 61.5 -23t56.5 -23q29 0 53 49zM568 0q-63 4 -123 4q-90 0 -143 -4q1 5 1 10t-1 14q28 -4 36 -4q22 0 22 15q0 5 -2 13q-24 97 -48 178
q-4 14 -21 15t-52 1q-18 0 -57 -1q-23 -1 -27 -15q-16 -55 -23 -80q-14 -53 -14 -83q0 -17 3 -26q6 -17 24 -17q6 0 18.5 2t16.5 2q-2 -7 -2 -12q0 -6 2 -12q-37 4 -90 4q-46 0 -78 -4q2 7 2 12q0 6 -2 12q20 -2 24 -2q15 0 22 14q32 68 46 110q39 117 170 573q7 -2 18 -2
t16 2q48 -194 201 -674q8 -24 29 -24q-4 0 32 3q-1 -8 -1 -13q0 -7 1 -11zM296 272q0 1 -2 8q-16 49 -50 161q-4 15 -7 39q-2 16 -5 16q-5 0 -8 -15q-7 -29 -55 -198q-1 -3 -1 -8q0 -11 28 -12q-8 0 38 0q7 0 23 1h25q14 0 14 8z" />
    <glyph glyph-name="Adieresis" unicode="&#xc4;" horiz-adv-x="578" 
d="M413 783q0 -19 -14 -33t-34 -14q-19 0 -33 14t-14 33q0 20 14 34t33 14q20 0 34 -14t14 -34zM251 783q0 -19 -14 -33t-34 -14q-19 0 -33 14t-14 33q0 20 14 34t33 14q20 0 34 -14t14 -34zM568 0q-63 4 -123 4q-90 0 -143 -4q1 5 1 10t-1 14q28 -4 36 -4q22 0 22 15
q0 5 -2 13q-24 97 -48 178q-4 14 -21 15t-52 1q-18 0 -57 -1q-23 -1 -27 -15q-16 -55 -23 -80q-14 -53 -14 -83q0 -17 3 -26q6 -17 24 -17q6 0 18.5 2t16.5 2q-2 -7 -2 -12q0 -6 2 -12q-37 4 -90 4q-46 0 -78 -4q2 7 2 12q0 6 -2 12q20 -2 24 -2q15 0 22 14q32 68 46 110
q39 117 170 573q7 -2 18 -2t16 2q48 -194 201 -674q8 -24 29 -24q-4 0 32 3q-1 -8 -1 -13q0 -7 1 -11zM296 272q0 1 -2 8q-16 49 -50 161q-4 15 -7 39q-2 16 -5 16q-5 0 -8 -15q-7 -29 -55 -198q-1 -3 -1 -8q0 -11 28 -12q-8 0 38 0q7 0 23 1h25q14 0 14 8z" />
    <glyph glyph-name="Aring" unicode="&#xc5;" horiz-adv-x="578" 
d="M568 0q-63 4 -143 4q-70 0 -123 -4q1 5 1 10t-1 14q28 -4 36 -4q22 0 22 15q0 5 -2 13q-23 93 -50 184q-4 14 -21 15t-52 1q-15 0 -54 -1q-23 -1 -27 -15q-11 -37 -24 -86q-14 -53 -14 -83q0 -43 24 -43q-10 0 38 4q-1 -9 -1 -13q0 -6 1 -11q-37 4 -90 4q-46 0 -78 -4
q2 7 2 12q0 6 -2 12q20 -2 24 -2q15 0 22 14q31 66 44 106q37 110 161 540q2 7 2 10q0 8 -11 13q-48 21 -48 80q0 36 22 62t62 26t64 -27q21 -25 21 -60q0 -58 -47 -80q-12 -5 -12 -15q0 -4 1 -8q48 -188 192 -638q8 -24 29 -24q-4 0 32 3q-1 -8 -1 -13q0 -7 1 -11zM342 785
q0 24 -14 41.5t-39 17.5t-39 -17t-14 -41t14 -41.5t39 -17.5t39 17t14 41zM294 278q0 1 -2 8q-15 46 -48 155q-4 15 -7 39q-2 16 -5 16q-5 0 -8.5 -16t-53.5 -191q-1 -3 -1 -8q0 -11 16 -11h25q15 -1 22 -1t23 1h25q14 0 14 8z" />
    <glyph glyph-name="AE" unicode="&#xc6;" horiz-adv-x="867" 
d="M843 242q-9 -94 -9 -177q0 -36 3 -65q-93 4 -208 4q-172 0 -309 -4q2 6 2 12q0 3 -2 13q7 0 21 -2t20 -2q22 0 23 26q0 13 4 280q0 23 -23 23h-48q-22 0 -47 -1q-18 -1 -28 -10t-30 -43q-31 -52 -60 -121q-35 -86 -35 -131q0 -22 20 -22q5 0 31 2q-4 -10 0 -24
q-52 4 -84 4q-47 0 -74 -4q4 11 0 24q20 -2 24 -2q15 0 22 14q103 210 212 430q29 59 57 118q31 70 31 122l144 -4q52 0 155 2t154 2q-4 -40 -4 -73q0 -73 10 -147q-1 0 -4 1h-4q-7 0 -15 -2q-15 121 -72 163q-45 34 -151 34q-30 0 -35.5 -5t-6.5 -26q-7 -134 -7 -248
q0 -23 4 -28t21 -5q73 0 99 36q24 32 24 119q3 -1 16 -1q7 0 11 1q-8 -96 -8 -179q0 -86 8 -157q-3 1 -11 1q-12 0 -16 -1q0 99 -25 130.5t-98 31.5q-18 0 -21.5 -5t-3.5 -27q0 -122 7 -261q1 -24 11.5 -28.5t65.5 -4.5q108 0 160 51t54 166q3 -1 13 -1q9 0 12 1zM392 650
q0 14 -4 14q-2 0 -25 -47q-97 -201 -104 -226q-1 -4 -1 -8q0 -11 16 -11h13q7 -1 27 -1q52 0 44 -1q30 3 30 21v72q0 55 -1 88q-2 45 -2 67q1 6 4 17t3 15z" />
    <glyph glyph-name="Ccedilla" unicode="&#xc7;" horiz-adv-x="556" 
d="M514 47q-72 -56 -160 -60q-16 -1 -16 -12q0 -13 12 -14q39 -2 54 -16q19 -16 19 -57q0 -75 -91 -75q-21 0 -42 12l-34 24q9 9 13 17q26 -30 53 -30q26 0 35 15q7 11 7 41q0 35 -13 46q-8 6 -28 6q8 0 -20 2q4 6 12 23q5 11 5 12q0 6 -12 7q-141 8 -206 101
q-62 88 -62 261q0 201 74 286q69 80 227 80q100 0 173 -45q-8 -50 -8 -125q0 -60 3 -87q-6 1 -12 1q-8 0 -13 -1q-1 95 -30 156q-39 83 -121 83q-85 0 -117 -70q-33 -73 -33 -270q0 -210 33 -280.5t126 -70.5q66 0 104 71q35 64 38 166q4 -1 14 -1q8 0 11 1q-4 -29 -4 -80
q0 -67 9 -117z" />
    <glyph glyph-name="Egrave" unicode="&#xc8;" horiz-adv-x="557" 
d="M319 715q-6 1 -14 1q-7 0 -11 -1q-32 49 -94 92q-27 15 -27 33q0 11 46 11q27 0 35 -3q16 -5 21 -24q16 -40 44 -109zM517 242q-9 -94 -9 -177q0 -36 3 -65q-105 4 -232 4q-148 0 -269 -4q2 6 2 12q0 3 -2 13q4 0 17 -2t19 -2q22 0 23 26q4 92 4 314q0 198 -5 303
q-1 21 -23 21q-6 0 -18 -2t-17 -2q2 10 2 12q0 3 -2 13q75 -4 174 -4q51 0 148.5 2t150.5 2q-4 -40 -4 -73q0 -99 10 -173q-1 0 -5 1h-6q-6 0 -14 -2q-13 130 -70 181q-48 42 -151 42q-20 0 -25.5 -5t-6.5 -26q-7 -134 -7 -248q0 -23 4 -28t21 -5q67 0 91 35q22 32 22 120
q3 -1 14 -1q9 0 13 1q-8 -96 -8 -179q0 -86 8 -157q-3 1 -13 1t-14 -1q0 95 -23.5 128.5t-89.5 33.5q-18 0 -21.5 -5t-3.5 -27q0 -122 7 -261q1 -26 7.5 -29.5t59.5 -3.5q108 0 160 51t54 166q3 -1 11 -1q11 0 14 1z" />
    <glyph glyph-name="Eacute" unicode="&#xc9;" horiz-adv-x="557" 
d="M388 839q0 -14 -27 -33q-63 -44 -95 -92q-4 1 -11 1q-8 0 -14 -1q34 73 44 109q5 19 21 24q8 3 35 3q47 0 47 -11zM527 242q-9 -94 -9 -177q0 -36 3 -65q-105 4 -232 4q-158 0 -279 -4q2 6 2 12q0 3 -2 13q4 0 17 -2t19 -2q22 0 23 26q4 92 4 314q0 198 -5 303
q-1 21 -23 21q-6 0 -18 -2t-17 -2q2 10 2 12q0 3 -2 13q75 -4 174 -4q51 0 153.5 2t155.5 2q-4 -40 -4 -73q0 -73 10 -147q-1 0 -4 1h-4q-3 0 -11 -2q-15 121 -74 163q-47 34 -153 34q-30 0 -35.5 -5t-6.5 -26q-7 -134 -7 -248q0 -23 4 -28t21 -5q74 0 101 36q26 33 26 119
q3 -1 12 -1q7 0 11 1q-8 -96 -8 -179q0 -86 8 -157q-3 1 -11 1t-12 -1q0 98 -26.5 130t-100.5 32q-18 0 -21.5 -5t-3.5 -27q0 -122 7 -261q1 -24 11.5 -28.5t65.5 -4.5q109 0 162.5 51.5t55.5 165.5q3 -1 9 -1q9 0 12 1z" />
    <glyph glyph-name="Ecircumflex" unicode="&#xca;" horiz-adv-x="557" 
d="M363 724q-20 2 -32 2t-34 -2q-13 29 -37 66q-9 14 -10 14q-3 0 -10 -9q-20 -26 -42 -71q-5 1 -12 1t-12 -1q53 73 85 137q2 -1 6 -1q5 0 8 1q36 -69 90 -137zM517 242q-9 -94 -9 -177q0 -36 3 -65q-105 4 -232 4q-148 0 -269 -4q2 6 2 12q0 3 -2 13q4 0 17 -2t19 -2
q22 0 23 26q4 92 4 314q0 198 -5 303q-1 21 -23 21q-6 0 -18 -2t-17 -2q2 10 2 12q0 3 -2 13q75 -4 174 -4q51 0 148.5 2t150.5 2q-4 -40 -4 -73q0 -99 10 -173q-1 0 -5 1h-6q-6 0 -14 -2q-13 130 -70 181q-48 42 -151 42q-20 0 -25.5 -5t-6.5 -26q-7 -134 -7 -248
q0 -23 4 -28t21 -5q67 0 91 35q22 32 22 120q3 -1 14 -1q9 0 13 1q-8 -96 -8 -179q0 -86 8 -157q-3 1 -13 1t-14 -1q0 95 -23.5 128.5t-89.5 33.5q-18 0 -21.5 -5t-3.5 -27q0 -122 7 -261q1 -26 7.5 -29.5t59.5 -3.5q108 0 160 51t54 166q3 -1 11 -1q11 0 14 1z" />
    <glyph glyph-name="Edieresis" unicode="&#xcb;" horiz-adv-x="557" 
d="M401 786q0 -19 -14 -33t-34 -14q-19 0 -33 14t-14 33q0 20 14 34t33 14q20 0 34 -14t14 -34zM239 786q0 -19 -14 -33t-34 -14q-19 0 -33 14t-14 33q0 20 14 34t33 14q20 0 34 -14t14 -34zM517 242q-9 -94 -9 -177q0 -36 3 -65q-105 4 -232 4q-148 0 -269 -4q2 6 2 12
q0 3 -2 13q4 0 17 -2t19 -2q22 0 23 26q4 92 4 314q0 198 -5 303q-1 21 -23 21q-6 0 -18 -2t-17 -2q2 10 2 12q0 3 -2 13q75 -4 174 -4q51 0 148.5 2t150.5 2q-4 -40 -4 -73q0 -99 10 -173q-1 0 -5 1h-6q-6 0 -14 -2q-13 130 -70 181q-48 42 -151 42q-20 0 -25.5 -5
t-6.5 -26q-7 -134 -7 -248q0 -23 4 -28t21 -5q67 0 91 35q22 32 22 120q3 -1 14 -1q9 0 13 1q-8 -96 -8 -179q0 -86 8 -157q-3 1 -13 1t-14 -1q0 95 -23.5 128.5t-89.5 33.5q-18 0 -21.5 -5t-3.5 -27q0 -122 7 -261q1 -26 7.5 -29.5t59.5 -3.5q108 0 160 51t54 166
q3 -1 11 -1q11 0 14 1z" />
    <glyph glyph-name="Igrave" unicode="&#xcc;" horiz-adv-x="287" 
d="M183 716q-6 1 -14 1q-6 0 -11 -1q-31 48 -94 92q-27 19 -27 33q0 11 46 11q27 0 36 -3q16 -5 21 -24q12 -41 43 -109zM277 0q-51 4 -124 4q-57 0 -143 -4q2 8 2 12q0 3 -2 13q5 0 18 -1.5t20 -1.5q24 0 25 20q5 109 5 319q0 206 -5 306q-1 18 -25 18q-8 0 -21.5 -2
t-16.5 -2q2 10 2 12q0 3 -2 13q86 -4 143 -4q73 0 124 4q-1 -4 -1 -13q0 -8 1 -12q-5 0 -18 2t-19 2q-22 0 -23 -17q-9 -149 -9 -308q0 -163 9 -319q1 -20 25 -20q6 0 18 2t17 2q-1 -5 -1 -13t1 -12z" />
    <glyph glyph-name="Iacute" unicode="&#xcd;" horiz-adv-x="287" 
d="M258 841q0 -14 -27 -33q-65 -47 -94 -92q-5 1 -12 1q-8 0 -13 -1q31 68 43 109q5 19 21 24q9 3 36 3q46 0 46 -11zM277 0q-51 4 -124 4q-57 0 -143 -4q2 8 2 12q0 3 -2 13q5 0 18 -1.5t20 -1.5q24 0 25 20q5 109 5 319q0 206 -5 306q-1 18 -25 18q-8 0 -21.5 -2t-16.5 -2
q2 10 2 12q0 3 -2 13q86 -4 143 -4q73 0 124 4q-1 -4 -1 -13q0 -8 1 -12q-5 0 -18 2t-19 2q-22 0 -23 -17q-9 -149 -9 -308q0 -163 9 -319q1 -20 25 -20q6 0 18 2t17 2q-1 -5 -1 -13t1 -12z" />
    <glyph glyph-name="Icircumflex" unicode="&#xce;" horiz-adv-x="287" 
d="M243 723q-11 1 -32 1q-23 0 -35 -1q-17 36 -37 66q-9 13 -10 13q-3 0 -10 -8q-23 -29 -41 -71q-3 0 -7 1h-5.5h-5.5q-4 -1 -7 -1q53 71 85 137q2 -1 7 -1q4 0 8 1q35 -69 90 -137zM277 0q-51 4 -124 4q-57 0 -143 -4q2 8 2 12q0 3 -2 13q5 0 18 -1.5t20 -1.5q24 0 25 20
q5 109 5 319q0 206 -5 306q-1 18 -25 18q-8 0 -21.5 -2t-16.5 -2q2 10 2 12q0 3 -2 13q86 -4 143 -4q73 0 124 4q-1 -4 -1 -13q0 -8 1 -12q-5 0 -18 2t-19 2q-22 0 -23 -17q-9 -149 -9 -308q0 -163 9 -319q1 -20 25 -20q6 0 18 2t17 2q-1 -5 -1 -13t1 -12z" />
    <glyph glyph-name="Idieresis" unicode="&#xcf;" horiz-adv-x="287" 
d="M272 784q0 -19 -14 -33t-34 -14q-19 0 -33 14t-14 33q0 20 14 34t33 14q20 0 34 -14t14 -34zM110 784q0 -19 -14 -33t-34 -14q-19 0 -33 14t-14 33q0 20 14 34t33 14q20 0 34 -14t14 -34zM277 0q-51 4 -124 4q-57 0 -143 -4q2 8 2 12q0 3 -2 13q5 0 18 -1.5t20 -1.5
q24 0 25 20q5 109 5 319q0 206 -5 306q-1 18 -25 18q-8 0 -21.5 -2t-16.5 -2q2 10 2 12q0 3 -2 13q86 -4 143 -4q73 0 124 4q-1 -4 -1 -13q0 -8 1 -12q-5 0 -18 2t-19 2q-22 0 -23 -17q-9 -149 -9 -308q0 -163 9 -319q1 -20 25 -20q6 0 18 2t17 2q-1 -5 -1 -13t1 -12z" />
    <glyph glyph-name="Eth" unicode="&#xd0;" horiz-adv-x="665" 
d="M645 358q0 -120 -34 -205q-38 -96 -122 -131q-51 -22 -133 -22q-37 0 -111.5 1.5t-112.5 1.5q-66 0 -122 -3q2 10 2 13q0 8 -2 12q4 0 15.5 -1.5t17.5 -1.5q24 0 25 21q5 138 5 297q0 17 -15 17q-24 0 -48 -3q2 12 2 16q0 6 -2 20l48 -3q8 0 11.5 2.5t3.5 14.5
q0 175 -4 258q-1 23 -25 23q-6 0 -17.5 -2t-16.5 -2q2 4 2 12q0 3 -2 13q59 -3 127 -3q-1 0 139 2l71 1q98 0 151 -26q76 -37 113 -129q34 -85 34 -193zM499 353q0 145 -21 215t-72 95q-43 21 -136 21q-46 0 -51.5 -4.5t-6.5 -22.5q-3 -60 -5 -131q-1 -40 -1 -86v-34
q1 -14 6.5 -17t22.5 -3q22 0 58 2q45 2 58 2q-4 -9 -4 -20q0 -8 4 -16l-126 3q-13 0 -16 -12.5t-3 -65.5q0 -100 6 -224q1 -22 12 -28q8 -4 51 -4q130 0 175 62q49 67 49 268z" />
    <glyph glyph-name="Ntilde" unicode="&#xd1;" horiz-adv-x="587" 
d="M430 835q-21 -58 -35 -78q-18 -25 -43 -25q-21 0 -63 21.5t-59 21.5q-28 0 -46 -44l-13 7q18 53 31 73q18 29 44 29q20 0 61.5 -23t56.5 -23q29 0 53 49zM577 682q-20 4 -25 4q-24 0 -30 -23q-7 -27 -10 -147q-1 -37 -1 -62q0 -155 4 -463q-28 0 -36 -6q-9 28 -31 67
q-57 103 -157 259q-83 131 -166 261q-4 12 -13 35q-4 7 -7 7q-4 0 -4 -9q0 -8 4 -26v-207q0 -186 2 -217q6 -95 14.5 -114t39.5 -19q7 0 25 2q-2 -5 -2 -11q0 -5 2 -13q-42 3 -94 3q-47 0 -82 -3q2 6 2 12q0 5 -2 12q18 -3 28 -3q21 0 27 20q7 24 9 115q1 56 1 254v58
q0 197 -17 213q-6 5 -16 5q8 0 -32 -4q2 8 2 11t-2 13q32 -4 93 -4q49 0 109 4q33 -65 114 -191q123 -191 133 -207q14 -22 17 -39q3 -8 7 -8q3 0 3 8q0 159 -4 249q-5 120 -13 145q-6 22 -33 22q-11 0 -29 -3q2 10 2 12t-2 12q29 -4 80 -4q36 0 90 4q-2 -10 -2 -13
q0 -7 2 -11z" />
    <glyph glyph-name="Ograve" unicode="&#xd2;" horiz-adv-x="664" 
d="M349 730q-3 0 -7 1h-6.5h-5.5q-3 -1 -6 -1q-34 51 -94 92q-27 19 -27 32q0 11 46 11q27 0 35 -2q17 -5 22 -25q13 -45 43 -108zM624 354q0 -195 -68.5 -280t-223.5 -85q-149 0 -219 82q-73 86 -73 280q0 195 68.5 280t223.5 85q149 0 219 -82q73 -86 73 -280zM482 348
q0 205 -37 282q-32 67 -113 67q-85 0 -115 -63q-35 -71 -35 -277q0 -205 37 -282q32 -67 113 -67q85 0 116 63q34 71 34 277z" />
    <glyph glyph-name="Oacute" unicode="&#xd3;" horiz-adv-x="664" 
d="M452 855q0 -14 -27 -32q-61 -40 -95 -92q-2 0 -5 1h-6h-6q-4 -1 -7 -1q32 66 43 108q5 20 22 25q8 2 35 2q46 0 46 -11zM624 354q0 -195 -68.5 -280t-223.5 -85q-149 0 -219 82q-73 86 -73 280q0 195 68.5 280t223.5 85q149 0 219 -82q73 -86 73 -280zM482 348
q0 205 -37 282q-32 67 -113 67q-85 0 -115 -63q-35 -71 -35 -277q0 -205 37 -282q32 -67 113 -67q85 0 116 63q34 71 34 277z" />
    <glyph glyph-name="Ocircumflex" unicode="&#xd4;" horiz-adv-x="664" 
d="M436 732q-20 2 -31 2q-13 0 -35 -2q-8 19 -37 66q-8 14 -10 14q-4 0 -10 -8q-28 -37 -41 -72q-6 1 -13 1t-12 -1q53 73 85 137q2 -1 6 -1q5 0 8 1q33 -62 90 -137zM624 354q0 -195 -68.5 -280t-223.5 -85q-149 0 -219 82q-73 86 -73 280q0 195 68.5 280t223.5 85
q149 0 219 -82q73 -86 73 -280zM482 348q0 205 -37 282q-32 67 -113 67q-85 0 -115 -63q-35 -71 -35 -277q0 -205 37 -282q32 -67 113 -67q85 0 116 63q34 71 34 277z" />
    <glyph glyph-name="Otilde" unicode="&#xd5;" horiz-adv-x="664" 
d="M451 838q-21 -58 -35 -78q-18 -25 -43 -25q-21 0 -63 21.5t-59 21.5q-28 0 -46 -44l-13 7q18 53 31 73q18 29 44 29q20 0 61.5 -23t56.5 -23q29 0 53 49zM624 354q0 -195 -68.5 -280t-223.5 -85q-149 0 -219 82q-73 86 -73 280q0 195 68.5 280t223.5 85q149 0 219 -82
q73 -86 73 -280zM482 348q0 205 -37 282q-32 67 -113 67q-85 0 -115 -63q-35 -71 -35 -277q0 -205 37 -282q32 -67 113 -67q85 0 116 63q34 71 34 277z" />
    <glyph glyph-name="Odieresis" unicode="&#xd6;" horiz-adv-x="664" 
d="M461 789q0 -19 -14 -33t-34 -14q-19 0 -33 14t-14 33q0 20 14 34t33 14q20 0 34 -14t14 -34zM299 789q0 -19 -14 -33t-34 -14q-19 0 -33 14t-14 33q0 20 14 34t33 14q20 0 34 -14t14 -34zM624 354q0 -195 -68.5 -280t-223.5 -85q-149 0 -219 82q-73 86 -73 280
q0 195 68.5 280t223.5 85q149 0 219 -82q73 -86 73 -280zM482 348q0 205 -37 282q-32 67 -113 67q-85 0 -115 -63q-35 -71 -35 -277q0 -205 37 -282q32 -67 113 -67q85 0 116 63q34 71 34 277z" />
    <glyph glyph-name="multiply" unicode="&#xd7;" horiz-adv-x="527" 
d="M475 114q-22 -15 -35 -35l-160 169q-9 9 -17 9q-7 0 -16 -9l-160 -169q-11 21 -36 35l172 163q6 6 6 13q0 9 -9 17l-169 159q18 10 36 36l159 -168q9 -9 17 -9t18 10l159 167q12 -23 35 -36l-169 -159q-9 -8 -9 -16t9 -17z" />
    <glyph glyph-name="Oslash" unicode="&#xd8;" horiz-adv-x="664" 
d="M624 354q0 -195 -68.5 -280t-223.5 -85q-130 0 -199 62q-6 5 -11 5q-7 0 -12 -7q-14 -19 -40 -55q-7 15 -21 20q14 17 44 52q7 9 7 16q0 5 -8 18q-52 85 -52 251q0 195 68.5 280t223.5 85q129 0 198 -61q7 -6 11 -6q5 0 12 9q28 37 40 56q6 -13 22 -23q-14 -17 -43 -53
q-7 -9 -7 -17q0 -6 3 -11q56 -87 56 -256zM466 559q0 5 -2 14q-16 70 -49 99q-30 25 -83 25q-85 0 -116 -63q-34 -71 -34 -277q0 -74 5 -134q2 -23 6 -23t15 14l246 316q12 15 12 29zM482 348q0 82 -5 139q-2 21 -4 21q-4 0 -14 -13l-247 -314q-14 -18 -14 -33q0 -7 2 -16
q16 -70 49 -98q30 -26 83 -26q85 0 116 63q34 71 34 277z" />
    <glyph glyph-name="Ugrave" unicode="&#xd9;" horiz-adv-x="593" 
d="M357 723q-5 1 -13 1q-7 0 -11 -1q-34 52 -95 92q-27 18 -27 33q0 11 46 11q27 0 36 -3q16 -5 21 -24q12 -41 43 -109zM583 682q-22 4 -28 4q-24 0 -31 -46q-6 -42 -7 -204l-1 -207q0 -134 -27 -175q-40 -64 -183 -64q-138 0 -191 47q-56 48 -56 177q0 49 1 146t1 145
q0 124 -2 163q-1 18 -19 18q6 0 -30 -4q2 10 2 12t-2 12q56 -3 123 -3q66 0 120 3q-1 -5 -1 -13q0 -7 1 -11q-3 0 -14 2.5t-17 2.5q-18 0 -18 -20q0 -27 -2 -129q-2 -84 -2 -142q0 -98 3 -181q4 -116 31 -150t111 -34q95 0 126 48q20 31 20 114l-1 239q-2 163 -11 209
t-40 46q-12 0 -34 -5v24q32 -4 84 -4q40 0 94 4q-2 -10 -2 -13t2 -11z" />
    <glyph glyph-name="Uacute" unicode="&#xda;" horiz-adv-x="593" 
d="M412 848q0 -15 -27 -33q-61 -40 -95 -92q-4 1 -11 1q-8 0 -13 -1q36 84 43 109q5 19 21 24q8 3 35 3q47 0 47 -11zM583 682q-22 4 -28 4q-24 0 -31 -46q-6 -42 -7 -204l-1 -207q0 -134 -27 -175q-40 -64 -183 -64q-138 0 -191 47q-56 48 -56 177q0 49 1 146t1 145
q0 124 -2 163q-1 18 -19 18q6 0 -30 -4q2 10 2 12t-2 12q56 -3 123 -3q66 0 120 3q-1 -5 -1 -13q0 -7 1 -11q-3 0 -14 2.5t-17 2.5q-18 0 -18 -20q0 -27 -2 -129q-2 -84 -2 -142q0 -98 3 -181q4 -116 31 -150t111 -34q95 0 126 48q20 31 20 114l-1 239q-2 163 -11 209
t-40 46q-12 0 -34 -5v24q32 -4 84 -4q40 0 94 4q-2 -10 -2 -13t2 -11z" />
    <glyph glyph-name="Ucircumflex" unicode="&#xdb;" horiz-adv-x="593" 
d="M422 728q-22 2 -32 2q-11 0 -35 -2q-8 21 -37 66q-9 14 -10 14q-3 0 -10 -8q-27 -34 -41 -72q-6 1 -12 1q-7 0 -13 -1q53 73 85 137q2 -1 7 -1q4 0 8 1q32 -64 90 -137zM583 682q-22 4 -28 4q-24 0 -31 -46q-6 -42 -7 -204l-1 -207q0 -134 -27 -175q-40 -64 -183 -64
q-138 0 -191 47q-56 48 -56 177q0 49 1 146t1 145q0 124 -2 163q-1 18 -19 18q6 0 -30 -4q2 10 2 12t-2 12q56 -3 123 -3q66 0 120 3q-1 -5 -1 -13q0 -7 1 -11q-3 0 -14 2.5t-17 2.5q-18 0 -18 -20q0 -27 -2 -129q-2 -84 -2 -142q0 -98 3 -181q4 -116 31 -150t111 -34
q95 0 126 48q20 31 20 114l-1 239q-2 163 -11 209t-40 46q-12 0 -34 -5v24q32 -4 84 -4q40 0 94 4q-2 -10 -2 -13t2 -11z" />
    <glyph glyph-name="Udieresis" unicode="&#xdc;" horiz-adv-x="593" 
d="M445 784q0 -19 -14 -33t-34 -14q-19 0 -33 14t-14 33q0 20 14 34t33 14q20 0 34 -14t14 -34zM283 784q0 -19 -14 -33t-34 -14q-19 0 -33 14t-14 33q0 20 14 34t33 14q20 0 34 -14t14 -34zM573 682q-24 4 -18 4q-24 0 -31 -46q-6 -42 -7 -204l-1 -207q0 -129 -28 -173
q-43 -66 -182 -66q-138 0 -191 47q-56 48 -56 177q0 49 1 146t1 145v35q0 89 -2 128q-1 18 -19 18q6 0 -30 -4q2 10 2 12t-2 12q56 -3 123 -3q66 0 120 3q-1 -5 -1 -13q0 -7 1 -11q-3 0 -14 2.5t-17 2.5q-18 0 -18 -20q0 -27 -2 -129q-2 -84 -2 -142q0 -98 3 -181
q4 -116 31 -150t111 -34q88 0 122 51q24 36 24 111l-1 239q-2 163 -11 209t-40 46q-12 0 -34 -5q2 6 2 12q0 5 -2 12q32 -4 84 -4q30 0 84 4q-1 -8 -1 -13q0 -7 1 -11z" />
    <glyph glyph-name="Yacute" unicode="&#xdd;" horiz-adv-x="560" 
d="M399 841q0 -14 -27 -33q-63 -44 -95 -92q-4 1 -11 1q-8 0 -14 -1q34 73 44 109q5 19 21 24q8 3 35 3q47 0 47 -11zM540 682q-30 4 -32 4q-13 0 -25 -21q-30 -52 -127 -277q-5 -11 -10 -40v-65q0 -132 6 -236q1 -26 24 -26q6 0 19 2t17 2q-2 -10 -2 -13q0 -8 2 -12
q-51 4 -120 4q-51 0 -137 -4q2 10 2 13q0 4 -2 12q5 0 16.5 -2t17.5 -2q23 0 24 24q3 95 3 177v64q-1 42 -1 62.5t-9 38.5q-93 185 -102 203q-12 24 -45 80q-9 15 -23 15q4 0 -26 -3v24q62 -3 131 -3q65 0 123 3v-24q-2 0 -11.5 1t-15.5 1q-19 0 -19 -10q0 -6 1 -9
q17 -51 25 -70q11 -25 75 -159q6 -12 11 -29q2 -5 4 -5q3 0 6 6q24 53 52 129q36 99 36 127q0 21 -23 21q-11 0 -26 -3q1 5 1 11q0 8 -1 13q33 -3 72 -3q49 0 89 3v-7q-1 -5 -1 -6q0 -2 1 -5v-6z" />
    <glyph glyph-name="Thorn" unicode="&#xde;" horiz-adv-x="528" 
d="M498 400q0 -187 -183 -187q-27 0 -59 2l-32 2q-13 0 -13 -17q0 -55 6 -159q1 -20 25 -20q6 0 18 2t17 2q-1 -5 -1 -13t1 -12q-51 4 -124 4q-57 0 -143 -4q2 8 2 12q0 3 -2 13q5 0 18 -2t20 -2q24 0 25 21q5 109 5 319q0 206 -5 306q-1 18 -25 18q-8 0 -21.5 -2t-16.5 -2
q2 10 2 12q0 3 -2 13q86 -4 143 -4q73 0 124 4q-1 -4 -1 -13q0 -8 1 -12q-5 0 -18 2t-19 2q-22 0 -23 -17.5t-3 -56.5q2 -17 18 -17q12 0 35 1t34 1q100 0 148.5 -46.5t48.5 -149.5zM359 398q0 104 -26 141q-24 34 -90 34q-20 0 -25 -2.5t-6 -14.5q-3 -56 -3 -124
q0 -27 1 -82v-82q0 -22 5 -27t28 -5q72 0 94 29t22 133z" />
    <glyph glyph-name="germandbls" unicode="&#xdf;" horiz-adv-x="502" 
d="M472 236q0 -140 -39 -196q-35 -49 -118 -49q-53 0 -72 39q-13 27 -13 87v23q8 -4 18 -4q1 0 5 1h4q-2 -28 -2 -47q0 -69 47 -69q43 0 43 128q0 260 -29 291q-14 15 -39 15q-12 0 -27 -3q2 8 2 15q0 5 -2 13q24 -4 32 -4q25 0 35.5 19.5t10.5 81.5q0 75 -15 99
q-13 21 -54 21q-58 0 -73 -50q-12 -39 -12 -183q0 -65 4 -200q4 -154 5 -221q0 -22 17 -22q5 0 14 2t12 2q-1 -4 -1 -14q0 -8 1 -11q-52 5 -98 5q-56 0 -118 -5q1 4 1 13q0 8 -1 12q20 -5 24 -5q17 0 17 21l4 499q1 91 50 133.5t161 42.5q85 0 129 -26q54 -34 54 -114
q0 -67 -54 -96q-17 -9 -55 -9q-13 0 -13 -4q0 -2 18 -6t50 -14q38 -21 54 -58q23 -50 23 -153z" />
    <glyph glyph-name="agrave" unicode="&#xe0;" horiz-adv-x="442" 
d="M255 525q-6 1 -14 1q-7 0 -11 -1q-33 66 -95 123q-26 24 -26 43q0 15 46 15q29 0 38 -5q13 -7 18 -31q11 -50 44 -145zM432 0q-70 -7 -76 -7q-89 0 -89 59q0 7 -5 7t-8 -8.5t-6 -16.5q-30 -44 -92 -44q-136 0 -136 125q0 109 143 149q78 22 89 34q4 5 4 14v51
q0 81 -21 100q-14 13 -50 13q-30 0 -30 -22v-33q-1 -22 -1 -30q0 -22 -19 -36t-39 -14q-18 0 -35 12.5t-17 34.5q0 109 170 109q89 0 125 -30q40 -34 40 -127v-229v-22q-1 -15 -1 -22q0 -50 28 -50q12 0 24 5q-1 -3 -1 -8q0 -8 3 -14zM255 264q0 10 -6 10q-5 0 -17 -6
q-15 -8 -28 -12q-64 -21 -64 -138q0 -97 46 -97q62 0 65 103q4 122 4 140z" />
    <glyph glyph-name="aacute" unicode="&#xe1;" horiz-adv-x="442" 
d="M315 691q0 -18 -27 -43q-62 -57 -95 -123q-4 1 -11 1q-8 0 -13 -1q35 109 43 145q5 24 18 31q9 5 38 5q47 0 47 -15zM432 0q-70 -7 -76 -7q-89 0 -89 59q0 7 -5 7t-8 -8.5t-6 -16.5q-30 -44 -92 -44q-136 0 -136 125q0 109 143 149q78 22 89 34q4 5 4 14v51q0 81 -21 100
q-14 13 -50 13q-30 0 -30 -22v-33q-1 -22 -1 -30q0 -22 -19 -36t-39 -14q-18 0 -35 12.5t-17 34.5q0 109 170 109q89 0 125 -30q40 -34 40 -127v-229v-22q-1 -15 -1 -22q0 -50 28 -50q12 0 24 5q-1 -3 -1 -8q0 -8 3 -14zM255 264q0 10 -6 10q-5 0 -17 -6q-15 -8 -28 -12
q-64 -21 -64 -138q0 -97 46 -97q62 0 65 103q4 122 4 140z" />
    <glyph glyph-name="acircumflex" unicode="&#xe2;" horiz-adv-x="442" 
d="M315 523q-10 2 -32 2q-12 0 -34 -2q-12 35 -38 88q-9 18 -10 18q-4 0 -10 -11q-10 -18 -41 -95q-10 2 -12 2q-1 0 -13 -2q50 88 85 183q6 -2 7 -2q2 0 8 2q29 -78 90 -183zM432 0q-70 -7 -76 -7q-89 0 -89 59q0 7 -5 7t-8 -8.5t-6 -16.5q-30 -44 -92 -44q-136 0 -136 125
q0 109 143 149q78 22 89 34q4 5 4 14v51q0 81 -21 100q-14 13 -50 13q-30 0 -30 -22v-33q-1 -22 -1 -30q0 -22 -19 -36t-39 -14q-18 0 -35 12.5t-17 34.5q0 109 170 109q89 0 125 -30q40 -34 40 -127v-229v-22q-1 -15 -1 -22q0 -50 28 -50q12 0 24 5q-1 -3 -1 -8q0 -8 3 -14
zM255 264q0 10 -6 10q-5 0 -17 -6q-15 -8 -28 -12q-64 -21 -64 -138q0 -97 46 -97q62 0 65 103q4 122 4 140z" />
    <glyph glyph-name="atilde" unicode="&#xe3;" horiz-adv-x="442" 
d="M341 663q-21 -58 -35 -78q-18 -25 -43 -25q-21 0 -63 21.5t-59 21.5q-28 0 -46 -44l-13 7q18 53 31 73q18 29 44 29q20 0 61.5 -23t56.5 -23q29 0 53 49zM432 0q-70 -7 -76 -7q-89 0 -89 59q0 7 -5 7t-8 -8.5t-6 -16.5q-30 -44 -92 -44q-136 0 -136 125q0 109 143 149
q78 22 89 34q4 5 4 14v51q0 81 -21 100q-14 13 -50 13q-30 0 -30 -22v-33q-1 -22 -1 -30q0 -22 -19 -36t-39 -14q-18 0 -35 12.5t-17 34.5q0 109 170 109q89 0 125 -30q40 -34 40 -127v-229v-22q-1 -15 -1 -22q0 -50 28 -50q12 0 24 5q-1 -3 -1 -8q0 -8 3 -14zM255 264
q0 10 -6 10q-5 0 -17 -6q-15 -8 -28 -12q-64 -21 -64 -138q0 -97 46 -97q62 0 65 103q4 122 4 140z" />
    <glyph glyph-name="adieresis" unicode="&#xe4;" horiz-adv-x="442" 
d="M350 628q0 -19 -14 -33t-34 -14q-19 0 -33 14t-14 33q0 20 14 34t33 14q20 0 34 -14t14 -34zM188 628q0 -19 -14 -33t-34 -14q-19 0 -33 14t-14 33q0 20 14 34t33 14q20 0 34 -14t14 -34zM432 0q-70 -7 -76 -7q-89 0 -89 59q0 7 -5 7t-8 -8.5t-6 -16.5q-30 -44 -92 -44
q-136 0 -136 125q0 109 143 149q78 22 89 34q4 5 4 14v51q0 81 -21 100q-14 13 -50 13q-30 0 -30 -22v-33q-1 -22 -1 -30q0 -22 -19 -36t-39 -14q-18 0 -35 12.5t-17 34.5q0 109 170 109q89 0 125 -30q40 -34 40 -127v-229v-22q-1 -15 -1 -22q0 -50 28 -50q12 0 24 5
q-1 -3 -1 -8q0 -8 3 -14zM255 264q0 10 -6 10q-5 0 -17 -6q-15 -8 -28 -12q-64 -21 -64 -138q0 -97 46 -97q62 0 65 103q4 122 4 140z" />
    <glyph glyph-name="aring" unicode="&#xe5;" horiz-adv-x="442" 
d="M293 620q0 -36 -21 -60q-24 -28 -64 -28t-62 26t-22 61q0 36 22 62t62 26t64 -27q21 -25 21 -60zM432 0q-70 -7 -76 -7q-89 0 -89 59q0 7 -5 7t-8 -8.5t-6 -16.5q-30 -44 -92 -44q-136 0 -136 125q0 109 143 149q78 22 89 34q4 5 4 14v51q0 81 -21 100q-14 13 -50 13
q-30 0 -30 -22v-33q-1 -22 -1 -30q0 -22 -19 -36t-39 -14q-18 0 -35 12.5t-17 34.5q0 109 170 109q89 0 125 -30q40 -34 40 -127v-229v-22q-1 -15 -1 -22q0 -50 28 -50q12 0 24 5q-1 -3 -1 -8q0 -8 3 -14zM262 619q0 24 -14 41.5t-39 17.5t-39 -17t-14 -41t14 -41.5
t39 -17.5t39 17t14 41zM255 264q0 10 -6 10q-5 0 -17 -6q-15 -8 -28 -12q-64 -21 -64 -138q0 -97 46 -97q62 0 65 103q4 122 4 140z" />
    <glyph glyph-name="ae" unicode="&#xe6;" horiz-adv-x="647" 
d="M627 269q-93 7 -222 7q-15 0 -20 -2.5t-5 -15.5q1 -152 28 -200q22 -38 85 -38q87 0 107 102q9 -9 25 -9q-25 -126 -166 -126q-123 0 -168 74q-4 6 -8 6q-5 0 -12 -9q-22 -38 -39 -51q-23 -17 -66 -17q-146 0 -146 125q0 59 37.5 95.5t122.5 57.5q8 2 53 19q23 9 23 25
v51q0 95 -33 108q-10 5 -31 5q-37 0 -37 -22v-33q-1 -22 -1 -30q0 -22 -19 -36t-39 -14q-18 0 -35 12.5t-17 34.5q0 83 93 102q29 6 82 6q44 0 63 -5q31 -7 53 -32q2 -2 5 -2t5 2q26 24 51 31q20 6 60 6q94 0 134 -55q36 -52 37 -172zM506 380q0 98 -58 98q-66 0 -66 -173
q0 -14 11 -14q-9 0 87 10q17 2 21 6.5t4 22.5q0 7 1 24v26zM255 263q0 10 -6 10q-5 0 -16 -5q-16 -8 -29 -12q-64 -22 -64 -138q0 -97 56 -97q49 0 55 92q4 62 4 150z" />
    <glyph glyph-name="ccedilla" unicode="&#xe7;" horiz-adv-x="392" 
d="M382 382q0 -25 -17 -41t-44 -16t-43.5 19t-16.5 47v23q0 46 -4 54t-26 8q-44 0 -58 -40q-16 -45 -16 -185q0 -139 25 -188q20 -40 70 -40q51 0 72.5 18t33.5 72q9 -6 22 -6q-19 -117 -143 -117h-18q-19 -1 -19 -13q0 -9 13 -9q90 0 90 -72q0 -76 -98 -76q-21 0 -42 12
l-34 24q9 9 13 17q26 -30 53 -30q47 0 47 52q0 56 -34 56q-9 0 -37 2q11 22 11 34q0 6 -9 8q-73 15 -106.5 72.5t-33.5 170.5q0 139 48 200q46 58 149 58q152 0 152 -114z" />
    <glyph glyph-name="egrave" unicode="&#xe8;" horiz-adv-x="425" 
d="M263 525q-6 1 -14 1q-7 0 -11 -1q-33 66 -95 123q-26 24 -26 43q0 15 46 15q29 0 38 -5q13 -7 18 -31q11 -50 44 -145zM405 270q-115 5 -124 5h-98q-25 0 -25 -18q0 -151 28 -200q22 -37 85 -37q87 0 107 102q8 -6 26 -6q-26 -129 -167 -129q-109 0 -156.5 57.5
t-47.5 198.5q0 253 201 253q94 0 134 -54q36 -52 37 -172zM287 365q0 62 -13.5 87.5t-47.5 25.5q-66 0 -66 -173q0 -13 11 -13q16 0 87 7q26 3 27 16q2 34 2 50z" />
    <glyph glyph-name="eacute" unicode="&#xe9;" horiz-adv-x="425" 
d="M334 691q0 -18 -27 -43q-62 -57 -95 -123q-4 1 -11 1q-8 0 -13 -1q35 109 43 145q5 24 18 31q9 5 38 5q47 0 47 -15zM405 270q-115 5 -124 5h-98q-25 0 -25 -18q0 -151 28 -200q22 -37 85 -37q87 0 107 102q8 -6 26 -6q-26 -129 -167 -129q-109 0 -156.5 57.5
t-47.5 198.5q0 253 201 253q94 0 134 -54q36 -52 37 -172zM287 365q0 62 -13.5 87.5t-47.5 25.5q-66 0 -66 -173q0 -13 11 -13q16 0 87 7q26 3 27 16q2 34 2 50z" />
    <glyph glyph-name="ecircumflex" unicode="&#xea;" horiz-adv-x="425" 
d="M339 523q-10 2 -32 2q-12 0 -34 -2q-12 35 -38 88q-9 18 -10 18q-4 0 -10 -11q-10 -18 -41 -95q-10 2 -12 2q-1 0 -13 -2q50 88 85 183q6 -2 7 -2q2 0 8 2q29 -78 90 -183zM405 270q-115 5 -124 5h-98q-25 0 -25 -18q0 -151 28 -200q22 -37 85 -37q87 0 107 102
q8 -6 26 -6q-26 -129 -167 -129q-109 0 -156.5 57.5t-47.5 198.5q0 253 201 253q94 0 134 -54q36 -52 37 -172zM287 365q0 62 -13.5 87.5t-47.5 25.5q-66 0 -66 -173q0 -13 11 -13q16 0 87 7q26 3 27 16q2 34 2 50z" />
    <glyph glyph-name="edieresis" unicode="&#xeb;" horiz-adv-x="425" 
d="M360 616q0 -19 -14 -33t-34 -14q-19 0 -33 14t-14 33q0 20 14 34t33 14q20 0 34 -14t14 -34zM198 616q0 -19 -14 -33t-34 -14q-19 0 -33 14t-14 33q0 20 14 34t33 14q20 0 34 -14t14 -34zM405 270q-115 5 -124 5h-98q-25 0 -25 -18q0 -151 28 -200q22 -37 85 -37
q87 0 107 102q8 -6 26 -6q-26 -129 -167 -129q-109 0 -156.5 57.5t-47.5 198.5q0 253 201 253q94 0 134 -54q36 -52 37 -172zM287 365q0 62 -13.5 87.5t-47.5 25.5q-66 0 -66 -173q0 -13 11 -13q16 0 87 7q26 3 27 16q2 34 2 50z" />
    <glyph glyph-name="igrave" unicode="&#xec;" horiz-adv-x="256" 
d="M157 525q-6 1 -14 1q-7 0 -11 -1q-33 66 -95 123q-26 24 -26 43q0 15 46 15q29 0 38 -5q13 -7 18 -31q11 -50 44 -145zM246 0q-35 5 -110 5q-73 0 -126 -5q0 1 1 6v6.5v6.5q-1 5 -1 6q13 -4 30 -4q25 0 26 29q5 113 5 197q0 87 -5 193q-1 24 -23 24q-6 0 -17 -1.5
t-16 -1.5q2 6 2 12q0 5 -2 12q22 -2 77 -2q68 0 109 4q-5 -138 -5 -247q0 -103 4 -190q1 -28 21 -28q14 0 30 3q-1 -4 -1 -13q0 -8 1 -12z" />
    <glyph glyph-name="iacute" unicode="&#xed;" horiz-adv-x="256" 
d="M232 691q0 -18 -27 -43q-62 -57 -95 -123q-4 1 -11 1q-8 0 -13 -1q35 109 43 145q5 24 18 31q9 5 38 5q47 0 47 -15zM246 0q-35 5 -110 5q-73 0 -126 -5q0 1 1 6v6.5v6.5q-1 5 -1 6q13 -4 30 -4q25 0 26 29q5 113 5 197q0 87 -5 193q-1 24 -23 24q-6 0 -17 -1.5t-16 -1.5
q2 6 2 12q0 5 -2 12q22 -2 77 -2q68 0 109 4q-5 -138 -5 -247q0 -103 4 -190q1 -28 21 -28q14 0 30 3q-1 -4 -1 -13q0 -8 1 -12z" />
    <glyph glyph-name="icircumflex" unicode="&#xee;" horiz-adv-x="256" 
d="M221 523q-10 2 -32 2q-12 0 -34 -2q-12 35 -38 88q-9 18 -10 18q-4 0 -10 -11q-10 -18 -41 -95q-10 2 -12 2q-1 0 -13 -2q50 88 85 183q6 -2 7 -2q2 0 8 2q29 -78 90 -183zM246 0q-35 5 -110 5q-73 0 -126 -5q0 1 1 6v6.5v6.5q-1 5 -1 6q13 -4 30 -4q25 0 26 29
q5 113 5 197q0 87 -5 193q-1 24 -23 24q-6 0 -17 -1.5t-16 -1.5q2 6 2 12q0 5 -2 12q22 -2 77 -2q68 0 109 4q-5 -138 -5 -247q0 -103 4 -190q1 -28 21 -28q14 0 30 3q-1 -4 -1 -13q0 -8 1 -12z" />
    <glyph glyph-name="idieresis" unicode="&#xef;" horiz-adv-x="256" 
d="M256 616q0 -20 -14 -33.5t-34 -13.5q-19 0 -33 14t-14 33q0 20 14 34t33 14q20 0 34 -14t14 -34zM94 616q0 -20 -14 -33.5t-34 -13.5q-19 0 -33 14t-14 33q0 20 14 34t33 14q20 0 34 -14t14 -34zM247 0q-36 5 -111 5q-73 0 -126 -5q1 3 1 12q0 10 -1 13q15 -4 31 -4
q25 0 26 29q4 90 4 197q0 108 -4 193q-1 24 -24 24q-5 0 -16 -1.5t-17 -1.5v24q23 -2 77 -2q67 0 110 4q-5 -104 -5 -247q0 -103 3 -190q1 -28 22 -28q14 0 30 3q-2 -8 -2 -13q0 -4 2 -12z" />
    <glyph glyph-name="eth" unicode="&#xf0;" horiz-adv-x="469" 
d="M449 282q0 -158 -59 -229q-52 -62 -155 -62q-104 0 -161 68q-54 65 -54 181q0 141 56 203q51 55 160 55q38 0 63 -25q8 -8 11 -8q5 0 5 10q0 47 -31 113q-5 10 -9 10q-3 0 -10 -3q-37 -15 -109 -47q-1 18 -11 31q63 13 113 33q11 4 11 9q0 4 -3 7q-24 42 -28 47
q-17 25 -36 32q9 9 10 17q62 -31 107 -76q6 -7 10 -7q1 0 9 2q45 19 74 34q0 -19 10 -31q-37 -7 -66 -18q-9 -3 -9 -6q0 -2 3 -8q99 -137 99 -332zM325 243q0 141 -20 191q-19 46 -71 46t-69 -45q-19 -48 -19 -198q0 -142 18 -185t72 -43q51 0 69 42q20 48 20 192z" />
    <glyph glyph-name="ntilde" unicode="&#xf1;" horiz-adv-x="488" 
d="M375 663q-21 -58 -35 -78q-18 -25 -43 -25q-21 0 -63 21.5t-59 21.5q-28 0 -46 -44l-13 7q18 53 31 73q18 29 44 29q20 0 61.5 -23t56.5 -23q29 0 53 49zM481 0q-50 5 -121 5q-70 0 -103 -5q2 7 2 12q0 6 -2 13q14 -4 32 -4q17 0 18 19q4 75 4 219v20q0 71 -6 122
q-6 48 -50 48q-48 0 -63 -65q-13 -57 -13 -179q0 -78 5 -166q1 -18 24 -18q15 0 29 4q-1 -4 -1 -13q0 -8 1 -12q-33 5 -107 5q-72 0 -120 -5q3 8 3 12q0 6 -3 13q16 -4 20 -4q15 0 20.5 3t6.5 17q4 83 4 195q0 115 -4 203q-1 24 -17 24q6 0 -30 -4q1 3 1 10q0 10 -1 14
q32 -2 46 -2q51 0 121 6q-4 -60 -4 -75q0 -7 2 -7q5 0 10 14q28 77 128 77q67 0 94.5 -37.5t27.5 -126.5v-79q-1 -52 -1 -78q0 -79 3 -138q1 -16 13 -16q3 0 31 4q-1 -4 -1 -13t1 -12z" />
    <glyph glyph-name="ograve" unicode="&#xf2;" horiz-adv-x="472" 
d="M259 525q-6 1 -14 1q-7 0 -11 -1q-33 66 -95 123q-26 24 -26 43q0 15 46 15q29 0 38 -5q13 -7 18 -31q11 -50 44 -145zM439 240q0 -137 -46.5 -191.5t-156.5 -54.5t-155 54q-48 55 -48 192t46 196.5t157 59.5t157 -59.5t46 -196.5zM316 237q0 156 -21 205q-15 36 -59 36
t-59 -36q-21 -49 -21 -205q0 -137 22 -186q17 -39 58 -39t58 39q22 49 22 186z" />
    <glyph glyph-name="oacute" unicode="&#xf3;" horiz-adv-x="472" 
d="M343 691q0 -18 -27 -43q-62 -57 -95 -123q-4 1 -11 1q-8 0 -13 -1q35 109 43 145q5 24 18 31q9 5 38 5q47 0 47 -15zM439 240q0 -137 -46.5 -191.5t-156.5 -54.5t-155 54q-48 55 -48 192t46 196.5t157 59.5t157 -59.5t46 -196.5zM316 237q0 156 -21 205q-15 36 -59 36
t-59 -36q-21 -49 -21 -205q0 -137 22 -186q17 -39 58 -39t58 39q22 49 22 186z" />
    <glyph glyph-name="ocircumflex" unicode="&#xf4;" horiz-adv-x="472" 
d="M331 523q-10 2 -32 2q-12 0 -34 -2q-12 35 -38 88q-9 18 -10 18q-4 0 -10 -11q-10 -18 -41 -95q-10 2 -12 2q-1 0 -13 -2q50 88 85 183q6 -2 7 -2q2 0 8 2q29 -78 90 -183zM439 240q0 -137 -46.5 -191.5t-156.5 -54.5t-155 54q-48 55 -48 192t46 196.5t157 59.5
t157 -59.5t46 -196.5zM316 237q0 156 -21 205q-15 36 -59 36t-59 -36q-21 -49 -21 -205q0 -137 22 -186q17 -39 58 -39t58 39q22 49 22 186z" />
    <glyph glyph-name="otilde" unicode="&#xf5;" horiz-adv-x="472" 
d="M366 663q-21 -58 -35 -78q-18 -25 -43 -25q-21 0 -63 21.5t-59 21.5q-28 0 -46 -44l-13 7q18 53 31 73q18 29 44 29q20 0 61.5 -23t56.5 -23q29 0 53 49zM439 240q0 -137 -46.5 -191.5t-156.5 -54.5t-155 54q-48 55 -48 192t46 196.5t157 59.5t157 -59.5t46 -196.5z
M316 237q0 156 -21 205q-15 36 -59 36t-59 -36q-21 -49 -21 -205q0 -137 22 -186q17 -39 58 -39t58 39q22 49 22 186z" />
    <glyph glyph-name="odieresis" unicode="&#xf6;" horiz-adv-x="472" 
d="M365 628q0 -19 -14 -33t-34 -14q-19 0 -33 14t-14 33q0 20 14 34t33 14q20 0 34 -14t14 -34zM203 628q0 -19 -14 -33t-34 -14q-19 0 -33 14t-14 33q0 20 14 34t33 14q20 0 34 -14t14 -34zM439 240q0 -137 -46.5 -191.5t-156.5 -54.5t-155 54q-48 55 -48 192t46 196.5
t157 59.5t157 -59.5t46 -196.5zM316 237q0 156 -21 205q-15 36 -59 36t-59 -36q-21 -49 -21 -205q0 -137 22 -186q17 -39 58 -39t58 39q22 49 22 186z" />
    <glyph glyph-name="divide" unicode="&#xf7;" horiz-adv-x="527" 
d="M306 420q0 -17 -11.5 -29t-28.5 -12q-16 0 -28 12t-12 28q0 17 11.5 29t28.5 12t28.5 -11.5t11.5 -28.5zM504 266q-76 5 -232 5q-119 0 -249 -5q3 14 3 24q0 12 -3 27q98 -5 249 -5q156 0 232 5q-3 -13 -3 -24q0 3 3 -27zM306 161q0 -17 -11.5 -29t-28.5 -12
q-16 0 -28 12t-12 28q0 17 11.5 29t28.5 12t28.5 -11.5t11.5 -28.5z" />
    <glyph glyph-name="oslash" unicode="&#xf8;" horiz-adv-x="472" 
d="M439 240q0 -137 -46.5 -191.5t-156.5 -54.5q-87 0 -132 32q-7 5 -11 5q-5 0 -9 -6q-10 -15 -23 -33q-8 14 -21 22q32 38 32 42q0 1 -8 15q-31 56 -31 169q0 137 46 196.5t157 59.5q84 0 130 -33q11 -8 15 -8q3 0 32 38q4 -17 20 -20q-8 -9 -24 -29q-7 -9 -7 -14
q0 -6 4 -13q33 -59 33 -177zM310 369q0 4 -1 12q-8 61 -27 82q-14 15 -46 15q-44 0 -59 -36q-21 -49 -21 -205q0 -16 1 -48q1 -21 3 -21q4 0 14 13q44 54 128 165q8 11 8 23zM316 237q0 27 -1 60q-1 19 -4 19q-2 0 -11 -11l-122 -157q-15 -19 -15 -33v-8q8 -56 28 -78
q15 -17 45 -17q41 0 58 39q22 49 22 186z" />
    <glyph glyph-name="ugrave" unicode="&#xf9;" horiz-adv-x="503" 
d="M268 525q-6 1 -14 1q-7 0 -11 -1q-33 66 -95 123q-26 24 -26 43q0 15 46 15q29 0 38 -5q13 -7 18 -31q11 -50 44 -145zM493 0q-18 2 -100 2q-34 0 -88 -6q5 11 5 61q0 9 -8 9q-4 0 -7 -5q-34 -69 -119 -69q-68 0 -94 34t-26 125q0 27 1 79v79q0 91 -3 135q-1 18 -18 18
q-10 0 -26 -4q1 4 1 13t-1 12q37 -4 100 -4q53 0 75 1l-5 -276v-102q8 -66 50 -66q31 0 53 38q30 52 30 164v46q0 45 -5 153q-1 25 -23 25q-8 0 -30 -4q1 4 1 13q0 8 -1 12q40 -5 84 -5q43 0 97 4q-5 -169 -5 -235q0 -4 -1 -67q-1 -50 0 -80q1 -43 5.5 -62t24.5 -19
q6 0 33 5q-1 -3 -1 -10q0 -10 1 -14z" />
    <glyph glyph-name="uacute" unicode="&#xfa;" horiz-adv-x="503" 
d="M354 691q0 -18 -27 -43q-62 -57 -95 -123q-4 1 -11 1q-8 0 -13 -1q35 109 43 145q5 24 18 31q9 5 38 5q47 0 47 -15zM493 0q-18 2 -100 2q-34 0 -88 -6q5 11 5 61q0 9 -8 9q-4 0 -7 -5q-34 -69 -119 -69q-68 0 -94 34t-26 125q0 27 1 79v79q0 91 -3 135q-1 18 -18 18
q-10 0 -26 -4q1 4 1 13t-1 12q37 -4 100 -4q53 0 75 1l-5 -276v-102q8 -66 50 -66q31 0 53 38q30 52 30 164v46q0 45 -5 153q-1 25 -23 25q-8 0 -30 -4q1 4 1 13q0 8 -1 12q40 -5 84 -5q43 0 97 4q-5 -169 -5 -235q0 -4 -1 -67q-1 -50 0 -80q1 -43 5.5 -62t24.5 -19
q6 0 33 5q-1 -3 -1 -10q0 -10 1 -14z" />
    <glyph glyph-name="ucircumflex" unicode="&#xfb;" horiz-adv-x="503" 
d="M339 523q-10 2 -32 2q-12 0 -34 -2q-12 35 -38 88q-9 18 -10 18q-4 0 -10 -11q-10 -18 -41 -95q-10 2 -12 2q-1 0 -13 -2q50 88 85 183q6 -2 7 -2q2 0 8 2q29 -78 90 -183zM493 0q-18 2 -100 2q-34 0 -88 -6q5 11 5 61q0 9 -8 9q-4 0 -7 -5q-34 -69 -119 -69
q-68 0 -94 34t-26 125q0 27 1 79v79q0 91 -3 135q-1 18 -18 18q-10 0 -26 -4q1 4 1 13t-1 12q37 -4 100 -4q53 0 75 1l-5 -276v-102q8 -66 50 -66q31 0 53 38q30 52 30 164v46q0 45 -5 153q-1 25 -23 25q-8 0 -30 -4q1 4 1 13q0 8 -1 12q40 -5 84 -5q43 0 97 4
q-5 -169 -5 -235q0 -4 -1 -67q-1 -50 0 -80q1 -43 5.5 -62t24.5 -19q6 0 33 5q-1 -3 -1 -10q0 -10 1 -14z" />
    <glyph glyph-name="udieresis" unicode="&#xfc;" horiz-adv-x="503" 
d="M373 628q0 -19 -14 -33t-34 -14q-19 0 -33 14t-14 33q0 20 14 34t33 14q20 0 34 -14t14 -34zM211 628q0 -19 -14 -33t-34 -14q-19 0 -33 14t-14 33q0 20 14 34t33 14q20 0 34 -14t14 -34zM493 0q-18 2 -100 2q-34 0 -88 -6q5 11 5 61q0 9 -8 9q-4 0 -7 -5
q-34 -69 -119 -69q-68 0 -94 34t-26 125q0 27 1 79v79q0 91 -3 135q-1 18 -18 18q-10 0 -26 -4q1 4 1 13t-1 12q37 -4 100 -4q53 0 75 1l-5 -276v-102q8 -66 50 -66q31 0 53 38q30 52 30 164v46q0 45 -5 153q-1 25 -23 25q-8 0 -30 -4q1 4 1 13q0 8 -1 12q40 -5 84 -5
q43 0 97 4q-5 -169 -5 -235q0 -4 -1 -67q-1 -50 0 -80q1 -43 5.5 -62t24.5 -19q6 0 33 5q-1 -3 -1 -10q0 -10 1 -14z" />
    <glyph glyph-name="yacute" unicode="&#xfd;" horiz-adv-x="458" 
d="M337 691q0 -18 -27 -43q-62 -57 -95 -123q-4 1 -11 1q-8 0 -13 -1q35 109 43 145q5 24 18 31q9 5 38 5q47 0 47 -15zM448 461q-8 2 -19 2q-20 0 -29 -15q-29 -49 -78 -232l-72 -270q-21 -80 -35 -104q-27 -46 -80 -46q-76 0 -76 70q0 28 16 45t38 17t38 -17
q17 -20 17 -53q0 -23 9 -23q12 0 22 21q15 30 32 101q3 12 3 29q0 27 -7 46q-74 202 -79 212q-50 130 -92 206q-7 13 -20 13q-3 0 -26 -5q1 3 1 11q0 10 -1 14q52 -5 130 -5q79 0 114 5q-2 -8 -2 -14q0 -5 2 -11q-30 5 -32 5q-17 0 -17 -12q1 -6 1 -5q7 -30 47 -123
q34 -80 36 -114q0 -7 6 -7q4 0 4.5 2t10.5 41q29 116 38 184q0 2 1 6v5q0 24 -23 24q-10 0 -25 -3q2 6 2 11t-2 11q27 -3 78 -3q45 0 69 3q-1 -3 -1 -11t1 -11z" />
    <glyph glyph-name="thorn" unicode="&#xfe;" horiz-adv-x="477" 
d="M457 241q0 -138 -37 -193.5t-126 -55.5q-80 0 -101 48q-5 11 -8 11t-5 -18q2 -72 8 -216q1 -14 5.5 -18t19.5 -4l24 3q-1 -4 -1 -13q0 -8 1 -12q-33 5 -106 5q-74 0 -122 -5q2 3 2 13q0 9 -2 12l27 -3q25 0 25 21q1 68 1 181q0 386 -8 668q-1 23 -22 23q-7 0 -22 -3
q0 1 1 6v7q0 7 -1 9q19 -1 58 -1q75 0 122 5q-1 -20 -4 -67q-5 -88 -5 -223q0 -8 3 -8t5 6q8 33 39.5 55t73.5 22q84 0 118 -51q37 -56 37 -204zM336 231q0 159 -18 205q-12 30 -51 30q-34 0 -58 -51q-26 -55 -26 -146v-30q-1 -20 -1 -30q0 -187 86 -186q39 0 52 35
q16 42 16 173z" />
    <glyph glyph-name="ydieresis" unicode="&#xff;" horiz-adv-x="458" 
d="M354 616q0 -19 -14 -33t-34 -14q-19 0 -33 14t-14 33q0 20 14 34t33 14q20 0 34 -14t14 -34zM192 616q0 -19 -14 -33t-34 -14q-19 0 -33 14t-14 33q0 20 14 34t33 14q20 0 34 -14t14 -34zM448 461q-8 2 -19 2q-20 0 -29 -15q-29 -49 -78 -232l-72 -270q-21 -80 -35 -104
q-27 -46 -80 -46q-76 0 -76 70q0 28 16 45t38 17t38 -17q17 -20 17 -53q0 -23 9 -23q12 0 22 21q15 30 32 101q3 12 3 29q0 27 -7 46q-74 202 -79 212q-50 130 -92 206q-7 13 -20 13q-3 0 -26 -5q1 3 1 11q0 10 -1 14q52 -5 130 -5q79 0 114 5q-2 -8 -2 -14q0 -5 2 -11
q-30 5 -32 5q-17 0 -17 -12q1 -6 1 -5q7 -30 47 -123q34 -80 36 -114q0 -7 6 -7q4 0 4.5 2t10.5 41q29 116 38 184q0 2 1 6v5q0 24 -23 24q-10 0 -25 -3q2 6 2 11t-2 11q27 -3 78 -3q45 0 69 3q-1 -3 -1 -11t1 -11z" />
    <glyph glyph-name="dotlessi" unicode="&#x131;" horiz-adv-x="256" 
d="M246 0q-35 5 -110 5q-73 0 -126 -5q0 1 1 6v6.5v6.5q-1 5 -1 6q13 -4 30 -4q25 0 26 29q5 113 5 197q0 87 -5 193q-1 24 -23 24q-6 0 -17 -1.5t-16 -1.5q2 6 2 12q0 5 -2 12q22 -2 77 -2q68 0 109 4q-5 -138 -5 -247q0 -103 4 -190q1 -28 21 -28q14 0 30 3q-1 -4 -1 -13
q0 -8 1 -12z" />
    <glyph glyph-name="Lslash" unicode="&#x141;" horiz-adv-x="527" 
d="M514 0q-51 0 -164 2t-172 2q-96 0 -168 -4q2 10 2 14q0 3 -2 11q5 0 18 -2t19 -2q25 0 26 21q0 12 2 139q0 12 1.5 28t1.5 18q0 4 -3 4t-6 -3q-19 -22 -58 -66q0 5 2 15q1 7 1 11q0 13 -3 20q15 14 48 46q17 17 17 40v132q0 145 -3 238q-1 21 -23 21q-7 0 -20 -2
q-16 -2 -20 -2q2 10 2 14q0 3 -2 11q82 -4 129 -4q95 0 143 4q-2 -12 -2 -14q0 -3 2 -11q-5 0 -18.5 2t-20.5 2q-25 0 -26 -19q-3 -59 -6 -197q0 -18 -2 -36.5t-2 -20.5q0 -5 4 -5t7 4q52 55 155 165q-3 -13 -3 -25q0 -6 3 -21q-66 -64 -142 -140q-21 -21 -21 -45v-1
q0 -174 7 -298q1 -21 27 -21q145 1 191 47q41 42 60 188l19 -1q-3 -66 -3 -137q0 -78 3 -122z" />
    <glyph glyph-name="lslash" unicode="&#x142;" horiz-adv-x="256" 
d="M259 460q-24 -20 -62 -59q-7 -8 -7 -25l3 -333q1 -22 23 -22q10 0 30 4q-1 -4 -1 -14q0 -8 1 -11q-36 4 -123 4q-69 0 -113 -4q1 4 1 13q0 8 -1 12q23 -5 28 -5q22 0 23 21q2 53 3 155q0 17 1.5 38.5t1.5 25.5q0 8 -4 8l-26 -29q-14 -15 -42 -47q3 12 3 24q0 13 -3 20
q13 11 53 50q16 16 16 41.5t1 79.5v80q0 94 -4 174q-1 27 -20 27q-5 0 -31 -4q1 3 1 10q0 8 -1 12h22q14 -1 22 -1q83 0 140 5q-3 -63 -4 -224q0 -7 -1 -21.5t-1 -22.5t4 -8l23 24q16 17 44 47q-3 -12 -3 -24q0 -13 3 -21z" />
    <glyph glyph-name="OE" unicode="&#x152;" horiz-adv-x="949" 
d="M909 242q-9 -94 -9 -177q0 -36 3 -65q-107 4 -230 4q-76 0 -193 -2q-25 0 -76 -6.5t-77 -6.5q-135 0 -211 96.5t-76 265.5q0 171 77 268t211 97q27 0 79.5 -6t77.5 -7q41 -1 85 -1q50 0 150.5 2t154.5 2q-4 -40 -4 -73q0 -73 10 -147q-1 0 -4 1h-4q-7 0 -15 -2
q-15 121 -72 163q-45 34 -151 34q-29 0 -35 -4.5t-7 -26.5q-7 -128 -7 -248q0 -23 4 -28t21 -5q73 0 99 36q24 32 24 119q3 -1 16 -1q7 0 11 1q-8 -96 -8 -179q0 -86 8 -157q-3 1 -11 1q-12 0 -16 -1q0 99 -25 130.5t-98 31.5q-18 0 -21.5 -5t-3.5 -27q0 -122 7 -261
q1 -24 11.5 -28.5t65.5 -4.5q108 0 160 51t54 166q3 -1 13 -1q9 0 12 1zM455 336q0 161 -10 236t-37 102q-24 24 -77 24q-85 0 -117 -63q-36 -72 -36 -278q0 -205 37 -282q32 -67 113 -67q73 0 98 59q29 67 29 269z" />
    <glyph glyph-name="oe" unicode="&#x153;" horiz-adv-x="703" 
d="M683 269q-93 7 -222 7q-25 0 -25 -18q0 -151 28 -199q22 -37 85 -37q87 0 107 103q9 -9 25 -9q-25 -126 -166 -126q-117 0 -140 50q-2 5 -5 5q-2 0 -5 -5q-30 -50 -132 -50q-109 0 -154.5 56t-45.5 194q0 137 47 196.5t159 59.5q88 0 127 -44q5 -6 10 -6t11 6
q43 44 125 44q94 0 134 -55q36 -52 37 -172zM562 380q0 98 -58 98q-66 0 -66 -173q0 -14 11 -14q-9 0 87 10q18 2 22 13.5t4 65.5zM311 242q0 148 -18 196q-14 40 -54 40q-44 0 -61 -36q-22 -50 -22 -205q0 -140 19 -190q15 -42 55 -42q42 0 59 40q22 51 22 197z" />
    <glyph glyph-name="Scaron" unicode="&#x160;" horiz-adv-x="488" 
d="M346 872q-53 -73 -85 -137q-1 0 -3 1h-3.5h-3.5q-3 -1 -5 -1q-35 67 -90 137q22 -2 32 -2q11 0 35 2q8 -21 37 -66q9 -14 10 -14q3 0 10 8q27 34 41 72l12 -2q1 0 13 2zM478 208q0 -103 -65 -160q-68 -61 -197 -61q-81 0 -179 47q3 26 3 58q0 69 -10 141q2 -1 9 -1
q4 0 12 2q14 -99 65.5 -160t124.5 -61q133 0 133 136q0 79 -87 127q-80 41 -161 82q-87 58 -87 160q0 95 57 148t168 53q89 0 161 -43q-6 -40 -6 -102q0 -28 2 -54h-9q-6 0 -12 -1q-4 78 -49 130q-43 49 -99 49q-118 0 -118 -124q0 -67 89 -112l166 -82q89 -63 89 -172z" />
    <glyph glyph-name="scaron" unicode="&#x161;" horiz-adv-x="360" 
d="M268 706q-53 -97 -85 -183q-4 2 -6 2t-8 -2q-36 92 -91 183q11 -2 32 -2q13 0 35 2q15 -42 37 -88q9 -18 10 -18q3 0 10 11q25 43 41 95q12 -2 13 -2zM350 153q0 -77 -42.5 -120t-125.5 -43q-84 0 -147 28q3 25 3 49q0 34 -8 110h4q7 0 16 4q11 -78 35 -117
q32 -51 95 -51q77 0 77 82q0 49 -49 77q-49 23 -97 45q-74 40 -74 125q0 153 151 153q83 0 131 -20q-6 -29 -6 -63q0 -35 6 -74q-3 1 -12 1q-2 0 -8 -2q-22 138 -114 138q-70 0 -70 -75q0 -37 36 -62q17 -11 78 -37q57 -24 83 -49q38 -38 38 -99z" />
    <glyph glyph-name="Ydieresis" unicode="&#x178;" horiz-adv-x="560" 
d="M424 786q0 -19 -14 -33t-34 -14q-19 0 -33 14t-14 33q0 20 14 34t33 14q20 0 34 -14t14 -34zM262 786q0 -19 -14 -33t-34 -14q-19 0 -33 14t-14 33q0 20 14 34t33 14q20 0 34 -14t14 -34zM550 682q-30 4 -32 4q-13 0 -25.5 -21.5t-43.5 -83.5l-87 -203q-5 -11 -10 -40
v-22v-43q0 -122 6 -226q1 -26 24 -26q6 0 19 2t17 2q-2 -10 -2 -13q0 -8 2 -12q-51 4 -120 4q-51 0 -137 -4q2 10 2 13q0 4 -2 12q5 0 16.5 -2t17.5 -2q23 0 24 24q3 95 3 167v64q-1 42 -1 62.5t-9 38.5q-108 216 -153 293q-9 15 -23 15q4 0 -26 -3q2 7 2 12t-2 12
q62 -3 131 -3q65 0 123 3q-2 -7 -2 -12q0 -6 2 -12q-2 0 -11.5 1t-15.5 1q-19 0 -19 -12q0 -4 1 -7q16 -47 28 -75q8 -17 78 -164q6 -12 11 -29q2 -5 4 -5q3 0 6 6q24 53 54 134q38 104 38 132q0 21 -23 21q-11 0 -26 -3q1 5 1 11q0 8 -1 13q33 -3 72 -3q49 0 89 3v-7
q-1 -5 -1 -6q0 -2 1 -5v-6z" />
    <glyph glyph-name="Zcaron" unicode="&#x17d;" horiz-adv-x="551" 
d="M376 852q-53 -73 -85 -137q-1 0 -3 1h-3.5h-3.5q-3 -1 -5 -1q-35 67 -90 137q22 -2 32 -2q11 0 35 2q8 -21 37 -66q9 -14 10 -14q3 0 10 8q27 34 41 72l12 -2q1 0 13 2zM511 0q-114 3 -257 3q-146 0 -241 -3q0 10 -3 13q17 15 38 53q47 87 129 270q99 222 131 287
q14 29 14 45q0 12 -47 12q-97 0 -143 -40q-52 -45 -52 -149q-4 1 -11 1t-11 -1q5 43 5 113q0 63 -5 102q85 -4 225 -4q90 0 204 4q0 -6 5 -13q-8 -12 -26 -40q-51 -95 -137 -293q-105 -240 -129 -289q-14 -29 -14 -38q0 -12 35 -12q58 0 99 8q84 16 125.5 70t44.5 156h21
q-6 -75 -6 -135q0 -66 6 -120z" />
    <glyph glyph-name="zcaron" unicode="&#x17e;" horiz-adv-x="385" 
d="M290 706q-53 -97 -85 -183q-4 2 -6 2t-8 -2q-34 86 -90 183q10 -2 31 -2q13 0 35 2q11 -31 37 -88q8 -18 10 -18q4 0 10 11q27 48 41 95q12 -2 13 -2q2 0 12 2zM378 0q-81 3 -187 3q-99 0 -170 -3q-1 8 -5 12q10 15 30 47q78 139 116.5 225t75.5 170q1 2 2 5q0 5 -9 5
q-58 0 -81 -6q-29 -7 -50 -30q-30 -33 -31 -110q-8 2 -14 2h-4q-2 -1 -3 -1q3 32 3 78q0 47 -3 86q78 -3 177 -3q84 0 148 3q0 -9 3 -12q-56 -88 -116 -221q-47 -108 -95 -215q-4 -7 -4 -10q0 -4 10 -4q68 0 92 5q34 6 57 28q35 34 38 132q4 -1 10 -1t10 1q-3 -34 -3 -88
q0 -53 3 -98z" />
    <glyph glyph-name="florin" unicode="&#x192;" horiz-adv-x="426" 
d="M426 612q0 -28 -16.5 -44t-37.5 -16q-19 0 -33.5 13.5t-14.5 37.5q0 21 11 38t11 28q0 17 -27 17q-31 0 -41 -54q-8 -69 -15 -137q-1 -3 -1 -8q0 -11 12 -11q38 0 74 3q-4 -12 -4 -20q0 -1 1 -2v-3q-37 3 -74 3q-12 0 -13 -16q-10 -129 -20 -203q-19 -142 -50.5 -230
t-78.5 -138t-98 -50q-52 0 -81 28q-24 24 -24 60q0 27 15 46.5t40 19.5q20 0 35 -15t15 -41q0 -10 -4 -29.5t-4 -29.5q0 -18 17 -18q41 0 61 64q5 16 19 99q12 71 28 264q4 54 16 173v7q0 9 -12 9q-33 0 -66 -3q3 7 3 19v6q33 -3 66 -3q13 0 18 19q27 112 84 168
q39 38 95 38q45 0 71 -29q23 -26 23 -60z" />
    <glyph glyph-name="circumflex" unicode="&#x2c6;" 
d="M220 523q-10 2 -32 2q-12 0 -34 -2q-12 35 -38 88q-9 18 -10 18q-4 0 -10 -11q-10 -18 -41 -95q-10 2 -12 2q-1 0 -13 -2q50 88 85 183q6 -2 7 -2q2 0 8 2q29 -78 90 -183z" />
    <glyph glyph-name="caron" unicode="&#x2c7;" 
d="M220 706q-53 -97 -85 -183q-4 2 -6 2t-8 -2q-36 92 -91 183q11 -2 32 -2q13 0 35 2q15 -42 37 -88q9 -18 10 -18q3 0 10 11q25 43 41 95q12 -2 13 -2z" />
    <glyph glyph-name="breve" unicode="&#x2d8;" 
d="M228 677q-4 -126 -102 -126q-50 0 -79 41q-23 34 -25 85q9 -3 13 -3q5 0 12 3q19 -62 79 -62q58 0 79 62q8 -3 12 -3q5 0 11 3z" />
    <glyph glyph-name="dotaccent" unicode="&#x2d9;" 
d="M171 619q0 -19 -13 -32.5t-33 -13.5q-19 0 -32.5 13.5t-13.5 32.5t13.5 32.5t32.5 13.5t32.5 -13.5t13.5 -32.5z" />
    <glyph glyph-name="ring" unicode="&#x2da;" 
d="M210 620q0 -36 -21 -60q-24 -28 -64 -28t-62 26t-22 61q0 36 22 62t62 26t64 -27q21 -25 21 -60zM179 619q0 24 -14 41.5t-39 17.5t-39 -17t-14 -41t14 -41.5t39 -17.5t39 17t14 41z" />
    <glyph glyph-name="ogonek" unicode="&#x2db;" 
d="M196 -127q-50 -30 -74 -30q-33 0 -51 22q-16 19 -16 44q0 39 56 99q9 -3 16 -3q8 0 18 3q-13 -17 -27 -33q-16 -23 -16 -43q0 -55 53 -55q8 0 33 10q1 -7 8 -14z" />
    <glyph glyph-name="tilde" unicode="&#x2dc;" 
d="M255 663q-21 -58 -35 -78q-18 -25 -43 -25q-21 0 -63 21.5t-59 21.5q-28 0 -46 -44l-13 7q18 53 31 73q18 29 44 29q20 0 61.5 -23t56.5 -23q29 0 53 49z" />
    <glyph glyph-name="hungarumlaut" unicode="&#x2dd;" 
d="M258 691q0 -18 -27 -43q-62 -57 -95 -123q-4 1 -11 1q-8 0 -13 -1q35 109 43 145q5 24 18 31q9 5 38 5q47 0 47 -15zM138 691q0 -18 -27 -43q-62 -57 -95 -123q-4 1 -11 1q-8 0 -13 -1q35 109 43 145q5 24 18 31q9 5 38 5q47 0 47 -15z" />
    <glyph glyph-name="endash" unicode="&#x2013;" horiz-adv-x="405" 
d="M395 241q-79 3 -173 3q-120 0 -212 -3q3 12 3 22q0 -2 -3 25q96 -3 208 -3q96 0 177 3q-4 -18 -4 -25q0 -11 4 -22z" />
    <glyph glyph-name="emdash" unicode="&#x2014;" horiz-adv-x="576" 
d="M566 241q-142 4 -294 4q-183 0 -262 -4q3 14 3 23q0 11 -3 24q89 -3 259 -3q189 0 297 3q-2 -18 -2 -25q0 -6 2 -22z" />
    <glyph glyph-name="quoteleft" unicode="&#x2018;" horiz-adv-x="195" 
d="M175 464q0 -32 -19 -54q-22 -25 -58 -25q-39 0 -60 38q-18 33 -18 80q0 85 49 145q30 36 78 68q1 -11 14 -22q-107 -62 -107 -159q0 -13 11 -13q10 0 15 5q13 10 25 10q33 0 53 -23q17 -20 17 -50z" />
    <glyph glyph-name="quoteright" unicode="&#x2019;" horiz-adv-x="195" 
d="M175 598q0 -83 -50 -145q-31 -38 -77 -68q-1 11 -14 22q107 62 107 159q0 13 -11 13q-10 0 -15 -5q-17 -10 -25 -10q-33 0 -53 23q-17 20 -17 50q0 32 20.5 55.5t55.5 23.5q40 0 61 -38q18 -32 18 -80z" />
    <glyph glyph-name="quotesinglbase" unicode="&#x201a;" horiz-adv-x="215" 
d="M185 24q0 -85 -50 -146q-30 -37 -77 -67q-1 9 -14 22q107 62 107 159q0 13 -11 13q-7 0 -15 -5q-16 -10 -25 -10q-33 0 -53 23q-17 20 -17 49q0 32 20.5 56t55.5 24q40 0 61 -38q18 -33 18 -80z" />
    <glyph glyph-name="quotedblleft" unicode="&#x201c;" horiz-adv-x="391" 
d="M373 464q0 -32 -19 -54q-22 -25 -58 -25q-39 0 -60 38q-18 33 -18 80q0 85 49 145q30 36 78 68q1 -11 14 -22q-107 -62 -107 -159q0 -13 11 -13q10 0 15 5q13 10 25 10q33 0 53 -23q17 -20 17 -50zM175 464q0 -32 -19 -54q-22 -25 -58 -25q-39 0 -60 38q-18 33 -18 80
q0 85 49 145q30 36 78 68q1 -11 14 -22q-107 -62 -107 -159q0 -13 11 -13q10 0 15 5q13 10 25 10q33 0 53 -23q17 -20 17 -50z" />
    <glyph glyph-name="quotedblright" unicode="&#x201d;" horiz-adv-x="391" 
d="M371 598q0 -83 -50 -145q-31 -38 -77 -68q-1 11 -14 22q107 62 107 159q0 13 -11 13q-10 0 -15 -5q-17 -10 -25 -10q-33 0 -53 23q-17 20 -17 50q0 32 20.5 55.5t55.5 23.5q40 0 61 -38q18 -32 18 -80zM175 598q0 -83 -50 -145q-31 -38 -77 -68q-1 11 -14 22
q107 62 107 159q0 13 -11 13q-10 0 -15 -5q-17 -10 -25 -10q-33 0 -53 23q-17 20 -17 50q0 32 20.5 55.5t55.5 23.5q40 0 61 -38q18 -32 18 -80z" />
    <glyph glyph-name="quotedblbase" unicode="&#x201e;" horiz-adv-x="391" 
d="M371 24q0 -83 -50 -145q-31 -38 -77 -68q-1 11 -14 22q107 62 107 159q0 13 -11 13q-10 0 -15 -5q-17 -10 -25 -10q-33 0 -53 23q-17 20 -17 50q0 32 20.5 55.5t55.5 23.5q40 0 61 -38q18 -32 18 -80zM175 24q0 -83 -50 -145q-31 -38 -77 -68q-1 11 -14 22
q107 62 107 159q0 13 -11 13q-10 0 -15 -5q-17 -10 -25 -10q-33 0 -53 23q-17 20 -17 50q0 32 20.5 55.5t55.5 23.5q40 0 61 -38q18 -32 18 -80z" />
    <glyph glyph-name="dagger" unicode="&#x2020;" horiz-adv-x="375" 
d="M365 432q0 -20 -14 -35.5t-36 -15.5q-16 0 -52 18.5t-53 18.5q-8 0 -8 -16q0 -73 19.5 -219t19.5 -220q0 -51 -16.5 -79.5t-37.5 -28.5t-36 26t-15 74q0 74 19 221.5t19 221.5q0 19 -9 19q-12 0 -48.5 -18.5t-53.5 -18.5q-23 0 -38 15.5t-15 35.5q0 19 14 33.5t35 14.5
q17 0 55 -19t51 -19q8 0 8 10q0 4 -5 37q-4 25 -20 91q-13 53 -13 73q0 64 53 64t53 -64q0 -22 -14 -77q-17 -66 -20 -88q-5 -33 -5 -35q0 -10 8 -10q10 0 49.5 18.5t57.5 18.5q21 0 34.5 -14t13.5 -33z" />
    <glyph glyph-name="daggerdbl" unicode="&#x2021;" horiz-adv-x="375" 
d="M365 199q0 -19 -14 -33.5t-35 -14.5q-17 0 -55 19t-51 19q-8 0 -8 -11q0 1 5 -38q4 -28 20 -114q13 -68 13 -93q0 -78 -53 -78t-53 78q0 27 14 98q17 86 20 111q5 41 5 36q0 10 -8 10q-9 0 -48.5 -18.5t-58.5 -18.5q-21 0 -34.5 14t-13.5 33q0 20 14 35.5t36 15.5
q17 0 53 -18.5t52 -18.5q6 0 6 13q0 12 -7.5 43t-7.5 47q0 14 8.5 45t8.5 43q0 14 -8 14q-12 0 -48.5 -18.5t-53.5 -18.5q-23 0 -38 15.5t-15 35.5q0 19 14 33.5t35 14.5q17 0 55 -19t51 -19q8 0 8 10q0 4 -5 37q-4 25 -20 91q-13 53 -13 73q0 64 53 64t53 -64
q0 -22 -14 -77q-17 -66 -20 -88q-5 -33 -5 -35q0 -10 8 -10q10 0 49.5 18.5t57.5 18.5q21 0 34.5 -14t13.5 -33q0 -20 -14 -35.5t-36 -15.5q-16 0 -52 18.5t-53 18.5q-6 0 -6 -13q0 -15 8 -45t8 -45q0 -13 -9 -44.5t-9 -43.5q0 -15 8 -15q12 0 48.5 19t53.5 19
q23 0 38 -15.5t15 -35.5z" />
    <glyph glyph-name="bullet" unicode="&#x2022;" horiz-adv-x="243" 
d="M225 350q0 -42 -30 -72t-72 -30q-43 0 -72.5 30t-29.5 72q0 43 29.5 72.5t72.5 29.5q42 0 72 -29.5t30 -72.5z" />
    <glyph glyph-name="ellipsis" unicode="&#x2026;" horiz-adv-x="639" 
d="M609 66q0 -32 -22.5 -54t-54.5 -22q-31 0 -53.5 22.5t-22.5 53.5q0 32 22 54.5t54 22.5t54.5 -22.5t22.5 -54.5zM396 66q0 -32 -22.5 -54t-54.5 -22q-31 0 -53.5 22.5t-22.5 53.5q0 32 22 54.5t54 22.5t54.5 -22.5t22.5 -54.5zM183 66q0 -32 -22.5 -54t-54.5 -22
q-31 0 -53.5 22.5t-22.5 53.5q0 32 22 54.5t54 22.5t54.5 -22.5t22.5 -54.5z" />
    <glyph glyph-name="perthousand" unicode="&#x2030;" horiz-adv-x="974" 
d="M964 193q0 -200 -141 -200q-60 0 -98 47q-45 54 -45 157q0 97 41 151q38 50 100 50q61 0 99 -45q44 -54 44 -160zM640 193q0 -200 -141 -200q-60 0 -98 47q-45 54 -45 157q0 97 41 151q38 50 100 50q61 0 99 -45q44 -54 44 -160zM490 688q-152 -332 -290 -688
q-10 3 -20 3t-22 -3q128 278 291 688q9 -3 17 -3q11 0 24 3zM294 491q0 -104 -44 -156q-37 -44 -97 -44t-98 47q-45 54 -45 157q0 100 44 154q38 47 97 47q60 0 97 -44q46 -54 46 -161zM869 191q0 116 -12 156q-10 33 -37 33q-25 0 -35 -34q-11 -40 -11 -149q0 -111 12 -151
q11 -35 37 -35q27 0 36 32q10 36 10 148zM545 191q0 116 -12 156q-10 33 -37 33q-25 0 -35 -34q-11 -40 -11 -149q0 -111 12 -151q11 -35 37 -35q27 0 36 32q10 36 10 148zM199 489q0 115 -11 154q-10 35 -38 35q-26 0 -35 -34q-11 -39 -11 -149t10.5 -148t38.5 -38
q25 0 35 32q11 38 11 148z" />
    <glyph glyph-name="guilsinglleft" unicode="&#x2039;" horiz-adv-x="203" 
d="M183 119q-11 -5 -19 -19q-12 21 -50 61q-35 34 -103 104q18 23 50 54q42 39 53 51q38 40 50 61q8 -14 19 -19q-42 -39 -53 -66q-9 -23 -9 -80t9 -81q11 -27 53 -66z" />
    <glyph glyph-name="guilsinglright" unicode="&#x203a;" horiz-adv-x="203" 
d="M183 265q-35 -34 -103 -104q-38 -40 -50 -61q-10 15 -19 19q41 39 51.5 65t10.5 82t-10.5 81.5t-51.5 64.5q10 5 19 19q12 -21 50 -61q36 -32 103 -105z" />
    <glyph glyph-name="fraction" unicode="&#x2044;" horiz-adv-x="66" 
d="M199 706q-130 -290 -296 -706q-14 4 -19 4q-9 0 -17 -4q165 370 296 706q8 -3 17 -3q7 0 19 3z" />
    <glyph glyph-name="Euro" unicode="&#x20ac;" horiz-adv-x="489" 
d="M482 122q-15 -63 -59 -99t-108 -36q-101 0 -156 57q-64 66 -82 221q-2 13 -14 13q-15 0 -58 -2q3 9 3 18q0 7 -2 17q36 -3 54 -3q13 0 13 23q0 4 1 11v10q0 18 -12 18q-20 0 -56 -2q3 9 3 17q0 4 -3 18q34 -4 60 -4q12 0 14 12q19 119 80 196q72 92 181 92q87 0 139 -53
q-11 -45 -11 -109q0 -9 2 -24q-12 3 -28 0q-13 166 -100 166q-110 0 -131 -268q-1 -13 12 -13q28 0 189 5q-3 -8 -3 -19t1 -17q-121 4 -180 4q-24 0 -25 -11q-3 -36 -3 -41q0 -13 15 -13q67 0 195 5q-3 -8 -3 -18q0 -12 1 -18q-121 4 -192 4q-15 0 -15 -11q0 -250 128 -250
q95 0 119 104q7 -2 16 -2q8 0 15 2z" />
    <glyph glyph-name="trademark" unicode="&#x2122;" horiz-adv-x="518" 
d="M508 489q-22 2 -53 2q-26 0 -48 -2q2 6 2 8t-2 10q12 -2 14 -2q10 0 10 17q0 104 3 119q1 5 1 12q0 3 -3 3q-1 0 -5 -13q-21 -59 -52 -154h-30q-26 92 -52 149l-5 17q-3 0 -3 -4q0 -6 1 -37t4 -92q2 -16 15 -16q1 0 5 1h7q-2 -8 -2 -10q0 -5 2 -8q-20 2 -37 2
q-19 0 -37 -2q0 2 1 5v5q0 5 -1 8q4 -1 12 -1q12 0 13 34q1 43 1 65q0 17 -1 55q-1 28 -10 28q-1 0 -13 -2q2 8 2 9t-2 9h20q14 -1 21 -1q28 0 39 1q18 -71 47 -136q7 -23 5 -23q3 0 3.5 4t1.5 8q14 45 39 116q7 16 8 31q12 -2 33 -2q26 0 44 2q-1 -4 -1 -9q0 -6 1 -9
q-10 2 -12 2q-9 0 -9 -13q-2 -18 -2 -98q0 -50 2 -60.5t11 -10.5q7 0 12 1q-2 -6 -2 -10t2 -8zM219 650q-5 0 -15 -3q0 41 -35 41q-13 0 -14 -11.5t-1 -50.5q0 -38 2 -88q1 -23 1 -25q2 -7 12 -7q7 0 12 1q-2 -6 -2 -9q0 -1 2 -9q-12 2 -50 2q-30 0 -56 -2q1 3 1 8
q0 6 -1 10q4 -1 11 -1q14 0 15 32q1 44 1 83q0 29 -1 54q-1 13 -14 13q-33 0 -37 -41q-2 1 -6.5 2t-6.5 1q3 18 3 39q0 10 -1 15q37 -4 94 -4q51 0 84 4q-1 -5 -1 -17q0 -22 3 -37z" />
    <glyph glyph-name="fi" unicode="&#xf001;" horiz-adv-x="506" 
d="M496 0q-58 4 -110 4q-72 0 -116 -4q0 1 1 6v6.5v6.5q-1 5 -1 6q16 -4 23 -4q14 0 18 5t5 24q5 115 5 197q0 79 -5 188q-1 21 -20 25q-3 1 -38 1h-36q-25 -1 -28 -1q-10 0 -12 -1.5t-2 -12.5q-2 -78 -2 -89q0 -157 7 -316q1 -19 20 -19q-1 0 26 3q-2 -10 -2 -14
q0 -3 2 -11q-60 5 -121 5q-50 0 -100 -5q0 1 1 5v6.5v7.5q-1 4 -1 6q36 -4 28 -4q18 0 19 20q2 75 2 244q0 58 -2 162q0 13 -19 13q2 0 -28 -3q1 4 1 12q0 9 -1 14q26 -3 31 -3q16 0 16 18v77q0 137 205 137q163 0 163 -84q0 -31 -18.5 -49t-44.5 -18q-25 0 -44 16.5
t-19 46.5q0 14 6 28.5t6 18.5q0 23 -52 23q-47 0 -64 -28q-15 -24 -15 -85v-82q0 -13 2.5 -15.5t15.5 -2.5h61q121 0 187 6q-5 -138 -5 -247q0 -102 4 -190q1 -19 5 -23.5t21 -4.5q-2 0 25 3q-1 -4 -1 -13q0 -8 1 -12z" />
    <glyph glyph-name="fl" unicode="&#xf002;" horiz-adv-x="486" 
d="M476 0q-52 5 -98 5q-56 0 -118 -5q1 4 1 13q0 8 -1 12q15 -3 20 -3q13 0 16.5 3t4.5 16q5 106 5 339v60q0 14 -3.5 16.5t-17.5 2.5q-55 1 -96 1q-14 0 -14 -14q-2 -76 -2 -89q0 -150 7 -316q1 -13 4 -16t14 -3q8 0 23 3q-2 -10 -2 -14q0 -3 2 -11q-60 5 -115 5
q-46 0 -96 -5q0 1 1 5v6.5v7.5q-1 4 -1 6q11 -3 26 -3q11 0 13.5 3t2.5 16q2 77 2 244q0 59 -2 161q0 14 -13 14l-29 -3q1 4 1 12q0 9 -1 14l26 -3q16 0 16 18v77q0 63 51 100t144 37q31 0 76 -6q8 -1 23 -1q28 0 88 5q-4 -77 -4 -312q0 -238 3 -355q0 -14 3.5 -17.5
t19.5 -3.5q5 0 20 3q-1 -4 -1 -14q0 -8 1 -11zM306 500v80q-30 17 -30 44q0 14 6 28.5t6 18.5q0 24 -48 24q-49 0 -60 -36q-5 -15 -5 -78v-82q0 -12 2.5 -15t15.5 -3h90q14 0 18.5 3t4.5 16z" />
    </font>
</defs>
</svg>
